#TITLE:MAX to the XXXimum;
#SUBTITLE:;
#ARTIST:B;
#TITLETRANSLIT:;
#SUBTITLETRANSLIT:;
#ARTISTTRANSLIT:;
#CREDIT:;
#BANNER:XXXbn.png;
#BACKGROUND:XXXbg.png;
#LYRICSPATH:;
#CDTITLE:;
#MUSIC:maxxximum!!s.mp3;
#OFFSET:-0.097;
#SAMPLESTART:72.997;
#SAMPLELENGTH:10.000;
#SELECTABLE:YES;
#BPMS:0.000=400.000,344.000=200.000,400.000=100.000,405.000=400.000,602.000=200.000;
#STOPS:405.000=1.650
,534.000=1.050
;
#BGCHANGES:;
// cache tags:
#FIRSTBEAT:32.000;
#LASTBEAT:604.000;
#SONGFILENAME:Songs/toune 2/seraphs/maxxximum.sm;
#HASMUSIC:1;
#HASBANNER:1;
#MUSICLENGTH:106.509;
// end cache tags

//---------------dance-single - ----------------
#NOTES:
     dance-single:
     :
     Hard:
     12:
     1.000,1.000,0.657,0.413,0.150,682.000,70.000,44.000,0.000,0.000:
0000
0000
0000
0000
,
0000
0000
0000
0000
,
0000
0000
0000
0000
,
0000
0000
0000
0000
,
0000
0000
0000
0000
,
0000
0000
0000
0000
,
0000
0000
0000
0000
,
0000
0000
0000
0000
,
1000
0000
1000
0000
1000
0000
0000
0000
0000
0000
0000
0000
,
0001
0000
0001
0000
0001
0000
0000
0000
0000
0000
0000
0000
,
0100
0000
0100
0000
0100
0000
0010
0000
0010
0000
0010
0000
,
2002
0000
0000
0000
,
0000
0000
0000
0000
,
0000
0000
0000
3003
,
0010
0100
0001
1000
,
0100
0000
0010
0000
0001
0100
0001
0000
,
1000
0010
0100
0001
,
1000
0000
0100
0000
0010
0001
0010
0000
,
0001
1000
0100
0010
,
0001
0000
0100
0000
0010
1000
0010
0000
,
1000
0100
0010
0001
,
0100
0000
0010
0000
1000
0100
1000
0000
,
0002
0000
0000
0000
0010
0000
0000
0000
0010
0000
0000
0003
0010
0000
0000
0000
,
0100
0000
1000
0000
0001
0010
0001
0000
,
2000
0000
0000
0000
0100
0000
0000
0000
0100
0000
0000
3000
0100
0000
0000
0000
,
0010
0000
0001
0000
0100
1000
0100
0000
,
0200
0000
0000
0000
1000
0000
0000
0000
0010
0000
0000
0300
0001
0000
0000
0000
,
1000
0000
0100
0000
0010
0001
0010
0000
,
0020
0000
0000
0000
1000
0000
0000
0000
0100
0000
0000
0030
0001
0000
0000
0000
,
0100
0000
1000
0000
0100
0001
0100
0000
,
1000
0100
1000
0000
0001
0010
0001
0000
,
1000
0100
1000
0000
0001
0010
0001
0000
,
0100
0001
0100
0000
0010
1000
0010
0000
,
0100
0001
0100
0000
0010
1000
0010
0000
,
0100
0001
0010
0000
0100
1000
0010
0000
,
0100
0001
0010
0000
0100
1000
0010
0000
,
1000
0100
0010
0001
0100
0010
1000
0000
,
0001
0100
0010
1000
0100
0010
0001
0000
,
0001
0000
0100
0000
0010
1000
0000
0010
,
1000
0000
0100
0000
0010
0001
0000
0010
,
0001
0000
0100
0000
0010
1000
0000
0100
,
0010
0001
0002
0003
,
1000
0000
0100
0000
0010
0001
0000
0010
,
0001
0000
0100
0000
0010
1000
0000
0010
,
1000
0100
1000
0000
0001
0010
0001
0000
,
1000
0100
0010
0001
0100
0010
1000
0000
,
0100
0000
0100
0000
0000
0010
0000
0001
,
0100
0000
0100
0000
0000
0010
0000
1000
,
0100
0000
0100
0000
0000
0010
0000
0001
,
0100
1010
1100
0011
,
0010
0000
0010
0000
0000
0100
0000
1000
,
0010
0000
0010
0000
0000
0100
0000
0001
,
0010
0000
0000
0000
1100
0000
0000
0000
0101
0000
0000
0000
,
0010
0100
1000
0010
0100
0001
0010
0000
,
0001
0000
1000
0000
0100
0010
0000
0001
,
1000
0000
0001
0000
0100
0010
0000
1000
,
0100
0000
0010
0000
0001
1000
0000
0100
,
1000
0100
0020
0030
,
0010
0000
0100
0000
1000
0001
0000
0010
,
0100
0000
1000
0000
0010
0100
0000
0001
,
1000
0100
1000
0000
0100
0010
0100
0000
,
0010
0001
0010
0100
1000
0100
0001
0000
,
0100
0000
0100
0002
0000
1003
0000
1000
,
0100
0000
0100
2000
0000
3001
0000
0001
,
1000
0000
1000
0002
0000
0103
0000
0100
,
0101
1001
1100
1001
,
0010
0000
0100
2000
0000
3001
0000
0001
,
0100
0000
0010
2000
0000
3001
0000
0001
,
0010
0000
0001
2000
0000
3100
0000
0100
,
1100
1001
0101
1001
,
1000
0010
1000
0020
0000
1030
0000
1000
,
0001
0000
0001
0020
0000
0031
0000
0001
,
1000
0000
1000
0002
0000
0103
0000
0100
,
0110
1100
0110
0101
,
0001
0000
0001
2000
0000
3001
0000
0001
,
1000
0000
1000
0002
0000
1003
0000
1000
,
0010
0000
0010
0200
0000
0301
0000
0001
,
1000
0010
0100
0001
1000
0010
0100
0001
,
0100
0000
0100
0002
0000
1003
0000
1000
,
0100
0000
0100
2000
0000
3001
0000
0001
,
1000
0000
1000
0002
0000
0103
0000
0100
,
0101
1001
1100
1001
,
0010
0000
0100
2000
0000
3001
0000
0001
,
0100
0000
0010
2000
0000
3001
0000
0001
,
0010
0000
0001
2000
0000
3100
0000
0100
,
1100
1001
0101
1001
,
2002
0000
0000
3003
,
0200
0000
0000
0020
0300
0030
1000
0000
,
0202
0000
0000
0303
,
0020
0000
0000
0002
0030
0003
0100
0000
,
2020
0000
0000
3030
,
0002
0000
0000
2000
0003
3000
0100
0000
,
0220
0000
0000
0330
,
0010
0100
1000
0001
0100
0010
0110
0000
,
1000
0000
0010
0000
0000
0100
0000
0001
0010
0000
0100
0000
0000
0010
0000
0001
,
1000
0000
0100
0000
0000
1000
0000
0010
0001
0000
0010
0000
1000
0000
0000
0000
,
0100
0000
0010
0000
0000
0010
0000
0001
1000
0000
0100
0000
0000
1000
0000
0100
,
0010
0000
0001
0000
0000
0001
0000
0100
0010
0000
1000
0000
0001
0000
0000
0000
,
0010
0000
0100
0000
0100
1000
0000
0100
0001
0000
0010
0000
1000
0010
0000
0001
,
0100
0000
0010
0000
1000
0100
0000
0001
0100
0000
1100
0000
1010
0000
0101
0000
,
1000
0000
0000
0000
0000
0000
0000
0000
0001
0000
0000
0000
0000
0000
0000
0000
0100
0000
0000
0010
0000
0000
1000
0000
0100
0000
0000
0010
0000
0000
0001
0000
,
2002
0000
0000
0000
0000
0000
0000
0000
0000
0000
0000
0000
0000
0000
0000
0000
0000
3003
0000
0000
0000
0000
0000
0000
0000
0000
0000
0000
0000
0000
0000
0000
0001
0000
0000
0000
0000
0000
0000
0000
0000
0000
0000
0000
0000
0000
0000
0000
0100
0000
0000
0000
0000
0000
0000
0000
0000
0000
0000
0000
0000
0000
0000
0000
,
0010
1000
0100
0010
,
0001
0010
0001
0000
0100
0000
0010
0000
,
1000
0000
0100
0000
0011
0000
0000
0101
,
0000
1010
1000
0100
,
0010
0001
0100
0010
,
1000
0100
0010
0001
,
0100
0000
0010
0000
1100
0000
0000
0101
,
0000
1010
0010
0100
,
0001
1000
0100
0010
,
0100
0010
0100
0000
0100
0000
1000
0000
,
0001
0000
0100
0000
0110
0000
0000
0101
,
0000
1100
1000
0100
,
0001
0100
1000
0010
,
0100
0001
0100
0000
0001
0000
0100
0000
,
1000
0000
0100
0000
0101
0000
0000
0011
,
0000
1100
1000
0001
,
0100
0010
0100
0000
0001
0000
1000
0000
,
0100
0010
0100
0000
0010
0000
0001
0000
,
1000
0010
1000
0000
0010
0000
1000
0000
,
0001
0010
0001
0000
0100
0000
0010
0000
,
1000
0100
0010
0000
0001
0000
0100
0000
,
0010
1000
0100
0000
0010
0000
0001
0000
,
0100
0010
1000
0000
0100
0000
0010
0000
,
0001
0100
0010
0000
1000
0010
1000
0000
,
0001
0100
0001
0000
1000
0100
1000
0000
,
0001
0010
0001
0000
1000
0100
0010
0000
,
0001
0100
0010
0000
1000
0010
0100
0000
,
0001
0010
0100
0000
1000
0100
0010
0001
,
0100
0010
1000
0000
0001
0100
0010
1000
,
0100
0010
0001
0000
1000
0010
0100
0001
,
0010
0100
1000
0010
0100
0001
0010
0100
,
1000
0010
0100
0000
0110
0000
0100
0010
,
0100
0010
0100
0000
0010
1000
0010
1000
,
0010
0000
0100
0001
0100
0001
0100
0000
,
0001
0010
0001
0010
0001
0000
1000
0100
,
1000
0100
1000
0000
0100
0010
0100
0010
,
0100
0000
0010
0001
0010
0001
0010
0000
,
0001
1000
0001
1000
0001
0000
1000
0010
,
1000
0010
1000
0000
0010
0100
0010
0100
,
0010
1000
0100
0010
0001
0000
1001
0000
,
0000
1100
0000
0000
0101
0000
0000
0000
,
0000
0000
1000
0011
,
0000
1100
0000
0000
0101
0000
1010
0000
,
0000
1100
0000
0000
0011
0000
1001
0000
,
0000
1010
0000
0000
0110
0000
0101
0000
,
0000
1001
0000
0000
1100
0000
0110
0000
,
0000
0011
0000
0000
1001
0000
1010
0000
,
0000
1100
0000
0000
0101
0000
2002
0000
,
0000
0000
0000
0000
0000
3003
0000
0000
;

//---------------dance-single - ----------------
#NOTES:
     dance-single:
     :
     Beginner:
     4:
     0.217,0.351,0.150,0.000,0.000,146.000,16.000,0.000,0.000,0.000:
0000
0000
0000
0000
,
0000
0000
0000
0000
,
0000
0000
0000
0000
,
0000
0000
0000
0000
,
0000
0000
0000
0000
,
0000
0000
0000
0000
,
0000
0000
0000
0000
,
0000
0000
0000
0000
,
1000
0000
0000
0000
,
0001
0000
0000
0000
,
0010
0000
0100
0000
,
1001
0000
0000
0000
,
0000
0000
0000
0000
,
0000
0000
0000
0000
,
1000
0000
0000
0000
,
0001
0000
0000
0000
,
0010
0000
0000
0000
,
0010
0000
0000
0000
,
0100
0000
0000
0000
,
0100
0000
0000
0000
,
1000
0000
0000
0000
,
0001
0000
0000
0000
,
0010
0000
0000
0000
,
0100
0000
0000
0000
,
0010
0000
0000
0000
,
0100
0000
0000
0000
,
1000
0000
0000
0000
,
0010
0000
0000
0000
,
0001
0000
0000
0000
,
0100
0000
0000
0000
,
1000
0000
0000
0000
,
1000
0000
0000
0000
,
0100
0000
0000
0000
,
0100
0000
0000
0000
,
0001
0000
0000
0000
,
0010
0000
0000
0000
,
0100
0000
0000
0000
,
1000
0000
0000
0000
,
0011
0000
0000
0000
,
0100
0000
0000
0000
,
0001
0000
0000
0000
,
0100
0000
0000
0000
,
1000
0000
0000
0000
,
0001
0000
0000
0000
,
0001
0000
0000
0000
,
0010
0000
0000
0000
,
0100
0000
0000
0000
,
0100
0000
0000
0000
,
1000
0000
0000
0000
,
0001
0000
0000
0000
,
0010
0000
0000
0000
,
0100
0000
0000
0000
,
1000
0000
0000
0000
,
0100
0000
0000
0000
,
1100
0000
0000
0000
,
0100
0000
0000
0000
,
0001
0000
0000
0000
,
0010
0000
0000
0000
,
0100
0000
0000
0000
,
0001
0000
0000
0000
,
0010
0000
0000
0000
,
1000
0000
0000
0000
,
0110
0000
0000
0000
,
0100
0000
0000
0000
,
0010
0000
0000
0000
,
0001
0000
0000
0000
,
0010
0000
0000
0000
,
1000
0000
0000
0000
,
0100
0000
0000
0000
,
0010
0000
0000
0000
,
1001
0000
0000
0000
,
0010
0000
0000
0000
,
0100
0000
0000
0000
,
1000
0000
0000
0000
,
0010
0000
0000
0000
,
0001
0000
0000
0000
,
0010
0000
0000
0000
,
0100
0000
0000
0000
,
0101
0000
0000
0000
,
0100
0000
0000
0000
,
0010
0000
0000
0000
,
0001
0000
0000
0000
,
1000
0000
0000
0000
,
0100
0000
0000
0000
,
0010
0000
0000
0000
,
0001
0000
0000
0000
,
1010
0000
0000
0000
,
1000
0000
0000
0000
,
0001
0000
0000
0000
,
0010
0000
0000
0000
,
0100
0000
0000
0000
,
1000
0000
0000
0000
,
0001
0000
0000
0000
,
0010
0000
0000
0000
,
0110
0000
0000
0000
,
0010
0000
0000
0000
,
1000
0000
0000
0000
,
0001
0000
0000
0000
,
0010
0000
0000
0000
,
0100
0000
0000
0000
,
0010
0000
0100
0000
,
1001
0000
0000
0000
,
0001
0000
0000
0000
,
0010
0000
0000
0000
,
0100
0000
0000
0000
,
1000
0000
0000
0000
,
0010
0000
0000
0000
,
0001
0000
0000
0000
,
0100
0000
0000
0000
,
1000
0000
0000
0000
,
0001
0000
0000
0000
,
0010
0000
0000
0000
,
0100
0000
0000
0000
,
0010
0000
0000
0000
,
0001
0000
0000
0000
,
0100
0000
0000
0000
,
1000
0000
0000
0000
,
0000
0110
0000
0000
,
0000
1000
0000
0000
,
0000
0001
0000
0000
,
0000
0010
0000
0000
,
0000
0100
0000
0000
,
0000
0001
0000
0000
,
0000
0010
0000
0000
,
0000
0100
0000
0000
,
0000
0010
0000
0000
,
0000
1000
0000
0000
,
0000
0001
0000
0000
,
0000
0010
0000
0000
,
0000
0100
0000
0000
,
0000
1000
0000
0000
,
0000
0001
0000
0000
,
0000
0010
0000
0000
,
0000
0000
1001
0000
,
0010
0000
1000
0000
,
0001
0000
0010
0000
,
0100
0000
0001
0000
,
1000
0000
0010
0000
,
0100
0000
0001
0000
,
1000
0000
0010
0000
,
0100
0000
0001
0000
,
0100
0000
0000
0110
,
0000
0000
0000
0000
,
0000
0000
0000
1010
,
0000
0000
0000
0000
,
0000
0000
0000
0101
,
0000
0000
0000
0000
,
0000
0000
0000
1010
,
0000
0000
0000
0000
,
0000
0000
0000
1001
;

//---------------dance-single - Copied from----------------
#NOTES:
     dance-single:
     Copied from:
     Challenge:
     13:
     1.000,1.000,0.563,0.432,0.239,707.000,60.000,46.000,0.000,0.000:
0000
0000
0000
0000
,
0000
0000
0000
0000
,
0000
0000
0000
0000
,
0000
0000
0000
0000
,
0000
0000
0000
0000
,
0000
0000
0000
0000
,
0000
0000
0000
0000
,
0000
0000
0000
0000
,
0100
0000
0010
0000
0100
0000
0000
0000
0000
0000
0000
0000
,
0010
0000
0100
0000
0010
0000
0000
0000
0000
0000
0000
0000
,
1000
0000
0001
0000
1000
0000
0001
0000
1000
0000
0001
0000
,
2002
0000
0000
0000
,
0000
0000
0000
0000
,
0000
0000
0000
3003
,
1000
0001
0010
0100
,
0001
0000
1000
0000
0010
0001
0010
0000
,
0100
1000
0001
0010
,
0100
0000
0001
0000
1000
0010
1000
0000
,
0010
0100
0001
1000
,
0010
0000
0001
0000
1000
0100
1000
0000
,
0100
0001
1000
0010
,
0001
0000
1000
0000
0100
0001
0100
0000
,
0020
0000
0000
0000
1000
0000
0000
0000
1000
0000
0000
0030
1000
0000
0000
0000
,
0001
0000
0100
0000
0010
1000
0010
0000
,
0200
0000
0000
0000
0001
0000
0000
0000
0001
0000
0000
0300
0001
0000
0000
0000
,
1000
0000
0010
0000
0001
0100
0001
0000
,
0002
0000
0000
0000
0100
0000
0000
0000
1000
0000
0000
0003
0010
0000
0000
0000
,
0100
0000
0001
0000
1000
0010
1000
0000
,
2000
0000
0000
0000
0100
0000
0000
0000
0001
0000
0000
3000
0010
0000
0000
0000
,
0001
0000
0100
0000
0001
0010
0001
0000
,
0100
1000
0100
0000
0010
0100
0010
0000
,
0100
0010
0100
0000
0010
1000
0010
0000
,
0001
0010
0001
0000
1000
0100
1000
0000
,
0001
0010
0001
0000
1000
0100
1000
0000
,
0001
0010
0100
0000
1000
0010
0100
0000
,
0001
0100
1000
0000
1000
0010
0001
0000
,
0100
0001
1000
0010
0001
1000
0100
0000
,
0010
0001
1000
0100
0001
1000
0010
0000
,
0010
0000
0001
0000
1000
0100
0000
1000
,
0100
0000
0001
0000
1000
0010
0000
1000
,
0010
0000
0001
0000
1000
0100
0000
0001
,
1000
0010
0020
0030
,
0100
0000
0001
0000
1000
0010
0000
1000
,
0010
0000
0001
0000
1000
0100
0000
1000
,
0100
0001
0100
0000
0010
1000
0010
0000
,
0100
0001
1000
0010
0001
1000
0100
0000
,
0001
0000
0001
0000
0000
1000
0000
0010
,
0001
0000
0001
0000
0000
0100
0000
0010
,
0001
0000
1000
0000
0000
1000
0000
0010
,
0001
0000
0000
1100
0000
0100
0001
0000
0000
1010
0000
0000
,
1000
0000
1000
0000
0000
0001
0000
0100
,
1000
0000
1000
0000
0000
0010
0000
0100
,
0001
0000
0000
0000
0101
0000
0000
0000
0011
0000
0000
0000
,
1000
0001
0100
1000
0001
0010
1000
0000
,
0010
0000
0100
0000
0001
1000
0000
0010
,
0100
0000
0010
0000
0001
1000
0000
0100
,
0001
0000
1000
0000
0010
0100
0000
0001
,
0100
0001
2000
3000
,
1000
0000
0001
0000
0100
0010
0000
1000
,
0001
0000
0100
0000
1000
0001
0000
0010
,
0100
0001
0100
0000
0001
1000
0001
0000
,
1000
0010
1000
0001
0100
0001
0010
0000
,
0001
0000
0001
0020
0000
0130
0000
0100
,
1000
0000
1000
0200
0000
0310
0000
0010
,
0100
0000
0100
0020
0000
0031
0000
0001
,
0011
0000
0100
1000
0000
0000
0101
0000
0000
0110
0000
0000
,
1000
0000
0001
0200
0000
0310
0000
0010
,
0001
0000
1000
0200
0000
0310
0000
0010
,
1000
0000
0010
0200
0000
0301
0000
0001
,
0101
0000
0100
0010
0000
0000
0011
0000
0000
0110
0000
0000
,
0100
1000
0100
2000
0000
3100
0000
0100
,
0010
0000
0010
2000
0000
3010
0000
0010
,
0100
0000
0100
0020
0000
0031
0000
0001
,
1001
0000
0100
0001
0000
0000
1001
0000
0000
0011
0000
0000
,
0010
0000
0010
0200
0000
0310
0000
0010
,
0100
0000
0100
0020
0000
0130
0000
0100
,
1000
0000
1000
0002
0000
0013
0000
0001
,
0010
0100
1000
0010
0001
0100
0001
0010
,
1000
0000
0001
0020
0000
0130
0000
0100
,
1000
0000
1000
0200
0000
0310
0000
0010
,
0100
0000
0100
0020
0000
1030
0000
1000
,
0011
0000
0000
0110
0000
1000
0001
0000
0000
0110
0000
0000
,
1000
0000
0001
0200
0000
0310
0000
0010
,
0001
0000
1000
0200
0000
0310
0000
0010
,
1000
0000
0010
0200
0000
0301
0000
0001
,
0101
0000
1000
0010
0000
0000
0011
0000
0000
0110
0000
0000
,
2002
0000
0000
3000
0020
0003
0000
0030
,
1100
0000
0000
0011
0000
0000
1100
0000
,
0202
0000
0300
2000
0000
3000
0003
0000
,
0020
0000
0000
0002
0030
0003
1100
0000
,
2020
0030
0002
3000
,
0200
0000
0003
0300
1001
0000
0110
0000
,
2002
0000
0003
3200
0000
0320
0000
0030
,
0001
1000
0010
0100
1000
0001
1001
0000
,
0010
0000
0001
0000
0000
1000
0000
0100
0001
0000
1000
0000
0000
0001
0000
0100
,
0010
0000
1000
0000
0000
0010
0000
0001
0100
0000
0001
0000
0010
0000
0000
0000
,
1000
0000
0001
0000
0000
0001
0000
0100
0010
0000
1000
0000
0000
0010
0000
1000
,
0001
0000
0100
0000
0000
0100
0000
1000
0001
0000
0010
0000
0100
0000
0000
0000
,
0001
0000
1000
0000
1000
0010
0000
1000
0100
0000
0001
0000
0010
0001
0000
0100
,
1000
0000
0001
0000
0010
1000
0000
0100
1000
0000
1010
0000
0011
0000
1100
0000
,
1000
0000
0010
0000
0000
0000
1000
0000
0001
0000
0000
0000
0010
0000
1000
0000
0000
0000
0010
0000
0001
0000
1000
0000
0010
0000
0000
0100
0000
0000
0001
0000
,
2002
0000
0000
0000
0000
0000
0000
0000
0000
0000
0000
0000
0000
0000
0000
0000
0000
3003
0000
0000
0000
0000
0000
0000
0000
0000
0000
0000
0000
0000
0000
0000
1000
0000
0000
0000
0000
0000
0000
0000
0000
0000
0000
0000
0000
0000
0000
0000
0010
0000
0000
0000
0000
0000
0000
0000
0000
0000
0000
0000
0000
0000
0000
0000
,
0100
0001
0010
0100
,
1000
0100
1000
0000
0010
0000
0100
0000
,
0001
0000
0000
0000
0000
0000
0010
0000
0000
0000
0000
0000
1100
0000
0000
0000
0000
0000
0000
0000
0001
0010
0000
0000
,
0000
0101
0001
0010
,
0100
1000
0010
0100
,
0001
0010
0100
1000
,
0010
0000
0000
0000
0000
0000
0100
0000
0000
0000
0000
0000
0011
0000
0000
0000
0000
0000
0000
0000
1000
0010
0000
0000
,
0000
0101
0100
0010
,
1000
0001
0010
0100
,
0010
0100
0010
0000
0010
0000
0001
0000
,
1000
0000
0000
0000
0000
0000
0010
0000
0000
0000
0000
0000
0110
0000
0000
0000
0000
0000
0000
0000
1000
0010
0000
0000
,
0000
0011
0001
0010
,
1000
0010
0001
0100
,
0010
1000
0010
0000
1000
0000
0010
0000
,
0001
0000
0010
0000
1010
0000
0000
1100
,
0000
0011
0001
1000
,
0010
0100
0010
0000
1000
0000
0001
0000
,
0010
0100
0010
0000
0100
0000
1000
0000
,
0001
0100
0001
0000
0100
0000
0001
0000
,
1000
0100
1000
0000
0010
0000
0100
0000
,
0001
0010
0100
0000
1000
0000
0010
0000
,
0100
0001
0010
0000
0100
0000
1000
0000
,
0010
0100
0001
0000
0010
0000
0100
0000
,
1000
0010
0100
0000
0001
0100
0001
0000
,
1000
0010
1000
0000
0001
0010
0001
0000
,
1000
0100
1000
0000
0001
0010
0100
0000
,
1000
0010
0100
0000
0001
0100
0010
0000
,
1000
0100
0010
0000
0001
0010
0100
1000
,
0010
0100
0001
0000
1000
0010
0100
0001
,
0010
0100
1000
0000
0001
0100
0010
1000
,
0100
0010
0001
0100
0010
1000
0100
0010
,
0001
0100
0010
0000
0110
0000
1000
0010
,
1000
0001
1000
0000
0001
0010
0001
1000
,
0001
0000
0100
0001
0100
1000
0100
0000
,
0010
1000
0010
0001
0010
0000
0100
1000
,
0001
0100
0010
0000
1000
0100
0001
0010
,
1000
0000
0001
0010
1000
0001
1000
0000
,
0001
0010
0001
1000
0100
0000
0010
0100
,
0010
0001
0010
0000
1000
0010
0100
0010
,
0001
1000
0010
0100
1000
0000
1001
0000
,
0000
0011
0000
0000
1010
0000
0000
0000
,
0000
0000
0000
0000
0000
0000
0001
0000
0100
1000
0000
0000
,
0000
0000
0000
0011
0000
0000
0000
0000
0000
0000
0000
0000
1010
0000
0000
0000
0001
0000
0100
0000
0000
0000
0000
0000
,
0000
0000
0000
0011
0000
0000
0000
0000
0000
0000
0000
0000
1100
0000
0000
0000
0100
0000
0001
0000
0000
0000
0000
0000
,
0000
0000
0000
0101
0000
0000
0000
0000
0000
0000
0000
0000
0110
0000
0000
0000
0100
0000
0010
0000
0000
0000
0000
0000
,
0000
0000
0000
1001
0000
0000
0000
0000
0000
0000
0000
0000
0011
0000
0000
0000
0100
0000
0010
0000
0000
0000
0000
0000
,
0000
0000
0000
1100
0000
0000
0000
0000
0000
0000
0000
0000
1001
0000
0000
0000
0001
0000
0100
0000
0000
0000
0000
0000
,
0000
0000
0000
0011
0000
0000
0000
0000
0000
0000
0010
0000
0100
0000
0000
0000
0000
0000
2002
0000
0000
0000
0000
0000
,
0000
0000
0000
0000
,
3003
0000
0000
0000
;

//---------------dance-single - Copied from----------------
#NOTES:
     dance-single:
     Copied from:
     Easy:
     8:
     0.373,0.565,0.244,0.056,0.000,246.000,26.000,6.000,0.000,0.000:
0000
0000
0000
0000
,
0000
0000
0000
0000
,
0000
0000
0000
0000
,
0000
0000
0000
0000
,
0000
0000
0000
0000
,
0000
0000
0000
0000
,
0000
0000
0000
0000
,
0000
0000
0000
0000
,
1010
0000
0000
0000
,
1001
0000
0000
0000
,
0011
0000
1100
0000
,
2002
0000
0000
0000
,
0000
0000
3003
0000
,
0000
0000
0000
0000
,
0100
0000
0000
0000
,
0010
0000
0000
0000
,
1000
0000
0001
0000
,
1000
0000
0100
0000
,
0001
0000
0000
0000
,
0001
0000
0000
0000
,
0100
0000
0000
0000
,
0010
0000
0001
0000
,
1000
0000
0010
0000
,
0001
0000
0000
0000
,
1000
0000
0000
0000
,
0001
0000
0000
0000
,
0100
0000
0100
0000
,
1000
0000
1000
0000
,
0010
0000
0010
0000
,
0001
0000
0000
0000
,
0100
0000
0000
0000
,
0100
0000
0000
0000
,
0001
0000
0010
0000
,
0001
0000
0100
0000
,
0010
0000
0000
0000
,
1000
0000
0000
0000
,
0001
0000
0000
0000
,
0100
0000
0000
0000
,
1010
0000
1000
0000
,
0001
0000
0100
0000
,
0010
0000
0010
0000
,
0001
0000
1000
0000
,
0100
0000
0001
0000
,
0010
0000
1000
0000
,
0010
0000
0010
0000
,
1000
0000
0001
0000
,
0001
0000
1000
0000
,
0001
0000
0010
0000
,
0100
0000
0100
0000
,
0010
0000
0001
0000
,
1000
0000
0100
0000
,
0001
0000
1000
0000
,
0100
0000
0010
0000
,
0001
0000
1010
0000
,
0101
0000
0000
0000
,
0001
0000
0000
0000
,
0010
0000
0000
0000
,
1000
0000
0000
0000
,
0001
0000
0000
0000
,
0010
0000
0000
0000
,
1000
0000
0000
0000
,
0100
0000
0000
0000
,
1001
0000
0010
0000
,
0001
0000
0100
0000
,
1000
0000
0001
0000
,
0010
0000
0010
0000
,
1000
0000
0001
0000
,
0100
0000
0010
0000
,
0001
0000
0100
0000
,
1000
0000
0010
0000
,
0110
0000
0001
0000
,
1000
0000
1000
0000
,
0001
0000
0100
0000
,
0100
0000
0010
0000
,
1000
0000
0001
0000
,
0010
0000
0001
0000
,
1000
0000
1000
0000
,
0001
0000
0100
0000
,
0011
0000
0000
0000
,
0001
0000
0010
0000
,
1000
0000
0000
0000
,
0010
0000
0001
0000
,
0100
0000
0000
0000
,
0001
0000
0100
0000
,
1000
0000
0001
0000
,
0010
0000
0000
0000
,
1100
0000
0000
0000
,
0100
1000
0000
0001
,
0010
0000
0000
0000
,
1000
0010
0000
0100
,
0001
0000
0000
0000
,
0100
0010
0000
0001
,
0010
0000
0000
0000
,
1000
0010
0000
0100
,
1001
0000
0000
0000
,
1000
0010
0000
0001
,
0100
0000
0000
0000
,
0010
0100
0000
0010
,
1000
0000
0000
0000
,
0001
1000
0000
0001
,
1000
0000
0110
0000
,
2002
3003
0000
0000
,
0010
0000
0100
0000
,
1000
0000
0100
0000
,
0001
0010
0001
0000
,
0100
0000
0001
0000
,
1000
0000
0001
0000
,
0010
1000
0010
0000
,
0001
0000
1000
0000
,
0100
0000
0010
0000
,
0010
0100
0010
0000
,
1000
0000
0100
0000
,
0001
0000
0010
0000
,
1000
0000
0001
0000
,
0010
0001
0010
0000
,
0001
0000
0010
0000
,
0100
1000
0100
0000
,
0000
1001
0000
0010
,
0000
0100
0000
0001
,
0000
0010
0000
0001
,
0000
1000
0000
0100
,
0000
0001
0000
1000
,
0000
0010
0000
0001
,
0000
1000
0000
0100
,
0000
0001
0000
1000
,
0000
1000
0000
0001
,
0000
0100
0000
0010
,
0000
1000
0000
0001
,
0000
1000
0000
0010
,
0000
0001
0000
1000
,
0000
0100
0000
0001
,
0000
0010
0000
0100
,
0000
1000
0000
0010
,
0000
0000
0110
1000
,
1000
0000
0000
0010
,
0010
0000
0000
0001
,
0001
0000
0000
1000
,
1000
0000
0000
0001
,
0001
0000
0000
0100
,
0100
0000
0000
0001
,
0001
0000
1000
1000
,
0000
0000
0000
1001
,
0000
0000
1010
0000
,
0000
0000
0000
1100
,
0000
0000
1010
0000
,
0000
0000
0000
0011
,
0000
0000
1100
0000
,
0000
0000
0000
1100
,
0000
0000
0011
0000
,
0000
0000
0000
2002
,
0000
0000
3003
0000
;

//---------------dance-single - Copied from Copied f----------------
#NOTES:
     dance-single:
     Copied from Copied f:
     Medium:
     10:
     0.630,0.777,0.498,0.056,0.000,411.000,53.000,6.000,0.000,0.000:
0000
0000
0000
0000
,
0000
0000
0000
0000
,
0000
0000
0000
0000
,
0000
0000
0000
0000
,
0000
0000
0000
0000
,
0000
0000
0000
0000
,
0000
0000
0000
0000
,
0000
0000
0000
0000
,
0010
1000
0001
0000
0000
0000
0000
0000
,
0100
0001
1000
0000
0000
0000
0000
0000
,
0001
0010
0100
0000
1000
0100
0010
0000
,
2002
0000
0000
0000
,
0000
0000
3003
0000
,
0000
0000
0000
0000
,
0010
0000
0001
0000
,
0100
0000
0000
0000
,
0001
0010
1000
0100
,
0001
1000
0010
0001
,
1000
0000
0010
0000
,
1000
0000
0100
0000
,
0010
0000
1000
0000
,
0100
0001
1000
0100
,
0001
1000
0100
0001
,
1000
0000
0100
0000
,
0001
0000
0010
0000
,
1000
0000
0100
0000
,
0010
1000
0010
0100
,
0001
0010
0001
1000
,
0100
0001
0100
0010
,
1000
0000
0100
0000
,
0010
0000
0001
0000
,
0010
0000
1000
0000
,
1000
0010
0100
0001
,
1000
0100
0010
1000
,
0100
0000
0010
0000
,
0001
0000
0100
0000
,
1000
0000
0001
0000
,
0010
0000
1000
0000
,
0101
0000
0001
0010
,
1000
0000
0010
0001
,
0100
0000
0100
0010
,
1000
0000
0001
1000
,
0010
0000
1000
0001
,
0100
0000
0001
0010
,
0100
0000
0100
1000
,
0001
0000
1000
0001
,
1000
0000
0001
0100
,
1000
0000
0100
0001
,
0010
0000
0010
1000
,
0100
0000
1000
0010
,
0001
0000
0010
0100
,
1000
0000
0001
1000
,
0010
0000
0100
0001
,
1000
0000
0101
0000
,
1010
0000
0000
0000
,
1000
0000
0010
0000
,
0100
0000
1000
0000
,
0001
0000
0010
0000
,
1000
0000
0001
0000
,
0100
0000
1000
0000
,
0001
0000
0100
0000
,
0010
0000
0001
0000
,
1001
0000
0100
0010
,
1000
0100
0010
0100
,
0001
0010
1000
0001
,
0100
1000
0100
0010
,
0001
0100
1000
0001
,
0010
1000
0100
0010
,
1000
0100
0010
1000
,
0001
0010
0100
0001
,
0110
0000
1000
0000
,
0001
0000
0001
0000
,
1000
0000
0010
0000
,
0010
0000
0100
0000
,
0001
0000
1000
0000
,
0100
0000
1000
0000
,
0001
0000
0001
0000
,
1000
0000
0010
0000
,
1100
0000
0000
0000
,
1000
0010
0100
1000
,
0001
0000
0010
0000
,
0100
0001
1000
0100
,
0010
0000
0100
0000
,
1000
0001
0010
1000
,
0001
0010
1000
0010
,
0100
0000
1000
0000
,
0011
0000
0000
0000
,
1010
0101
0000
1001
,
0110
0000
0000
0000
,
0101
0110
0000
0011
,
1100
0000
0000
0000
,
0011
1100
0000
1010
,
0101
0000
0000
0000
,
0101
0110
0000
1010
,
1100
0000
0000
0000
,
1001
0101
0000
1010
,
0110
0000
0000
0000
,
1100
0011
0000
0110
,
1001
0000
0000
0000
,
1001
0011
0000
1100
,
1001
0000
0011
1100
,
2002
3003
0000
0000
,
0100
1000
0010
0100
,
0001
1000
0010
0001
,
0000
1000
0010
1000
0000
0000
0100
0000
,
0010
0001
1000
0100
,
0001
0100
1000
0010
,
0100
0001
0100
0000
0010
0000
0100
0000
,
1000
0100
0001
1000
,
0010
0001
0100
1000
,
0100
0010
0100
0000
0001
0000
1000
0000
,
0001
0100
0010
0001
,
1000
0010
0100
1000
,
0001
0010
1000
0001
,
0100
1000
0100
0000
0001
0000
0010
0000
,
1000
0010
0100
1000
,
0010
0001
0010
0000
1000
0000
0100
0000
,
0010
1001
0010
0100
,
1000
0010
0001
1000
,
0010
0100
0010
1000
,
0100
0001
1000
0010
,
0001
1000
0010
0001
,
1000
0100
0010
1000
,
0100
0001
1000
0010
,
0001
1000
0100
0001
,
0010
0001
0010
1000
,
0100
0010
0001
0100
,
1000
0001
0010
1000
,
0100
0001
0010
0100
,
0010
1000
0100
0001
,
0100
0010
0001
1000
,
0010
0100
1000
0010
,
0100
0001
1000
0100
,
0000
0000
0110
0001
,
0001
1000
1000
0100
,
0100
0010
0010
1000
,
1000
0100
0100
0001
,
0001
0010
0010
1000
,
1000
0100
0100
0010
,
0010
0100
0100
1000
,
1000
0000
0001
0001
,
0000
0000
0000
1001
,
0000
0000
0101
0000
,
0000
0000
0000
0011
,
0000
0000
0101
0000
,
1001
0000
0000
1100
,
0000
0000
0011
0000
,
1010
0000
0000
0011
,
0000
0000
1100
0000
,
0110
0000
0000
2002
,
0000
0000
3003
0000
;
