#TITLE:Nice Nice Noise;
#SUBTITLE:;
#ARTIST:Vospi;
#TITLETRANSLIT:;
#SUBTITLETRANSLIT:;
#ARTISTTRANSLIT:;
#CREDIT:;
#BANNER:nnn.png;
#BACKGROUND:nnn-bg.png;
#LYRICSPATH:;
#CDTITLE:vospi.png;
#MUSIC:nice nice noise.mp3;
#OFFSET:-0.071;
#SAMPLESTART:90.656;
#SAMPLELENGTH:14.000;
#SELECTABLE:YES;
#BPMS:0.000=143.000;
#STOPS:;
#BGCHANGES:;
// cache tags:
#FIRSTBEAT:0.000;
#LASTBEAT:296.000;
#SONGFILENAME:Songs/Keys of Flames/Nice Nice Noise (Vospi)/nnn.sm;
#HASMUSIC:1;
#HASBANNER:1;
#MUSICLENGTH:125.962;
// end cache tags

//---------------dance-single - ----------------
#NOTES:
     dance-single:
     :
     Hard:
     11:
     0.981,1.000,0.564,0.032,1.000,790.000,71.000,4.000,0.000,0.000:
1001
0000
0000
0000
,
0000
0000
0000
0000
,
0000
0000
0000
0000
,
0000
0000
0000
0000
,
1000
0000
0010
0000
,
0100
0100
0100
0100
,
0010
0000
0001
0000
,
1000
1000
1000
1000
,
0100
0000
0001
0000
,
0010
0010
0100
0010
,
1000
0000
0001
0000
,
0001
0000
0000
0000
0001
0000
0000
0000
0001
0000
0000
0000
0001
1000
0010
0100
,
0001
0000
0000
0000
0001
0100
0010
0100
0001
0010
0100
1000
0001
0010
0100
1000
,
0001
1000
0100
1000
0001
0100
0010
0100
0001
1000
0010
1000
0001
0100
0010
0100
,
0010
0000
0000
0000
0010
1000
0010
0100
0001
0010
0100
1000
0001
0010
0100
1000
,
0010
0100
0001
0100
0010
0100
0001
0100
1000
0100
0001
0100
0010
0100
0001
0100
,
0010
0000
1000
0000
0100
0000
1000
0000
0010
0000
1000
0000
0100
0000
1000
0000
0010
0000
1000
0000
0100
0000
1000
0000
0010
0100
0010
0000
0100
0000
0010
0000
,
0100
0000
0001
0000
0010
0000
0001
0000
0100
0000
0001
0000
0010
0000
0001
0000
0100
0000
0010
0000
1000
0000
0010
0000
1000
0010
1000
0000
0010
0000
0100
0000
,
0010
1000
0100
0010
0001
1000
0100
0010
0001
1000
0100
0010
0001
1000
0100
0010
,
0001
0100
0010
1000
0100
0010
0100
1000
0001
1000
0001
1000
0001
1000
0001
1000
,
0110
0000
0001
0000
0010
0001
0100
0010
1000
0010
1000
0001
0100
0001
0010
0001
,
0010
0010
0110
0100
1100
0001
0110
1000
,
0110
0000
1000
0000
0010
0100
0010
1000
0001
0010
0100
1000
0010
0100
0001
0010
,
0100
0100
0110
0010
0011
1000
0110
0001
,
0110
0000
0001
0000
0010
1000
0100
0010
0001
0100
0010
0100
0001
0010
0100
1000
,
0010
0010
0110
0100
1100
0001
0110
1000
,
0110
0000
1000
0000
0010
0100
0010
1000
0001
0010
0100
1000
0010
0100
0001
0010
,
0100
0100
0110
0010
0011
1000
0110
0001
,
0110
0000
0001
0000
0010
0001
0100
0010
1000
0010
1000
0001
0100
0001
0010
0001
,
0010
0010
0110
0100
1100
0001
0110
1000
,
0110
0000
1000
0000
0010
0100
0010
1000
0001
0010
0100
1000
0010
0100
0001
0010
,
0100
0100
0110
0010
0011
1000
0110
0001
,
0110
0000
0001
0000
0010
1000
0100
0010
0001
0100
0010
0100
0001
0010
0100
1000
,
0010
0010
0110
0100
1100
0001
0110
1000
,
0110
0000
1000
0000
0010
0100
0010
1000
0001
0010
0100
1000
0010
0100
0001
0010
,
0100
0100
0110
0010
0011
1000
0110
0001
,
1000
0001
1000
0001
1000
0001
1000
0001
2002
0000
0000
0000
0000
0000
0000
0000
,
3003
0000
0000
0000
0100
1000
0010
0100
0001
0010
0100
1000
0001
0010
0100
1000
,
0010
1000
0100
1000
0001
0100
0010
0100
0010
1000
0100
1000
0010
0100
0001
1000
,
0010
0000
0000
0000
0010
0100
0010
1000
0001
0010
0100
1000
0001
0010
0100
1000
,
0010
0100
0001
0100
0010
0100
0001
0100
1000
0100
0001
0100
0010
0100
0001
0100
,
0010
0000
0000
0000
0001
1000
0100
0010
0001
0010
0100
1000
0001
0010
0100
1000
,
0010
1000
0100
1000
0010
0100
1000
0100
0010
1000
0100
1000
0010
0100
0001
1000
,
0001
0000
0000
0000
0001
0100
0010
0100
0001
0010
0100
1000
0001
0010
0100
1000
,
0001
1000
0010
1000
0001
0100
0010
0100
0001
1000
0010
0100
0001
0010
0100
1000
,
0100
0000
1000
0000
0100
0000
1000
0000
0001
0010
0100
0000
0000
0000
0000
0000
0100
0000
0010
0000
0100
0000
0001
0000
0010
0000
0100
0000
0010
0000
0001
0000
,
0010
0000
0001
0000
0010
0000
0001
0000
1000
0100
0010
0000
0000
0000
0000
0000
0010
0000
0100
0000
0010
0000
1000
0000
0100
0000
0010
0000
0100
0000
1000
0000
,
0100
0000
1000
0000
0100
0000
1000
0000
0001
0010
0100
0000
0000
0000
0000
0000
0100
0000
0010
0000
0100
0000
0001
0000
0010
0000
0100
0000
0010
0000
0001
0000
,
0010
0000
0001
0000
0010
0000
0001
0000
1000
0100
0010
0000
0000
0000
0000
0000
0010
0000
0100
0000
0010
0000
1000
0000
0100
0000
0010
0000
0100
0000
1000
0000
,
0100
0000
1000
0000
0100
0000
1000
0000
0001
0010
0100
0000
0000
0000
0000
0000
0100
0000
0010
0000
0100
0000
0001
0000
0010
0000
0100
0000
0010
0000
0001
0000
,
0010
0000
0001
0000
0010
0000
0001
0000
1000
0100
0010
0000
0000
0000
0000
0000
0010
0000
0100
0000
0010
0000
1000
0000
0100
0000
0010
0000
0100
0000
1000
0000
,
0100
0000
1000
0000
0100
0000
1000
0000
0001
0010
0100
0000
0000
0000
0000
0000
0100
0000
0010
0000
0100
0000
0001
0000
0010
0000
0100
0000
0010
0000
0100
0000
,
0001
0010
0100
1000
0001
0010
0100
1000
0001
1000
0001
1000
0001
1000
0001
1000
,
0011
0100
0010
1000
0011
0100
0001
0100
0011
0100
1000
0010
1001
0010
0100
1000
,
0110
0000
0001
0000
0010
0001
0100
0010
1000
0010
1000
0001
0100
0001
0010
0001
,
0010
0010
0110
0100
1100
0001
0110
1000
,
0110
0000
1000
0000
0010
0100
0010
1000
0001
0010
0100
1000
0010
0100
0001
0010
,
0100
0100
0110
0010
0011
1000
0110
0001
,
0110
0000
0001
0000
0010
1000
0100
0010
0001
0100
0010
0100
0001
0010
0100
1000
,
0010
0010
0110
0100
1100
0001
0110
1000
,
0110
0000
1000
0000
0010
0100
0010
1000
0001
0010
0100
1000
0010
0100
0001
0010
,
0100
0100
0110
0010
0011
1000
0110
0001
,
0110
0000
0001
0000
0010
0001
0100
0010
1000
0010
1000
0001
0100
0001
0010
0001
,
0010
0010
0110
0100
1100
0001
0110
1000
,
0110
0000
1000
0000
0010
0100
0010
1000
0001
0010
0100
1000
0010
0100
0001
0010
,
0100
0100
0110
0010
0011
1000
0110
0001
,
0110
0000
0001
0000
0010
1000
0100
0010
0001
0100
0010
0100
0001
0010
0100
1000
,
0010
0010
0110
0100
1100
0001
0110
1000
,
0110
0000
1000
0000
0010
0100
0010
1000
0001
0010
0100
1000
0010
0100
0001
0010
,
0100
0100
0110
0010
0011
1000
0110
0001
,
0001
0010
0100
1000
0100
0010
0100
1000
0001
0010
0100
1000
0100
0010
0100
1000
,
0001
0010
0100
1000
0100
0010
0100
1000
0220
0000
0000
0000
0000
0000
0000
0000
,
0000
0000
0000
0000
,
0000
0000
0000
0000
,
0330
0000
0000
0000
;
