#TITLE:Tsubasa wa Pleasure Line;
#SUBTITLE:- Chrno Crusade Opening;
#ARTIST:Minami Kuribayashi;
#TITLETRANSLIT:;
#SUBTITLETRANSLIT:;
#ARTISTTRANSLIT:;
#CREDIT:;
#BANNER:Chrno-logo.jpg;
#BACKGROUND:Chrno-bg1.jpg;
#LYRICSPATH:;
#CDTITLE:cdtitle02.png;
#MUSIC:26 - Tsubasa wa Pleasure Line [TV Size].mp3;
#OFFSET:0.660;
#SAMPLESTART:32.659;
#SAMPLELENGTH:12.000;
#SELECTABLE:YES;
#BPMS:0.000=180.080;
#STOPS:;
#BGCHANGES:0.000=Chrno Opening.avi=1.000=0=0=1,
270.000=Chrno-bg2.jpg=1.000=1=0=1,
99999=-nosongbg-=1.000=0=0=0 // don't automatically add -songbackground-
;
// cache tags:
#FIRSTBEAT:3.500;
#LASTBEAT:268.500;
#SONGFILENAME:Songs/Otaku's Dream 1st Anime Mix/Tweety3187 - Tsubasa wa Pleasure Line (Chrno Crusade OP)/Trance.sm;
#HASMUSIC:1;
#HASBANNER:1;
#MUSICLENGTH:94.827;
// end cache tags

//---------------dance-single - ----------------
#NOTES:
     dance-single:
     :
     Challenge:
     9:
     1.000,0.991,1.000,0.981,0.105,455.000,183.000,93.000,0.000,1.000:
0000
0000
0000
0000
0000
0000
0000
0100
,
0100
0000
0001
0000
1010
0000
0010
0100
,
0000
0010
0000
0011
0000
0000
1000
1000
,
0000
0000
1010
0000
0210
0001
0010
0301
,
0000
0000
1010
2010
0100
0010
0001
3001
,
0000
0010
0100
0000
0012
1003
0100
1010
,
0000
0110
0000
2010
0001
3010
0100
0011
,
0000
1100
0000
0022
0000
0000
0000
0000
,
0000
0000
0033
0000
,
1000
0000
0100
0000
0010
0000
0001
0000
0010
0000
0100
0000
1001
0000
0000
0100
0000
0000
0011
0000
0000
0011
0000
0000
,
0100
0110
1100
1020
0100
0031
1100
1200
,
0001
0301
1010
0001
0210
0001
0010
0001
,
0010
0301
1010
1020
0000
1000
0100
1030
,
0100
0000
0101
0000
0010
0000
0101
0010
1100
0000
0001
0000
0110
0000
0012
0000
,
1003
0100
1010
0210
0010
0301
0100
1010
,
0000
0110
0010
1002
0000
0100
0010
1000
,
0100
0000
0010
0000
0100
0000
1000
0000
0003
0000
0010
0000
0100
0000
1000
0100
,
0011
0011
1000
0000
0210
0001
0010
0301
,
0000
0000
0012
0003
0120
0100
0100
0130
,
0000
0000
2010
3001
0110
0001
1100
1100
,
0000
0011
0000
0102
0010
0010
1000
0013
,
0000
0000
0000
0000
0110
0000
0110
0001
2010
0000
0100
0000
3001
0000
0011
0000
,
0000
0010
1100
0001
2010
3010
0012
0103
,
1200
0301
2001
3010
0210
0001
1000
0301
,
0000
1000
0110
0110
0000
1010
1010
0000
,
0011
0000
0011
0000
1001
0010
0100
0000
0012
0000
0100
0000
1000
0000
0103
0000
,
0000
0000
1010
0001
0120
1000
1030
0101
,
0000
0000
1100
0001
1020
0130
0011
0011
,
0000
1001
0000
0201
0010
1300
0110
1020
,
0000
0000
0001
0000
0031
0000
0010
0100
2010
0000
0001
0000
3100
0000
0110
0000
,
0012
0100
0010
1003
0210
0301
1002
0103
,
2100
3010
1010
1020
0001
0100
0001
1000
,
0100
0031
1100
1100
0000
1001
1001
0000
,
1001
0000
1001
0000
0000
0000
0011
0000
1000
0001
0100
0010
1100
0000
0000
0000
,
0020
0100
2030
0001
3200
0010
0302
1000
,
0023
0000
1000
0000
0230
0000
0001
0300
2020
0000
0000
3030
0022
0033
0202
0000
,
0000
0303
0220
0000
0000
0330
2020
0000
0000
3030
0202
0303
0102
0000
0010
0000
,
1000
0103
0110
1000
2001
0000
0100
3010
,
0201
1000
0001
1300
0012
0103
0120
1030
,
2001
3010
0110
0120
0000
1000
0100
2030
,
0000
0000
0000
0000
3200
0000
0000
0000
0320
0000
0000
0030
1002
0000
0000
0000
0000
0000
0000
0000
0203
0000
0000
0000
0320
0000
0000
0030
2001
0000
0000
0000
,
0000
0000
3002
0010
2003
0000
0000
3000
0102
0000
1000
0000
1000
0000
1000
0000
,
1000
1000
1000
1003
1010
1010
0000
0100
,
0100
0000
1000
0000
0011
0100
1010
1010
,
0100
0011
0100
2001
0010
0100
3011
0011
,
0000
0100
0011
1000
0102
0010
1000
0010
,
0100
0013
1100
1200
0000
1000
0001
0310
,
1000
0001
0010
0100
1010
0100
0011
1100
,
0001
1010
0001
0210
0000
0301
1010
0110
,
0001
1100
0001
1002
0010
0103
1010
0110
,
0000
1001
0000
0101
0000
0100
1000
0011
,
0110
0000
0110
1010
0101
0010
1100
0011
,
1000
0101
0001
1020
0100
0031
1100
1100
,
0000
0010
0101
1000
0102
0010
1000
0010
,
0100
0000
0000
0013
0000
0000
1100
0000
0000
0010
0000
0000
2000
0000
0000
0000
3020
0000
0000
0000
0230
0000
0000
0000
,
0302
0000
0000
0000
0023
0000
0000
0000
0032
0000
0000
0000
0203
0000
0000
0310
0000
0000
0011
0000
0000
0011
0000
0000
,
0000
0010
1100
1020
0000
0031
1100
1100
,
0000
0110
0110
0012
0000
0100
0010
0100
,
0010
0000
0103
1000
0001
0010
0100
1000
0110
0000
0100
0000
0010
0000
0100
0000
,
0001
0000
0010
0010
0110
0001
1010
1010
,
0001
1001
0101
2100
0001
3010
0101
0102
,
0010
0013
1100
0010
1002
0010
1000
0010
,
1000
0013
1100
2100
0001
0100
0001
3100
,
0001
0000
0011
0000
1000
0000
0011
1000
0101
0000
0010
0000
1001
0000
1020
0000
,
0130
0001
1100
1002
1000
0013
0001
1100
,
0000
1001
1000
0120
0000
0001
1000
0100
,
0001
1000
0001
0100
0030
1000
0001
0100
,
1010
1010
0000
0000
0000
0000
0000
0000
;

//---------------dance-single - ----------------
#NOTES:
     dance-single:
     :
     Medium:
     6:
     0.452,0.601,0.643,0.401,0.005,201.000,61.000,38.000,0.000,0.000:
0000
0000
0000
0000
,
0000
0000
2000
0000
,
0000
0000
0000
0000
,
0000
0000
3002
0000
,
0000
0000
0000
0000
,
0000
0000
0203
0000
,
0000
0000
0000
0000
,
0000
0000
0320
0000
,
0000
0000
0000
0000
,
0000
0000
0000
0030
1000
0000
0100
0000
,
0001
0010
0100
1000
,
1001
0110
1001
0010
,
0100
0001
0010
0100
,
1000
0001
0010
0001
,
0010
0100
1000
0100
,
1100
0011
2002
0000
,
0000
0000
3003
0000
,
1001
0001
0000
0000
0210
0000
0010
0310
,
0000
0000
0000
0000
1002
0000
1000
1003
,
0000
0000
0000
0000
0102
0000
0100
0103
,
0000
0000
0000
0000
0021
0000
0001
0031
,
0000
0010
1010
0100
,
0001
0010
1001
0110
,
1001
0110
2001
0001
,
0001
3001
0010
0100
,
1010
0000
0110
0000
1200
0000
0010
0310
,
0000
0000
0000
0000
1002
0000
0100
0103
,
0000
0000
0000
0000
0210
0000
0001
0301
,
0000
0000
0000
0000
1020
0000
0100
0130
,
0000
0000
0100
0010
,
1000
0010
0011
0101
,
0011
0101
1002
1000
,
1000
1003
1001
0000
,
0000
0000
0000
0000
,
2000
3020
0230
0302
,
0023
0230
0302
0023
,
0230
0302
2003
3020
,
0230
0301
2010
0001
,
0010
3001
0102
1000
,
0100
0000
1003
0000
0110
0000
0000
1001
,
0000
0000
0000
0110
0000
0000
0000
1001
,
0000
0000
0000
0000
2010
0010
0010
0010
,
0010
0010
0010
3010
1001
0000
0000
0000
,
0000
0000
1001
0010
,
0001
0100
0010
1000
,
0001
0010
1100
0001
,
0010
0100
0001
0010
,
1010
0110
0011
0010
,
0100
0001
1100
0010
,
0100
0001
1000
0110
,
0011
0110
1001
0010
,
0100
0001
1001
0010
,
0100
0001
1000
0010
,
0100
0001
1100
0010
,
0100
0010
1001
0000
,
0000
0011
0000
0000
0000
0000
2200
0000
0000
0000
0000
0000
,
3300
0000
0000
2020
0000
0000
0000
3030
,
0000
0000
0000
0220
0000
0000
0000
0330
,
0000
0000
1001
0000
,
0000
0000
1001
0010
,
0100
0001
1000
0010
,
0100
0001
1100
0001
,
0100
0001
0010
0100
,
1000
0001
0101
0010
,
0100
1010
0010
0100
,
0001
0100
0110
1000
,
0001
0100
0010
0001
,
1001
0000
0000
0000
;

//---------------dance-single - Copied from----------------
#NOTES:
     dance-single:
     Copied from:
     Hard:
     8:
     0.966,0.991,1.000,0.970,0.095,423.000,126.000,92.000,0.000,0.000:
0000
0000
0000
0000
0000
0000
0000
0001
,
0001
0000
0010
0000
0100
0000
1000
0001
,
0000
1000
0000
0010
0000
0000
0100
0100
,
0000
0000
0100
0000
1002
0010
1000
0013
,
0000
0000
0001
1200
0001
1000
0010
0310
,
0000
1000
0001
0000
1020
0130
0001
0100
,
0000
1000
0000
1200
0010
1300
0001
0010
,
0000
0100
0000
2020
0000
0000
0000
0000
,
0000
0000
3030
0000
,
0100
0000
0001
0000
1000
0000
0010
0000
1000
0000
0001
0000
0110
0000
0000
0001
0000
0000
0010
0000
0000
0100
0000
0000
,
0001
1000
0001
2100
0001
3010
1000
0102
,
0010
1003
0100
0010
1002
0100
1000
0010
,
1000
0013
1000
2100
0000
0100
0001
3100
,
0001
0000
0011
0000
1000
0000
0011
1000
0101
0000
0010
0000
0001
0000
1020
0000
,
0130
0001
1100
1002
0000
0003
0001
1100
,
0000
1001
0000
0120
0000
0001
1000
0100
,
0001
0000
1000
0000
0001
0000
0100
0000
0030
0000
1000
0000
0001
0000
0100
0001
,
1010
1010
0100
0000
1002
0010
1000
0013
,
0000
0000
1020
0030
2001
0001
0001
3001
,
0000
0000
1100
0000
1001
0010
1000
0101
,
0000
1010
0000
0021
1000
1000
0100
1030
,
0000
0000
0001
1000
1200
0001
0310
1000
,
0000
1000
0100
0010
1200
0300
1020
0030
,
0102
0003
0210
0300
1002
0010
0100
0013
,
0000
0100
1000
1001
0000
1100
1100
0000
,
1010
1010
0110
0001
1020
0001
0100
0031
,
0000
0000
0100
0010
2001
0100
3100
0001
,
0000
0000
0001
0010
2100
3001
0001
1010
,
0000
0110
0000
0012
1000
0103
0010
2100
,
0000
0100
3010
0001
1200
0000
0301
0100
,
1020
0001
1000
0130
1002
0003
0120
0030
,
0201
0300
0001
2100
0000
0001
0010
0100
,
0001
3010
1000
0101
0000
0110
0110
0000
,
0110
0000
0110
0000
0000
0000
0010
0000
0100
0010
0001
1000
0101
0000
0000
0000
,
2000
0001
3200
0010
0302
1000
0023
0100
,
2030
0000
0100
0000
3002
0000
0010
0003
2200
0000
0000
3300
2020
3030
0022
0000
,
0000
0033
2002
0000
0000
3003
2200
0000
0000
3300
0022
0033
0021
0000
1000
0000
,
0100
0031
1000
0001
0210
0000
0001
1300
,
0012
0100
0010
0103
1020
0030
2001
3000
,
0210
0300
0010
2001
0000
0100
0001
3200
,
0000
0000
0000
0000
0302
0000
0000
0000
2003
0000
0000
3000
0120
0000
0000
0000
0000
0000
0000
0000
0032
0000
0000
0000
2003
0000
0000
3000
0210
0000
0000
0000
,
0000
0000
0320
1000
0230
0000
0000
0300
0021
0000
0100
0000
0100
0000
0100
0000
,
0100
0100
0100
0130
1100
1100
0000
0001
,
0001
0000
0100
0000
1010
0001
0010
1100
,
0000
1010
0000
0210
1000
0001
0310
1010
,
0000
0000
1010
0100
0021
1000
0100
1000
,
0001
1030
0010
0102
0000
0100
0010
1003
,
0100
0010
1000
0001
1100
0001
1000
0101
,
0000
1100
0000
1002
0000
0013
0100
1001
,
0000
0101
0000
0120
1000
0031
0100
1001
,
0000
0110
0000
0011
0000
0001
0100
0010
,
1001
0000
1001
0100
0011
1000
0100
1010
,
0000
0011
0000
2100
0001
3010
1000
0101
,
0000
0000
0011
0100
0021
1000
0100
1000
,
0001
0000
0000
1030
0000
0000
0010
0000
0000
0001
0000
0000
0200
0000
0000
0000
2300
0000
0000
0000
3002
0000
0000
0000
,
0023
0000
0000
0000
2030
0000
0000
0000
3020
0000
0000
0000
0032
0000
0000
1003
0000
0000
0010
0000
0000
1010
0000
0000
,
0000
1000
0100
2100
0000
3010
0001
0101
,
0000
0100
0001
1020
0000
0001
1000
0001
,
1000
0000
0031
0100
0010
1000
0001
0100
1001
0000
0001
0000
1000
0000
0001
0000
,
0010
0000
1000
1000
1001
0010
1000
0001
,
0010
0100
0010
0201
0010
1300
0100
0021
,
1000
0130
0001
1000
0120
0001
0100
1000
,
0100
1030
0100
0201
0000
0001
0010
0301
,
0010
0000
1010
0000
0100
0000
1010
0100
0011
0000
1000
0000
0010
0000
2100
0000
,
3001
0010
0101
0120
0000
0030
0010
0101
,
0000
0110
0000
2001
0000
0010
0100
0001
,
0010
0000
0100
0000
0010
0000
0001
0000
3000
0000
0100
0000
0010
0000
0001
0010
,
1100
1100
0000
0000
0000
0000
0000
0000
;

//---------------dance-single - Copied from----------------
#NOTES:
     dance-single:
     Copied from:
     Easy:
     4:
     0.324,0.601,0.485,0.496,0.005,122.000,46.000,47.000,0.000,0.000:
0000
0000
0000
0000
,
0000
0000
2000
0000
,
0000
0000
0000
0000
,
0000
0000
3002
0000
,
0000
0000
0000
0000
,
0000
0000
0203
0000
,
0000
0000
0000
0000
,
0000
0000
0320
0000
,
0000
0000
0000
0000
,
0000
0000
0000
0030
1000
0000
0000
0000
,
0001
0000
0100
0000
,
1001
0000
0110
0000
,
0100
0000
0010
0000
,
1000
0000
0010
0000
,
0010
0000
1000
0000
,
0110
0000
2002
0000
,
0000
0000
3003
0000
,
1001
0000
0000
0000
0220
0000
0000
0330
,
0000
0000
0000
0000
2002
0000
0000
3003
,
0000
0000
0000
0000
0202
0000
0000
0303
,
0000
0000
0000
0000
0022
0000
0000
0033
,
0000
0000
1010
0100
,
0001
0000
1000
0100
,
1000
0010
2001
0001
,
0001
3001
0010
0100
,
0010
0000
0011
0000
2200
0000
0000
3300
,
0000
0000
0000
0000
2002
0000
0000
3003
,
0000
0000
0000
0000
0220
0000
0000
0330
,
0000
0000
0000
0000
2020
0000
0000
3030
,
0000
0000
0100
0010
,
1000
0000
0010
0100
,
0010
0100
1002
1000
,
1000
1003
1001
0000
,
0000
0000
0000
0000
,
2000
3020
0230
0302
,
2003
3200
2300
3020
,
0230
0302
2003
3020
,
0230
0301
2010
0000
,
0010
3000
0102
0000
,
0100
0003
0110
0000
,
1001
0000
0110
0000
,
1001
0000
2020
0000
,
0000
0000
0000
3030
1001
0000
0000
0000
,
0000
0000
1001
0000
,
0001
0000
0010
0000
,
0001
0000
1100
0000
,
0010
0000
0001
0000
,
1000
0000
0011
0000
,
0100
0000
1100
0000
,
0001
0000
1000
0000
,
0010
0000
1001
0000
,
0100
0000
1001
0000
,
0100
0000
1001
0000
,
0100
0000
1100
0000
,
0001
0000
1001
0000
,
0000
0011
0000
0000
0000
0000
2200
0000
0000
0000
0000
0000
,
3300
0000
0000
2020
0000
0000
0000
3030
,
0000
0000
0000
0220
0000
0000
0000
0330
,
0000
0000
1001
0000
,
0000
0000
1001
0000
,
0100
0000
1000
0000
,
0100
0000
1100
0000
,
0100
0000
0010
0000
,
0001
1000
0101
0000
,
0100
0000
1010
0000
,
0001
0000
0110
0000
,
0001
0000
0010
0000
,
1001
0000
0000
0000
;
