#TITLE:Senpai will NOTICE ME!!!;
#SUBTITLE:(The Most Tone Mix);
#ARTIST:Fudanshi Crisis;
#TITLETRANSLIT:;
#SUBTITLETRANSLIT:;
#ARTISTTRANSLIT:;
#CREDIT:;
#BANNER:senpai - bn.png;
#BACKGROUND:senpai - bg.png;
#LYRICSPATH:;
#CDTITLE:../aCD.png;
#MUSIC:Senpai will NOTICE ME!!! (The Most Tone Mix).ogg;
#OFFSET:0.009;
#SAMPLESTART:0.100;
#SAMPLELENGTH:12.000;
#SELECTABLE:YES;
#DISPLAYBPM:250.000;
#BPMS:0.000=164.000,96.000=175.000,400.000=250.000;
#STOPS:;
#BGCHANGES:;
// cache tags:
#FIRSTBEAT:0.000;
#LASTBEAT:544.000;
#SONGFILENAME:Songs/Aoreo's Index Jawn 2/Senpai will NOTICE ME!!! (The Most Tone Mix) - [Aoreo]/Senpai will NOTICE ME!!! (The Most Tone Mix).sm;
#HASMUSIC:1;
#HASBANNER:1;
#MUSICLENGTH:174.874;
// end cache tags

//---------------dance-single - J. Nero----------------
#NOTES:
     dance-single:
     J. Nero:
     Challenge:
     36:
     1.000,1.000,0.051,0.377,1.000,1922.000,9.000,66.000,2.000,0.000:
0002
0000
0000
0203
0000
0000
0000
0000
,
0000
0000
0302
0000
0000
0023
0000
0000
,
0230
0000
0000
1300
0001
0000
2000
0000
,
0000
0000
3001
0000
0100
0010
0000
1000
,
0200
0000
0000
0320
0000
0000
0000
0000
,
0000
0000
0032
0000
0000
2003
0000
0000
,
3100
0000
0000
1000
0010
0000
0200
0000
,
0000
0000
0301
0000
1000
0100
0000
1000
,
0002
0000
0000
0203
0000
0000
0000
0000
,
0000
0000
0302
0000
0000
0023
0000
0000
,
0230
0000
0000
1300
0001
0000
2000
0000
,
0000
0000
3001
0000
0100
0010
0000
1000
,
0200
0000
0000
0320
0000
0000
0000
0000
,
0000
0000
0032
0000
0000
2003
0000
0000
,
3100
0000
0000
1000
0010
0000
0200
0000
,
0000
0000
0301
0000
1000
0100
0000
1000
,
0001
0000
0000
0010
0000
0000
0100
0000
,
0000
1000
0100
1000
0001
0000
0000
0000
,
0100
0000
0000
0001
0000
0000
0010
0000
,
0000
0100
0000
0000
1000
0000
0000
0000
,
0001
0000
0000
0100
0000
0000
0001
0000
,
0000
0010
0100
1000
0001
0000
0000
0000
,
1000
0000
0000
0100
0000
0000
1000
0000
,
0000
0001
0000
0000
0200
0000
0300
0000
,
0001
1000
0001
0100
0010
1000
0010
0100
0001
1000
0100
0010
0001
0100
0001
1000
0100
1000
0010
0100
0001
1000
0010
0100
0001
1000
0100
0010
0001
0100
0001
1000
,
0010
0100
0010
1000
0001
1000
0100
0010
0001
0100
0001
1000
0100
1000
0010
0100
0001
0100
0010
1000
0001
0010
0100
1000
0001
1000
0010
0100
0001
1000
0100
1000
,
0010
0100
0001
1000
0100
0010
0100
1000
0001
0100
0010
1000
0010
0100
0001
1000
0001
0010
0100
1000
0001
0010
0001
0100
0010
1000
0010
0100
0001
1000
0001
0010
,
0100
1000
0010
0100
0001
1000
0001
0100
0010
0100
0001
1000
0100
0010
0100
1000
0001
0100
0010
1000
0010
0100
0001
1000
0100
0010
0001
0100
0001
1000
0010
0100
,
0010
1000
0001
1000
0100
0010
0001
0100
0001
1000
0100
0010
0100
1000
0001
0100
0010
1000
0010
0100
0001
1000
0100
0010
0001
0100
0001
1000
0010
1000
0001
0100
,
0010
0100
0001
1000
0001
0010
0100
1000
0010
0100
0001
1000
0100
1000
0001
0100
0010
1000
0010
0100
0001
1000
0001
0010
0100
1000
0001
1000
0010
0100
0001
1000
,
0100
1000
0010
0100
0001
1000
0001
0010
0100
1000
0001
0100
0010
1000
0010
0100
0001
1000
0100
0010
0001
0100
0001
1000
0100
1000
0010
0100
0001
1000
0100
0010
,
0100
1000
0001
0100
0010
1000
0010
0100
0001
1000
0100
0010
0001
0100
0001
1000
0100
1000
0010
0100
0001
1000
0001
0010
0100
1000
0010
0100
0001
1000
0100
1000
,
0010
0100
0001
1000
0001
0010
0100
1000
0001
0100
0010
1000
0010
0100
0001
1000
0100
1000
0010
0100
0001
1000
0001
0010
0100
1000
0010
0100
0001
1000
0100
0010
,
0001
0100
0001
1000
0100
1000
0010
0100
0001
0100
0010
1000
0001
0100
0010
1000
0010
0100
0001
1000
0100
0010
0001
0100
0001
1000
0100
1000
0010
0100
0001
1000
,
0001
0010
0100
1000
0001
0100
0010
1000
0010
0100
0001
1000
0100
0010
0001
0100
0001
1000
0100
0010
0100
1000
0001
0100
0010
1000
0010
0100
0001
1000
0100
0010
,
0001
0100
0001
1000
0100
1000
0010
0100
0001
0100
0010
1000
0001
0010
0100
1000
0001
0100
0010
1000
0010
0100
0001
0100
0010
1000
0100
1000
0001
0010
0100
1000
,
0010
0100
0001
1000
0100
1000
0010
0100
0001
1000
0001
0010
0100
1000
0010
0100
0001
1000
0001
0010
0100
1000
0010
0100
0001
0100
0010
1000
0001
1000
0100
0010
,
0001
1000
0001
0100
0010
1000
0010
0100
0001
0100
0001
1000
0100
0010
0001
1000
0001
0100
0010
1000
0010
0100
0001
1000
0100
1000
0010
0100
0001
1000
0001
0010
,
0100
1000
0001
0100
0010
1000
0010
0100
0001
1000
0100
0010
0001
0100
0001
1000
0100
0010
0100
1000
0001
0100
0010
1000
0010
0100
0001
1000
0100
0010
0001
0100
,
0001
1000
0100
1000
0010
0100
0001
0100
0010
1000
0001
0010
0100
1000
0001
0100
0010
1000
0001
0100
0010
1000
0001
0010
0100
0010
0001
0100
0010
1000
0010
0100
,
0001
0000
1000
0100
0000
1000
0001
0000
0010
0100
1000
0000
0001
0000
0100
0010
,
0100
0000
0000
0001
0000
0000
0010
0000
0000
0100
0000
0000
1000
0000
0010
0000
0100
0000
0001
0000
0010
0000
0100
0000
,
1000
0001
0000
1000
0010
0000
0100
0001
0010
0000
0100
0000
1000
0001
1000
0000
,
0010
0000
0000
0000
0100
0000
0001
0000
0010
0000
0000
0000
0100
0000
0000
0000
1000
0000
0000
0000
0010
0000
0100
0000
0001
0000
0000
0000
0010
0100
1000
0001
,
1000
0010
0100
0000
0001
0000
1000
0100
0000
1000
0001
0000
0100
0000
0010
0000
,
1000
0000
0000
0000
0100
0000
0000
0000
0010
0000
0000
0000
0001
0000
0000
0000
0000
0000
0100
0000
0000
0001
0000
0000
0000
0000
0000
0100
0000
0000
0010
0000
0000
0000
0000
0000
1000
0000
0000
0000
0000
0000
0100
0000
0000
0000
0000
0000
,
0010
0000
0000
0001
0000
0000
1000
0000
0000
0000
0000
0000
0001
0000
0000
0100
0000
0000
0001
0000
0000
0000
0000
0000
0010
0000
0100
0000
1000
0000
0001
0000
0000
0000
0000
0000
1000
0000
0001
0000
1000
0000
0100
0000
0000
0000
0000
0000
,
0010
0000
0000
0000
0001
0000
0100
0000
0010
0000
0000
0000
1000
0000
0000
0000
0100
0000
0000
0000
0010
0000
0001
0000
1000
0000
0000
0000
0001
1000
0001
0010
,
0200
2300
3020
0230
,
0302
0000
0023
0000
0230
0000
2300
3002
,
0203
0320
2030
3200
,
0320
0000
0032
2003
3200
0000
2300
3020
,
0230
0302
0023
0230
,
2300
0000
3020
0000
0230
0000
0302
1003
,
0020
0000
0000
0000
0230
0000
0000
0000
0302
0000
0000
0000
0013
0000
0100
1000
,
0002
0000
0000
0000
1003
0000
0001
0010
0200
0000
0000
0000
1300
0001
1000
0010
,
0100
0000
0000
0001
0000
0000
1000
0000
,
1000
0000
0000
0010
0000
0000
0100
0001
,
1000
0000
0000
0100
0000
0000
1000
0000
,
0001
0000
0100
0001
0010
0000
0100
1000
,
0010
0100
0000
0010
1000
0000
0001
0000
0100
0000
0000
0000
0001
0000
1000
0000
,
0100
1000
0000
0001
1000
0000
0010
0000
0100
0000
0000
0000
0001
0000
0010
0000
,
0100
0000
0100
0000
0100
0000
0100
1000
,
0001
0100
0000
0001
0010
0000
0100
0000
1000
0000
0001
0100
0001
1000
0100
0010
,
0001
0000
1000
0000
0100
0000
1000
0000
0010
0000
0100
0000
0001
0000
0010
0100
,
1000
0000
0010
0000
0100
0000
0001
0000
0010
0000
0100
0000
2200
3300
0000
0000
,
1000
0000
0001
0000
0100
0000
0000
0000
0001
0000
0000
0000
0010
0000
0000
0000
0100
0000
0000
0000
1000
0000
0000
0000
0001
0000
0000
0000
1000
0001
1000
0100
,
0010
0000
0001
0000
0100
0000
0010
0000
1000
0000
0001
0000
0202
0303
0000
0000
,
0100
0100
0001
0000
0001
0000
0000
1000
,
0000
0000
0000
0000
0010
0000
1000
0000
0001
0000
1000
0010
0100
0000
0100
0000
,
0001
0000
0000
0000
1000
0001
1000
0100
0010
0000
0000
0000
0001
0000
0100
0000
0000
0000
0001
0000
1000
0000
0000
0000
0001
0000
0000
0000
1000
0001
1000
0100
,
0010
0000
0000
0000
0001
0000
0000
0000
0100
0000
0000
0000
0010
0000
0000
0000
1000
0000
0000
0000
0100
0000
0000
0000
1000
0000
0000
0000
0000
0000
0001
0000
0000
0100
0000
0000
0010
0000
0000
0000
0000
0000
0000
0000
0000
0000
0000
0000
,
1000
0000
1000
0001
0100
0000
0010
0000
1000
0100
1000
0000
0010
0100
0001
0000
,
0010
0000
0000
0000
0001
0000
1000
0000
0100
0000
0000
0000
0000
0000
0000
0000
0100
0000
0000
0000
1000
0000
0001
0000
1000
0001
1000
0010
0100
0000
0000
0000
,
0001
0000
0001
0000
1000
0010
0100
0000
0001
0010
0100
0000
1000
0000
0001
0100
,
0010
0000
0000
0000
0000
0000
1000
0000
0000
0100
0000
0000
0010
0000
0000
0000
0000
0000
0001
0000
1000
0000
0001
0000
0010
0000
0000
0100
0000
0000
1000
0000
0000
0000
0000
0000
0001
0000
0000
0100
0000
0000
0010
0000
0000
0000
0000
0000
,
1000
0001
1000
0010
0100
0000
0000
0000
0001
0000
1000
0000
0100
0000
0000
0000
1000
0000
0000
0000
1000
0000
0000
0000
0010
0000
0000
0000
0000
0000
0000
0000
,
0100
0000
0001
1000
0001
0000
0100
0000
0010
0000
0000
0000
0010
0000
1000
0100
,
1000
0001
0100
0010
1000
0100
1000
0010
,
1000
0001
1000
0100
0010
0001
0100
0001
1000
0100
0010
0100
1000
0001
1000
0010
,
1000
0001
1000
0010
0100
0001
0100
0010
1000
0001
0010
0100
1000
0010
1000
0001
0010
0001
0100
0010
1000
0001
0100
0010
1000
0001
0010
0100
1000
0010
1000
0001
,
0100
0010
0100
0001
1000
0001
0010
0100
1000
0010
1000
0001
0010
0001
0100
0010
1000
0010
0100
0001
1000
0100
0010
0001
1000
0001
0100
0010
1000
0001
0010
0001
,
0100
0010
1000
0001
0010
0100
0010
0001
1000
0010
0100
0001
0100
0010
1000
0001
1000
0100
0010
0001
1000
0100
1000
0010
0100
0001
0100
0010
1000
0001
1000
0100
,
0010
0001
0100
0010
1000
0001
1000
0010
0100
0010
1000
0001
0010
0100
0010
0001
1000
0010
0100
0001
0100
0010
1000
0001
0010
0100
1000
0010
1000
0001
0100
0010
,
0100
0001
1000
0001
0010
0100
1000
0010
1000
0001
0010
0100
0010
0001
1000
0010
0100
0001
0100
0010
1000
0001
0010
0100
1000
0010
1000
0001
0100
0001
1000
0010
,
0100
0010
1000
0001
1000
0100
0010
0001
0100
0010
1000
0001
0010
0001
1000
0010
0100
0001
0100
0010
1000
0001
1000
0100
0010
0001
1000
0001
0100
0010
1000
0001
,
0010
0001
0100
0010
1000
0001
1000
0100
0010
0001
1000
0010
0100
0001
0100
0010
1000
0001
0010
0100
1000
0010
1000
0001
0010
0001
0100
0010
1000
0001
0010
0100
,
0010
0001
1000
0010
0100
0001
0100
0010
1000
0001
0010
0100
1000
0010
1000
0001
0010
0001
0100
0010
1000
0001
1000
0100
0010
0001
0100
0010
1000
0001
0010
0001
,
0100
0010
1000
0001
1000
0100
0010
0001
1000
0010
0100
0001
0100
0010
1000
0001
0010
0001
0100
0010
1000
0001
1000
0100
0010
0001
0100
0010
1000
0001
0010
0100
,
1000
0010
1000
0001
0010
0001
0100
0010
1000
0010
0100
0001
1000
0010
0100
0001
0100
0010
1000
0001
0010
0100
1000
0010
1000
0001
0010
0001
0100
0010
1000
0001
,
1000
0100
0010
0001
1000
0010
0100
0001
0100
0010
1000
0001
0010
0100
1000
0010
1000
0001
0010
0100
0010
0001
1000
0010
0100
0001
0100
0010
1000
0001
0010
0100
,
1000
0010
1000
0001
0010
0001
0100
0010
1000
0010
0100
0001
1000
0100
0010
0001
1000
0010
0100
0001
0100
0010
1000
0010
0100
0001
0010
0001
1000
0100
0010
0001
,
0100
0010
1000
0001
0010
0001
0100
0010
1000
0001
1000
0100
0010
0001
0100
0010
1000
0001
1000
0100
0010
0001
0100
0010
1000
0010
0100
0001
1000
0001
0010
0100
,
1000
0001
1000
0010
0100
0001
0100
0010
1000
0010
1000
0001
0010
0100
1000
0001
1000
0010
0100
0001
0100
0010
1000
0001
0010
0001
0100
0010
1000
0001
1000
0100
,
0010
0001
1000
0010
0100
0001
0100
0010
1000
0001
0010
0100
1000
0010
1000
0001
0010
0100
0010
0001
1000
0010
0100
0001
0100
0010
1000
0001
0010
0100
1000
0010
,
1000
0001
0010
0001
0100
0010
1000
0010
0100
0001
1000
0100
0010
0001
1000
0010
0100
0001
1000
0010
0100
0001
1000
0100
0010
0100
1000
0010
0100
0001
0100
0010
,
1000
1000
0101
0000
,
0001
0001
0001
0000
1100
0000
0000
0000
,
1000
0000
1000
0010
0100
0100
0100
0000
,
0001
0000
1000
0001
0100
0000
0001
0000
0011
0000
0100
0000
1100
0000
1000
0000
,
0001
0100
0010
1000
0010
0100
0001
1000
0100
1000
0010
0100
0001
0010
0100
1000
,
0001
0100
0010
1000
0010
0100
0001
1000
0100
1000
0010
0100
0001
0010
0100
1000
,
0010
0100
0001
1000
0001
0010
0100
1000
0001
0100
0010
1000
0010
0100
0001
1000
,
0001
0010
0001
0100
0010
1000
0100
1000
0010
0100
0001
0010
0100
1000
0010
0100
,
0001
1000
0100
1000
0010
0100
0001
0010
0100
1000
0010
0100
0001
1000
0100
0010
,
0001
0100
0001
1000
0100
1000
0010
0100
0001
0010
0100
1000
0010
0100
0001
0010
,
0001
0100
0010
1000
0100
0010
0001
0100
0001
1000
0100
1000
0010
0100
0001
0010
,
0100
1000
0010
0100
0001
1000
0100
0010
0001
0100
0001
1000
0100
1000
0010
0100
,
0001
0000
1000
0000
0100
0000
1000
0000
0010
0000
0100
0000
0001
0000
0010
0100
,
1000
0000
0001
0000
0100
0000
0001
0000
0010
0000
0100
0000
1000
0000
0010
0100
,
0001
0000
0000
0000
0001
0000
0000
0000
0010
0000
0100
1000
0010
0000
0100
0000
,
0001
0000
0000
1000
0000
0000
0001
0000
0000
0010
0000
0000
0100
0000
0000
0000
0000
0000
1000
0000
0000
0000
0000
0000
0001
0000
0000
0100
0000
0000
0001
0000
0000
0010
0000
0000
0100
0000
1000
0000
0001
0000
1000
0000
0000
0000
0000
0000
,
0001
0100
0010
1000
0010
0100
0001
1000
0100
0010
0001
0100
0001
1000
0100
1000
,
0010
0100
0001
1000
0100
0010
0001
0100
0001
1000
0100
1000
0010
0100
0001
0010
,
0100
1000
0010
0100
0001
1000
0100
0010
0001
0100
0001
0010
0100
1000
0010
0100
,
0001
0010
0001
0100
0010
1000
0100
0010
0001
0000
0100
0000
0001
1000
0100
0000
,
1000
0000
0001
0000
0100
0000
0000
0000
0001
1000
0001
0000
0010
0000
0100
0000
,
1000
0001
0100
0000
0010
1000
0100
0010
0001
0000
0000
0000
1000
0000
0001
0010
,
0100
0000
1000
0000
0010
0000
0100
0000
0010
0000
1000
0001
0100
0000
0001
0000
,
0010
0000
0000
0000
0400
0000
0300
0000
1000
0010
1000
0100
0010
0001
0100
0001
,
1000
0000
0004
0003
1000
0100
1000
0001
0100
0000
0001
0000
1000
0010
0100
0000
,
0001
0010
0100
1000
0010
0100
0001
1000
,
0400
0300
0040
0030
0004
0003
4000
3000
0004
0003
0040
0030
0400
0300
4000
3000
,
0010
0000
0100
0000
0010
0000
1000
0001
0100
0000
0001
0000
0010
0000
0100
1000
,
0010
0100
0001
0100
0010
1000
0100
0010
0001
0100
0001
1000
0100
1000
0010
0100
,
0001
1000
0001
0010
0100
1000
0010
0100
0001
1000
0100
1000
0010
0100
0010
1000
,
0001
1000
0100
0010
0001
0100
0001
1000
0100
0010
0100
1000
0010
0100
0001
1000
,
0100
0010
0001
0100
0010
1000
0010
0100
0001
0010
0100
1000
0010
0100
0001
1000
,
0001
0100
0001
1000
0100
0010
0001
1000
0010
0100
0010
1000
0001
0100
0001
1000
0100
0010
0001
1000
0001
0100
0010
0100
,
0001
1000
0100
0010
0001
0100
0001
1000
0100
0010
0100
1000
0001
1000
0010
0100
0010
1000
0001
1000
0100
0010
0001
0100
,
0001
1000
0100
1000
0010
0100
0001
1000
0001
0010
0100
1000
0001
0100
0010
1000
0010
0100
0001
1000
0100
0010
0001
0100
,
0001
1000
0100
1000
0010
0100
0001
0100
0010
1000
0001
0010
0100
1000
0001
1000
0010
0100
0001
1000
0100
0010
0001
1000
,
0002
0000
0000
0003
,
2002
0000
0000
3003
,
2002
0000
0000
3003
,
2002
0000
0000
3003
,
0MM0
0000
0000
0000
;

//---------------dance-single - J. Nero----------------
#NOTES:
     dance-single:
     J. Nero:
     Hard:
     24:
     1.000,1.000,0.051,0.377,1.000,1634.000,9.000,66.000,2.000,0.000:
0002
0000
0000
0203
0000
0000
0000
0000
,
0000
0000
0302
0000
0000
0023
0000
0000
,
0230
0000
0000
1300
0001
0000
2000
0000
,
0000
0000
3001
0000
0100
0010
0000
1000
,
0200
0000
0000
0320
0000
0000
0000
0000
,
0000
0000
0032
0000
0000
2003
0000
0000
,
3100
0000
0000
1000
0010
0000
0200
0000
,
0000
0000
0301
0000
1000
0100
0000
1000
,
0002
0000
0000
0203
0000
0000
0000
0000
,
0000
0000
0302
0000
0000
0023
0000
0000
,
0230
0000
0000
1300
0001
0000
2000
0000
,
0000
0000
3001
0000
0100
0010
0000
1000
,
0200
0000
0000
0320
0000
0000
0000
0000
,
0000
0000
0032
0000
0000
2003
0000
0000
,
3100
0000
0000
1000
0010
0000
0200
0000
,
0000
0000
0301
0000
1000
0100
0000
1000
,
0001
0000
0000
0010
0000
0000
0100
0000
,
0000
1000
0100
1000
0001
0000
0000
0000
,
0100
0000
0000
0001
0000
0000
0010
0000
,
0000
0100
0000
0000
1000
0000
0000
0000
,
0001
0000
0000
0100
0000
0000
0001
0000
,
0000
0010
0100
1000
0001
0000
0000
0000
,
1000
0000
0000
0100
0000
0000
1000
0000
,
0000
0001
0000
0000
0200
0000
0300
0000
,
0001
0100
0001
0010
0100
1000
0010
0100
0001
1000
0100
1000
0010
0100
0001
1000
0001
0010
0100
1000
0010
0100
0001
1000
,
0100
0010
0001
0100
0001
1000
0100
0010
0001
0100
0001
1000
0010
0100
0010
1000
0001
0010
0100
1000
0010
0100
0001
1000
,
0100
1000
0010
0100
0001
1000
0100
0010
0100
1000
0001
0100
0010
1000
0010
0100
0001
1000
0100
0010
0001
0100
0001
1000
,
0100
1000
0010
0100
0001
1000
0001
0010
0100
1000
0010
0100
0001
1000
0100
1000
0010
0100
0001
0010
0001
0100
0010
1000
,
0100
0010
0001
0100
0001
1000
0100
1000
0010
0100
0001
1000
0001
0010
0100
1000
0010
0100
0001
1000
0100
0010
0001
0100
,
0001
1000
0100
1000
0010
0100
0001
1000
0001
0010
0100
1000
0010
0100
0001
1000
0100
0010
0001
0100
0001
1000
0100
0010
,
0100
1000
0001
0100
0010
1000
0010
0100
0001
1000
0100
0010
0001
0100
0001
1000
0100
1000
0010
0100
0001
1000
0001
0010
,
0100
1000
0001
0100
0010
1000
0010
0100
0001
1000
0100
0010
0001
0100
0001
1000
0010
0100
0001
1000
0001
0010
0100
1000
,
0001
0100
0010
0100
0001
1000
0100
1000
0010
0100
0001
0010
0100
1000
0010
0100
0001
0100
0010
1000
0001
1000
0100
0010
,
0100
1000
0001
0100
0010
1000
0010
0100
0001
1000
0100
1000
0010
0100
0001
0010
0100
1000
0001
0100
0010
0100
0001
1000
,
0100
1000
0010
0100
0001
1000
0001
0010
0100
1000
0001
0010
0001
0100
0010
1000
0010
0100
0001
1000
0100
0010
0001
0100
,
0001
1000
0100
0010
0100
1000
0001
0100
0010
1000
0010
0100
0001
1000
0100
0010
0001
1000
0001
0100
0010
1000
0010
0100
,
0001
1000
0100
0010
0100
1000
0001
0100
0010
1000
0010
0100
0001
1000
0100
0010
0001
0100
0001
1000
0100
1000
0010
0100
,
0001
1000
0001
0010
0100
1000
0001
0100
0010
1000
0010
0100
0001
1000
0001
0010
0100
1000
0010
0100
0001
0100
0010
1000
,
0001
1000
0100
0010
0001
0100
0001
1000
0100
0010
0100
1000
0001
0100
0010
1000
0010
0100
0001
1000
0100
0010
0001
0100
,
0001
1000
0010
0100
0001
0100
0010
1000
0001
0010
0100
1000
0001
0100
0010
1000
0010
0100
0001
1000
0100
0010
0001
0100
,
0001
0000
1000
0100
0000
1000
0001
0000
0010
0100
1000
0000
0001
0000
0100
0010
,
0100
0000
0000
0001
0000
0000
0010
0000
0000
0100
0000
0000
1000
0000
0010
0000
0100
0000
0001
0000
0010
0000
0100
0000
,
1000
0001
0000
1000
0010
0000
0100
0001
0010
0000
0100
0000
1000
0001
1000
0000
,
0010
0000
0000
0000
0100
0000
0001
0000
0010
0000
0000
0000
0100
0000
0000
0000
1000
0000
0000
0000
0010
0000
0100
0000
0001
0000
0000
0000
0010
0100
1000
0001
,
1000
0010
0100
0000
0001
0000
1000
0100
0000
1000
0001
0000
0100
0000
0010
0000
,
1000
0000
0000
0000
0100
0000
0000
0000
0010
0000
0000
0000
0001
0000
0000
0000
0000
0000
0100
0000
0000
0001
0000
0000
0000
0000
0000
0100
0000
0000
0010
0000
0000
0000
0000
0000
1000
0000
0000
0000
0000
0000
0100
0000
0000
0000
0000
0000
,
0010
0000
0000
0001
0000
0000
1000
0000
0000
0000
0000
0000
0001
0000
0000
0100
0000
0000
0001
0000
0000
0000
0000
0000
0010
0000
0100
0000
1000
0000
0001
0000
0000
0000
0000
0000
1000
0000
0001
0000
1000
0000
0100
0000
0000
0000
0000
0000
,
0010
0000
0000
0000
0001
0000
0100
0000
0010
0000
0000
0000
1000
0000
0000
0000
0100
0000
0000
0000
0010
0000
0001
0000
1000
0000
0000
0000
0001
1000
0001
0010
,
0200
2300
3020
0230
,
0302
0000
0023
0000
0230
0000
2300
3002
,
0203
0320
2030
3200
,
0320
0000
0032
2003
3200
0000
2300
3020
,
0230
0302
0023
0230
,
2300
0000
3020
0000
0230
0000
0302
1003
,
0020
0000
0000
0000
0230
0000
0000
0000
0302
0000
0000
0000
0013
0000
0100
1000
,
0002
0000
0000
0000
1003
0000
0001
0010
0200
0000
0000
0000
1300
0001
1000
0010
,
0100
0000
0000
0001
0000
0000
1000
0000
,
1000
0000
0000
0010
0000
0000
0100
0001
,
1000
0000
0000
0100
0000
0000
1000
0000
,
0001
0000
0100
0001
0010
0000
0100
1000
,
0010
0100
0000
0010
1000
0000
0001
0000
0100
0000
0000
0000
0001
0000
1000
0000
,
0100
1000
0000
0001
1000
0000
0010
0000
0100
0000
0000
0000
0001
0000
0010
0000
,
0100
0000
0100
0000
0100
0000
0100
1000
,
0001
0100
0000
0001
0010
0000
0100
0000
1000
0000
0001
0100
0001
1000
0100
0010
,
0001
0000
1000
0000
0100
0000
1000
0000
0010
0000
0100
0000
0001
0000
0010
0100
,
1000
0000
0010
0000
0100
0000
0001
0000
0010
0000
0100
0000
2200
3300
0000
0000
,
1000
0000
0001
0000
0100
0000
0000
0000
0001
0000
0000
0000
0010
0000
0000
0000
0100
0000
0000
0000
1000
0000
0000
0000
0001
0000
0000
0000
1000
0001
1000
0100
,
0010
0000
0001
0000
0100
0000
0010
0000
1000
0000
0001
0000
0202
0303
0000
0000
,
0100
0100
0001
0000
0001
0000
0000
1000
,
0000
0000
0000
0000
0010
0000
1000
0000
0001
0000
1000
0010
0100
0000
0100
0000
,
0001
0000
0000
0000
1000
0001
1000
0100
0010
0000
0000
0000
0001
0000
0100
0000
0000
0000
0001
0000
1000
0000
0000
0000
0001
0000
0000
0000
1000
0001
1000
0100
,
0010
0000
0000
0000
0001
0000
0000
0000
0100
0000
0000
0000
0010
0000
0000
0000
1000
0000
0000
0000
0100
0000
0000
0000
1000
0000
0000
0000
0000
0000
0001
0000
0000
0100
0000
0000
0010
0000
0000
0000
0000
0000
0000
0000
0000
0000
0000
0000
,
1000
0000
1000
0001
0100
0000
0010
0000
1000
0100
1000
0000
0010
0100
0001
0000
,
0010
0000
0000
0000
0001
0000
1000
0000
0100
0000
0000
0000
0000
0000
0000
0000
0100
0000
0000
0000
1000
0000
0001
0000
1000
0001
1000
0010
0100
0000
0000
0000
,
0001
0000
0001
0000
1000
0010
0100
0000
0001
0010
0100
0000
1000
0000
0001
0100
,
0010
0000
0000
0000
0000
0000
1000
0000
0000
0100
0000
0000
0010
0000
0000
0000
0000
0000
0001
0000
1000
0000
0001
0000
0010
0000
0000
0100
0000
0000
1000
0000
0000
0000
0000
0000
0001
0000
0000
0100
0000
0000
0010
0000
0000
0000
0000
0000
,
1000
0001
1000
0010
0100
0000
0000
0000
0001
0000
1000
0000
0100
0000
0000
0000
1000
0000
0000
0000
1000
0000
0000
0000
0010
0000
0000
0000
0000
0000
0000
0000
,
0100
0000
0001
1000
0001
0000
0100
0000
0010
0000
0000
0000
0010
0000
1000
0100
,
1000
0001
0100
0010
1000
0100
1000
0010
,
1000
0001
1000
0100
0010
0001
0100
0001
1000
0100
0010
0100
1000
0001
1000
0010
,
1000
0010
1000
0100
0010
0001
0100
0010
1000
0001
0010
0001
0100
0010
1000
0001
1000
0100
0010
0001
0100
0010
1000
0001
,
0010
0100
1000
0010
1000
0001
0010
0100
1000
0010
1000
0001
0100
0010
0100
0001
1000
0100
0010
0001
0100
0010
1000
0001
,
0010
0001
0100
0010
1000
0001
0010
0100
0010
0001
1000
0010
0100
0001
0100
0010
1000
0001
0010
0100
1000
0010
1000
0001
,
0010
0001
0100
0010
1000
0001
1000
0100
0010
0001
0100
0010
1000
0001
0010
0001
0100
0010
1000
0100
1000
0010
0100
0001
,
0010
0100
1000
0010
1000
0001
0010
0001
0100
0010
1000
0001
1000
0100
0010
0001
0100
0010
1000
0001
0010
0100
1000
0010
,
1000
0001
0010
0001
0100
0010
1000
0001
1000
0100
0010
0001
0100
0010
1000
0001
0010
0100
1000
0010
1000
0001
0010
0100
,
0010
0001
1000
0010
0100
0001
0100
0010
1000
0001
0010
0100
1000
0010
1000
0001
0010
0001
0100
0010
1000
0001
1000
0100
,
0010
0001
1000
0010
0100
0001
0100
0010
1000
0001
0010
0100
1000
0010
1000
0001
0100
0010
1000
0001
1000
0100
0010
0001
,
1000
0010
0100
0010
1000
0001
0010
0001
0100
0010
1000
0100
0010
0001
0100
0010
1000
0010
0100
0001
1000
0001
0010
0100
,
0010
0001
1000
0010
0100
0001
0100
0010
1000
0001
0010
0001
0100
0010
1000
0100
0010
0001
1000
0010
0100
0010
1000
0001
,
0010
0001
0100
0010
1000
0001
1000
0100
0010
0001
1000
0100
1000
0010
0100
0001
0100
0010
1000
0001
0010
0100
1000
0010
,
1000
0001
0010
0100
0010
0001
1000
0010
0100
0001
0100
0010
1000
0001
0010
0100
1000
0001
1000
0010
0100
0001
0100
0010
,
1000
0001
0010
0100
0010
0001
1000
0010
0100
0001
0100
0010
1000
0001
0010
0100
1000
0010
1000
0001
0010
0001
0100
0010
,
1000
0001
1000
0100
0010
0001
1000
0010
0100
0001
0100
0010
1000
0001
1000
0100
0010
0001
0100
0010
1000
0010
0100
0001
,
1000
0001
0010
0100
1000
0010
1000
0001
0010
0100
0010
0001
1000
0010
0100
0001
0100
0010
1000
0001
0010
0100
1000
0010
,
1000
0001
0100
0010
1000
0010
0100
0001
1000
0100
0010
0001
1000
0010
0100
0001
0100
0010
1000
0001
0010
0100
1000
0010
,
1000
1000
0101
0000
,
0001
0001
0001
0000
1100
0000
0000
0000
,
1000
0000
1000
0010
0100
0100
0100
0000
,
0001
0000
1000
0001
0100
0000
0001
0000
0011
0000
0100
0000
1100
0000
1000
0000
,
0001
0100
0010
1000
0010
0100
0001
1000
0100
1000
0010
0100
0001
0010
0100
1000
,
0001
0100
0010
1000
0010
0100
0001
1000
0100
1000
0010
0100
0001
0010
0100
1000
,
0010
0100
0001
1000
0001
0010
0100
1000
0001
0100
0010
1000
0010
0100
0001
1000
,
0001
0010
0001
0100
0010
1000
0100
1000
0010
0100
0001
0010
0100
1000
0010
0100
,
0001
1000
0100
1000
0010
0100
0001
0010
0100
1000
0010
0100
0001
1000
0100
0010
,
0001
0100
0001
1000
0100
1000
0010
0100
0001
0010
0100
1000
0010
0100
0001
0010
,
0001
0100
0010
1000
0100
0010
0001
0100
0001
1000
0100
1000
0010
0100
0001
0010
,
0100
1000
0010
0100
0001
1000
0100
0010
0001
0100
0001
1000
0100
1000
0010
0100
,
0001
0000
1000
0000
0100
0000
1000
0000
0010
0000
0100
0000
0001
0000
0010
0100
,
1000
0000
0001
0000
0100
0000
0001
0000
0010
0000
0100
0000
1000
0000
0010
0100
,
0001
0000
0000
0000
0001
0000
0000
0000
0010
0000
0100
1000
0010
0000
0100
0000
,
0001
0000
0000
1000
0000
0000
0001
0000
0000
0010
0000
0000
0100
0000
0000
0000
0000
0000
1000
0000
0000
0000
0000
0000
0001
0000
0000
0100
0000
0000
0001
0000
0000
0010
0000
0000
0100
0000
1000
0000
0001
0000
1000
0000
0000
0000
0000
0000
,
0001
0100
0010
1000
0010
0100
0001
1000
0100
0010
0001
0100
0001
1000
0100
1000
,
0010
0100
0001
1000
0100
0010
0001
0100
0001
1000
0100
1000
0010
0100
0001
0010
,
0100
1000
0010
0100
0001
1000
0100
0010
0001
0100
0001
0010
0100
1000
0010
0100
,
0001
0010
0001
0100
0010
1000
0100
0010
0001
0000
0100
0000
0001
1000
0100
0000
,
1000
0000
0001
0000
0100
0000
0000
0000
0001
1000
0001
0000
0010
0000
0100
0000
,
1000
0001
0100
0000
0010
1000
0100
0010
0001
0000
0000
0000
1000
0000
0001
0010
,
0100
0000
1000
0000
0010
0000
0100
0000
0010
0000
1000
0001
0100
0000
0001
0000
,
0010
0000
0000
0000
0400
0000
0300
0000
1000
0010
1000
0100
0010
0001
0100
0001
,
1000
0000
0004
0003
1000
0100
1000
0001
0100
0000
0001
0000
1000
0010
0100
0000
,
0001
0010
0100
1000
0010
0100
0001
1000
,
0400
0300
0040
0030
0004
0003
4000
3000
0004
0003
0040
0030
0400
0300
4000
3000
,
0010
0000
0100
0000
0010
0000
1000
0001
0100
0000
0001
0000
0010
0000
0100
1000
,
0010
0100
0001
0100
0010
1000
0100
0010
0001
0100
0001
1000
0100
1000
0010
0100
,
0001
1000
0001
0010
0100
1000
0010
0100
0001
1000
0100
1000
0010
0100
0010
1000
,
0001
1000
0100
0010
0001
0100
0001
1000
0100
0010
0100
1000
0010
0100
0001
1000
,
0100
0010
0001
0100
0010
1000
0010
0100
0001
0010
0100
1000
0010
0100
0001
1000
,
0001
0010
0001
0100
0010
1000
0100
1000
0010
0100
0001
0010
0001
0100
0010
1000
,
0100
0010
0001
0100
0001
0010
0100
1000
0010
0100
0001
0010
0001
0100
0010
1000
,
0100
0010
0001
0100
0001
0010
0100
1000
0010
0100
0001
0010
0001
0100
0010
1000
,
0100
0010
0001
0100
0001
0010
0100
1000
0010
0100
0001
0010
0100
1000
0010
0100
,
0002
0000
0000
0003
,
2002
0000
0000
3003
,
2002
0000
0000
3003
,
2002
0000
0000
3003
,
0MM0
0000
0000
0000
;
