#TITLE:Tirades of Truth;
#SUBTITLE:;
#ARTIST:Devildriver;
#TITLETRANSLIT:;
#SUBTITLETRANSLIT:;
#ARTISTTRANSLIT:;
#CREDIT:B. Abear;
#BANNER:Bn-Truth.png;
#BACKGROUND:Bg-Truth.png;
#LYRICSPATH:;
#CDTITLE:;
#MUSIC:Tirades Of Truth.ogg;
#OFFSET:-0.073;
#SAMPLESTART:70.500;
#SAMPLELENGTH:17.000;
#SELECTABLE:YES;
#BPMS:0.000=110.000,34.000=220.000,1014.000=110.000;
#STOPS:;
#BGCHANGES:;
// cache tags:
#FIRSTBEAT:2.000;
#LASTBEAT:1061.000;
#SONGFILENAME:Songs/SSSC PACK/[Cosmic Pope] - Tirades of Truth/Tirades of Truth.sm;
#HASMUSIC:1;
#HASBANNER:1;
#MUSICLENGTH:311.693;
// end cache tags

//---------------dance-single - B. Abear----------------
#NOTES:
     dance-single:
     B. Abear:
     Challenge:
     16:
     1.000,1.000,1.000,1.000,0.754,2280.000,418.000,433.000,66.000,38.000:

0000
0000
0000
0000
2020
0030
0000
0000
,
0002
0000
0003
0020
0000
0030
0200
0000
0302
0000
0000
0000
0003
0000
3000
0000
,
0011
0000
0000
1010
0000
0000
1001
0000
2020
0000
3000
0000
0000
0000
0000
0000
,
0200
0000
0300
2000
0000
3000
0002
0000
2003
0000
0000
0000
3000
0000
0030
0000
,
0110
0000
0000
0101
0000
0000
1001
0000
2200
0000
0300
0000
0000
0000
0000
0000
,
0002
0000
0003
0200
0000
0300
0020
0000
0032
0000
0000
0000
0003
0000
3000
0000
,
1001
0000
0000
0101
0000
0000
0110
0000
0202
0000
0003
0000
0000
0000
0000
0000
,
0020
0000
0030
2000
0000
3000
0020
0000
0032
0000
0000
0000
0003
0000
0000
0000
,
0301
0000
0000
1000
0000
0000
0100
0000
0110
0000
0010
0000
0001
0000
1000
0000
,
0101
0001
1000
0100
1100
1000
0010
0100
,
1010
0001
1010
0001
1001
1000
0100
0010
,
1100
0100
0010
0001
1001
1000
0010
0100
,
1010
0100
1010
1000
1100
0100
0010
0001
,
0110
0010
0100
1000
1001
0001
0100
0010
,
1001
0100
1001
0100
0110
0010
1000
0100
,
0011
0010
0100
1000
1001
0001
0100
0010
,
0101
1000
0101
1000
1010
0010
0100
0001
,
1100
1000
0100
0010
0011
0001
1000
0100
,
1001
1000
1001
0001
0101
0100
0010
1000
,
0101
0001
1000
0100
0110
0010
0001
1000
,
0101
0010
0101
0010
1010
1000
0100
0010
,
0001
0001
0001
0001
0001
0001
0001
0001
,
0001
0001
0001
0001
0001
0001
0001
0001
,
1000
0001
0001
0001
1000
0001
0001
0001
,
1000
0100
0010
0001
1000
0001
0100
0010
0100
0010
1000
0010
,
1000
0010
1000
0010
1000
0010
0100
0001
0100
0001
1000
0100
,
1000
0100
1000
0100
1000
0100
0010
0001
0010
0001
1000
0010
,
1000
0010
1000
0010
1000
0010
0100
0001
0100
0001
0010
0100
,
0010
0100
0010
0100
0010
0100
1000
0001
1000
0001
0100
0001
,
0100
0001
0100
0001
0100
0001
1000
0100
1000
0100
0010
0001
,
0010
0001
0010
0001
0010
0001
1000
0010
1000
0010
0100
0010
,
0100
0010
0100
0010
0100
0010
1000
0010
1000
0010
0100
0001
,
0200
2300
3200
0302
2003
3200
0310
0001
1000
0001
0100
0010
,
0110
0100
0001
1000
0100
1000
1100
0100
0010
0001
1000
0001
,
0101
0100
0010
0100
0001
1000
1100
0100
0010
0001
1000
0001
,
0101
0100
0010
1000
0100
1000
1100
0100
0010
0100
1000
0001
,
1001
1000
0010
0100
0010
1000
1010
0010
0100
0001
0010
0100
,
0110
0010
0100
1000
0001
0100
0101
0001
1000
0100
0010
0100
,
1100
1000
0001
0100
0010
0100
0101
0001
1000
0100
0010
0100
,
0110
0000
0000
0000
1100
0000
0000
0000
1000
0001
0100
0001
0100
0010
1000
0001
,
0010
0001
1000
0100
1000
0100
1000
0001
0200
0000
0320
0000
2030
0000
3200
0000
,
0310
0001
1000
0001
0200
0000
0320
0000
1030
0100
1000
0001
0020
0000
0230
0000
,
1300
0010
0100
0001
0200
0000
0320
0000
1030
0001
0010
0100
2000
0000
3002
0000
,
0103
0010
0100
0010
2000
0000
3002
0000
0013
0100
1000
0100
0020
0000
0032
0000
,
1003
0100
0010
0001
0100
0000
M0MM
0000
0010
1000
0001
0100
0002
0000
2003
0000
,
3001
0010
0100
1000
0200
0000
2300
0000
3001
0100
0010
0100
0020
0000
2030
0000
,
3001
0010
0100
1000
0001
0010
0100
1000
0001
0100
M001
0000
M100
0000
M001
0100
,
M001
0000
M100
0000
M001
0100
M001
0000
0100
0010
1000
0001
1000
0100
0010
0100
,
1000
0001
0100
0001
1000
0100
0010
0001
1000
0000
0100
0000
1000
0100
0010
0000
,
0001
0000
1000
0000
0001
0100
0010
0000
0200
0000
0302
0000
2003
0000
3200
0000
,
0320
0000
0032
0000
2003
0000
3200
0000
1300
0000
0001
0000
0100
0010
1000
0000
,
0002
0000
2003
0000
3002
0000
2003
0000
3100
0000
0010
0000
0001
0010
0100
0000
,
1000
0000
0001
0000
0100
0001
1000
0000
0001
0000
0100
0000
0010
1000
0001
0000
,
1000
0000
0100
0000
0010
0100
1000
0000
0002
0000
0203
0000
0320
0000
0230
0000
,
0302
2003
3200
0320
0031
MMM0
0011
1001
,
1010
0110
0101
1001
1100
0110
0011
1001
,
1010
0110
0101
0001
1001
1000
0100
0001
,
0101
0000
0100
0000
1000
0000
0001
0000
0201
0000
0320
0000
2030
0000
3200
0300
,
1100
0000
1000
0000
0010
0000
0001
0000
0012
0000
0023
0000
2030
0000
3002
0003
,
1001
0000
1000
0000
0100
0000
0010
0000
0012
0000
0203
0000
2300
0000
3200
0300
,
0101
0000
0001
1000
0100
1000
0001
0010
0011
0000
0000
0000
1010
0000
0000
0000
,
0110
0101
0001
1000
1100
0100
0010
0001
,
1001
1010
0010
0100
0101
0001
1000
0100
,
0110
0000
1100
0000
1000
0000
0001
0000
0100
0001
0100
0010
1000
0001
0010
0001
,
1000
0100
0010
0001
0010
0000
MM0M
0000
0200
0000
1000
0000
1300
0000
0200
0000
,
1000
1300
0200
1300
0002
0100
0103
0002
,
0100
0103
0002
0103
0020
0100
0130
0020
,
0100
0130
0020
0130
0002
0010
0013
0001
,
1000
0000
0001
0000
0100
0010
1000
0010
0200
0000
0001
0000
0301
0000
0200
0000
,
0001
0301
0200
0301
2000
0100
3001
0100
,
0020
0000
0130
0001
1000
0100
1000
0100
001M
0000
0000
0000
00M1
0000
0000
0000
,
100M
M010
01M0
0M01
,
100M
0101
1000
1000
0010
0001
0010
1000
,
0101
1000
0100
0010
0001
1000
0100
0010
,
1001
0000
0001
0000
1000
0010
0100
0001
1000
0000
0100
0000
0010
0000
0001
0000
,
1100
1000
0100
1000
0010
0100
0001
1000
,
0101
0000
0001
0000
0100
0010
1000
0001
0010
0000
0100
0000
1000
0000
0100
0000
,
1001
1000
0001
0100
1000
0100
0001
0010
,
1100
0000
1000
0000
0100
0010
0001
0010
0100
0000
1000
0000
0001
0000
0100
0000
,
1010
0000
0010
0000
0100
0000
0001
0000
1100
0000
1000
0100
0010
0000
0100
0000
,
1000
1000
1000
1000
0100
0001
0101
0100
,
1000
0001
0101
0100
0010
0001
0011
0010
,
1000
0001
0011
0010
0100
1000
1100
0100
,
0001
0100
1100
1000
0010
0100
0110
0010
,
0001
0010
1010
1000
0100
0010
0110
0100
,
0001
0100
1100
1000
0001
0100
0110
0010
,
0001
0010
0110
0100
1001
0010
1100
0001
,
1010
0100
1001
0010
1100
0001
0110
1000
,
0101
0000
0010
0000
1100
0000
0001
1000
0100
0000
1000
0000
0001
0000
0100
0000
,
1010
0000
0010
0000
0100
0001
1000
0100
2000
0000
3200
0000
0320
0000
0032
0000
,
1023
0000
0230
0000
0301
1000
0100
0010
0200
0000
2300
0000
3002
0000
0203
0000
,
1302
0000
2003
0000
3100
0010
0001
0100
0020
0000
0230
0000
0302
0000
2003
0000
,
3011
0000
1000
0000
0001
1000
0010
0100
0002
0000
2003
0000
3200
0000
0320
0000
,
1032
0000
0203
0000
0310
1000
0001
0010
0200
0000
2300
0000
3002
0000
0203
0000
,
1320
0000
0230
0000
0301
1000
0100
0010
0200
0000
2300
0000
3002
0000
0023
0000
,
0130
1000
0001
0100
0010
0000
MM0M
0000
0100
0001
1000
0100
1000
0001
0010
0100
,
1000
0001
0100
0010
0100
0001
1000
0100
0010
0000
0100
0000
1000
0001
0100
0000
,
0001
0000
1000
0000
0001
1000
0010
0000
2000
0000
3020
0000
0230
0000
0302
0000
,
0023
0000
0032
0000
2003
0000
3200
0000
1300
0000
0001
0000
0100
0010
1000
0000
,
0002
0000
0023
0000
0032
0000
0023
0000
0130
0000
0010
0000
0001
0010
0100
0000
,
1000
0000
0001
0000
0100
0001
1000
0000
0001
0000
0100
0000
0010
1000
0001
0000
,
1000
0000
0100
0000
0010
0100
1000
0000
0002
0000
0203
0000
0320
0000
0230
0000
,
0302
2003
3200
0320
0031
MMM0
0011
1001
,
1010
0110
0101
1001
1100
0110
0011
1001
,
1010
0110
0101
0001
1001
1000
0100
0001
,
0101
0000
0100
0000
1000
0000
0001
0000
0201
0000
0320
0000
2030
0000
3200
0300
,
1100
0000
1000
0000
0010
0000
0001
0000
0012
0000
0023
0000
2030
0000
3002
0003
,
1001
0000
1000
0000
0100
0000
0010
0000
0012
0000
0203
0000
2300
0000
3200
0300
,
0101
0000
0001
1000
0100
1000
0001
0010
0011
0000
0000
0000
1010
0000
0000
0000
,
0110
0101
0001
1000
1100
0100
0010
0001
,
1001
1010
0010
0100
0101
0001
1000
0100
,
0110
0000
1100
0000
1000
0000
0001
0000
1000
0010
0100
0010
0100
0001
1000
0100
,
0010
0100
0010
0001
0010
0000
MM0M
0000
0200
0000
1000
0000
1300
0000
0200
0000
,
1000
1300
0200
1300
0002
0100
0103
0002
,
0100
0000
0103
0000
0001
1000
0100
1000
0020
0000
0100
0000
0130
0000
0020
0000
,
0100
0130
0020
0130
0002
0010
0013
0001
,
1000
0000
0001
0000
0100
0010
1000
0010
0100
0000
0010
0000
0010
0000
0010
0000
,
1010
1000
0001
0010
0100
0100
0100
0100
,
1100
0000
1000
0000
0010
0100
0001
1000
0100
0000
0100
0000
0100
0000
0100
0000
,
0110
0010
0001
1000
0010
0010
0010
0010
,
0110
0000
0100
0000
0001
0010
0100
1000
0100
0000
0100
0000
0100
0000
0100
0000
,
0110
0010
0001
1000
0001
0001
0001
0001
,
1001
0000
1000
0000
0010
0100
0001
1000
0100
0000
0100
0000
0100
0000
0100
0000
,
0110
0000
0010
0000
0001
0000
1000
0000
1001
0000
0001
0100
0010
0000
1000
0000
,
0001
0001
0001
0001
1000
0100
1100
1000
,
0100
0010
0011
0001
0010
0001
0011
0010
,
0100
1000
1100
0100
0010
0001
0101
0100
,
0001
0100
0110
0010
1000
0100
0110
0010
,
0001
0010
0110
0100
0010
0001
0101
0100
,
0001
0100
0101
0001
1000
0100
0110
0010
,
0001
0010
0110
0100
1001
0010
1100
0001
,
1010
0100
1001
0010
1100
0001
0110
1000
,
0011
0000
0010
0000
0001
1000
0001
1000
0100
0000
1000
0000
0001
0000
0100
0000
,
1010
0000
0010
0000
0100
0001
1000
0100
2000
0000
3200
0000
0320
0000
0032
0000
,
1023
0000
0230
0000
0301
1000
0100
0010
0200
0000
2300
0000
3002
0000
0203
0000
,
1302
0000
2003
0000
3100
0010
0001
0100
0020
0000
0230
0000
0302
0000
2003
0000
,
3011
0000
1000
0000
0001
1000
0010
0100
0002
0000
2003
0000
3200
0000
0320
0000
,
1032
0000
0203
0000
0310
1000
0001
0010
0200
0000
2300
0000
3002
0000
0203
0000
,
1320
0000
0230
0000
0301
1000
0100
0010
0200
0000
2300
0000
3002
0000
0023
0000
,
0130
1000
0001
0100
0010
0000
MM0M
0000
0100
0001
1000
0100
1000
0001
0010
0100
,
1000
0001
0100
0010
0100
0001
1000
0100
0010
0000
0100
0000
1000
0001
0100
0000
,
0001
0000
1000
0000
0001
1000
0010
0000
0100
0000
0010
0000
1000
0100
0010
0000
,
0001
0000
1000
0000
0100
0010
0001
0000
1000
0000
0010
0000
0100
0001
0010
0000
,
0100
0000
1000
0000
0001
0010
0100
0000
1000
0000
0001
0000
0100
0010
1000
0000
,
0001
0000
0010
0000
0100
1000
0001
0000
0100
0000
0010
0000
1000
0001
1000
0000
,
0010
0000
0100
0000
0001
0010
0100
0000
1000
0000
0100
0000
0010
0001
0100
0000
,
0001
0000
0100
0000
0010
1000
0001
0000
1000
0000
0MMM
0000
1100
0000
0110
0000
,
0011
1001
0110
1010
0101
0011
1100
1001
,
0110
1001
1100
MMMM
1001
1000
0100
0001
,
0101
0000
0100
0000
1000
0000
0001
0000
0201
0000
0320
0000
2030
0000
3200
0300
,
1100
0000
1000
0000
0010
0000
0001
0000
0012
0000
0023
0000
2030
0000
3002
0003
,
1001
0000
1000
0000
0100
0000
0010
0000
0012
0000
0203
0000
2300
0000
3200
0300
,
0101
0000
0001
1000
0100
1000
0001
1000
1001
0000
0000
0000
1010
0000
0000
0000
,
0110
0101
0001
1000
1100
0100
0010
0001
,
1001
1010
0010
0100
0101
0001
1000
0100
,
0110
0000
1100
0000
1000
0000
0001
0000
0100
0001
0100
0010
1000
0001
0010
0001
,
1000
0000
0000
0100
0000
0000
0010
0000
0000
0001
0000
0000
0010
0000
0000
0000
0000
0000
0000
0000
0000
0000
0000
0000
0010
0000
0000
0000
0001
0000
0000
0000
1000
0000
0000
0000
0100
0000
0000
0000
1000
0000
0000
0000
0001
0000
0000
0000
,
1000
0100
0010
0001
0100
0010
0100
0001
1000
0010
0100
0001
,
0010
0100
1000
0001
0010
0100
0010
0001
0100
0010
1000
0010
,
0100
0001
1000
0100
0010
0100
1000
0001
0010
0100
0010
0100
,
1000
0001
0100
0001
0100
0010
1010
1000
0001
0010
0100
1000
,
1100
0100
0010
0001
1000
0001
0101
0100
0010
0100
0001
1000
,
1100
0100
0010
0001
0100
0010
0200
0302
2003
3200
0302
0203
,
2300
0000
0000
0000
3020
0000
0000
0000
0230
0000
0000
0000
2300
0000
0000
0000
3200
0000
0000
0000
0320
0000
0000
0000
2030
0000
0000
0000
3000
0000
000M
0000
0000
00M0
0000
0000
0M00
0000
000M
M000
00M0
0000
0M00
0000
M000
0000
0000
0000
,
0001
0100
0010
1000
0002
0000
0000
0000
1003
0000
0100
0000
0010
0000
0001
0000
,
1000
0000
0010
0000
0100
0001
0010
0100
1000
0000
0010
0000
0100
0000
0001
0000
,
1000
0000
0100
0000
0010
0001
1000
0100
1000
0000
0010
0000
0100
0000
0001
0000
,
1000
0000
0100
0000
0010
0001
0100
0010
0100
0000
0001
0000
0100
0000
0010
0000
,
1000
0000
0001
0000
1000
0010
1000
0010
0100
0000
0001
0000
1000
0000
0100
0000
,
0010
0000
0001
0000
1000
0010
0100
0001
0100
0000
0010
0000
1000
0000
0100
0000
,
0010
0000
0001
0000
0010
0100
1000
0100
0010
0000
0001
0000
0100
0000
0010
0000
,
1000
0000
0001
0000
0100
0010
0100
0001
0010
0000
0100
0000
1000
0000
0100
0000
,
0010
0000
0100
0000
1000
0100
0010
0001
2000
0000
3200
0000
0302
0000
0203
0000
,
2300
3200
0302
0203
2300
3200
0302
0203
,
1300
0010
0100
0001
1MM1
0000
0000
0000
2000
0000
3020
0000
0032
0000
0023
0000
,
0230
0000
2300
0000
3200
0000
0302
0000
2003
0000
3200
0000
0320
0000
0034
4000
,
0000
3003
0002
0000
0023
0000
0230
0000
2300
0000
3002
0000
0203
0000
0340
4000
,
0000
3030
0020
0000
0230
0000
0302
0003
1001
0000
0000
0000
1000
0100
0010
0001
,
1001
0000
1000
0000
0200
0302
0203
0320
,
2030
0000
3020
0000
0032
0000
2003
0000
3020
0000
0230
0000
0302
0000
4003
0040
,
0000
3030
2000
0000
3200
0000
0320
0000
0032
0000
2003
0000
3002
0000
0403
0040
,
0000
0000
0000
0330
0000
0000
0200
0000
0000
0000
0000
0000
0302
0000
0000
0000
0000
0000
2003
0000
0000
0000
0000
0000
3200
0000
0000
0000
0000
0000
0320
0000
0000
0000
0000
0000
0032
0000
0000
0000
0000
0000
1003
0000
0100
0000
1000
0000
,
0100
0M00
0010
00M0
0011
0001
1000
0001
,
1010
0100
0001
0010
0200
2300
3200
2300
,
3200
0311
0011
0011
2000
3200
2300
3200
,
2300
3011
0011
0011
2000
3200
2300
3200
,
2300
3011
0011
0011
1001
1000
0001
0100
,
1010
0001
1000
0100
0020
0032
0023
0032
,
0023
1130
1100
1100
0002
0023
0032
0023
,
0032
1103
1100
1100
0002
0023
0032
0023
,
0032
1103
1100
1100
1001
0001
0100
0001
,
1100
1000
0100
0010
0002
2003
3002
2003
,
3002
0113
0110
0110
2000
3002
2003
3002
,
2003
3110
0110
0110
2000
3002
2003
3002
,
2003
3110
0110
0110
1010
1000
0100
0010
,
1100
0001
0010
0100
1MM1
0000
0000
0000
,
0000
1100
0110
0011
1001
0000
0000
0000
,
0000
0101
0110
1010
2001
0000
3200
0000
,
0320
0032
2013
3020
,
0230
0302
1203
0320
,
0032
0000
0000
0000
0000
0000
2023
0000
0000
0000
0000
0000
3232
0000
0000
0000
0000
0000
0303
0000
0000
1000
0100
1000
,
0200
0000
0000
0000
0000
0000
0320
0000
0000
0000
0000
0000
0032
0000
0000
0000
0000
0000
2003
0000
0000
3001
0100
0001
,
0200
0000
0000
0000
0000
0000
0320
0000
0000
0000
0000
0000
1031
0000
0000
2000
0000
0000
0000
0000
0000
3001
0010
0001
,
0020
0000
0000
0000
0000
0000
0230
0000
0000
0000
0000
0000
1310
0000
0000
0020
0000
0000
0000
0000
0000
0130
0001
0100
,
0002
0000
0000
0000
2003
0000
0000
0000
3100
0010
0001
1000
0001
0100
0010
1000
,
0001
0100
0010
0100
0010
0000
MM0M
0000
1000
0000
0001
0000
1000
0000
0010
0000
,
0101
0000
0100
0000
0010
1000
0001
0010
0002
0000
0023
0000
0230
0000
2300
0000
,
3201
0000
0320
0000
1030
0001
0010
0100
0020
0000
0032
0000
2003
0000
3020
0000
,
2031
0000
3002
0000
0013
0100
1000
0010
0200
0000
0320
0000
2030
0000
3002
0000
,
1103
0000
0001
0000
1000
0001
0100
0010
2000
0000
3002
0000
0023
0000
0230
0000
,
2301
0000
3020
0000
0130
0001
1000
0100
0020
0000
0032
0000
2003
0000
3020
0000
,
0231
0000
0320
0000
1030
0001
0010
0100
0020
0000
0032
0000
2003
0000
3200
0000
,
0310
0001
1000
0010
0100
0000
M0MM
0000
0010
1000
0001
0010
0001
1000
0100
0010
,
0001
1000
0010
0100
0010
1000
0001
0010
0100
1000
0100
0010
0001
0000
0000
0000
,
0010
0100
1000
0001
0100
0000
0000
0000
0010
1000
0001
1000
0100
0000
0000
0000
,
1000
0010
0100
0001
0010
0000
0000
0000
0100
0010
0001
0010
0001
0000
0000
0000
,
1000
0010
0100
0001
1000
0000
0000
0000
0001
0100
0010
0100
0010
0000
0000
0000
,
0100
0001
0100
0010
1000
0000
0000
0000
0001
1000
0100
1000
0010
0000
0000
0000
,
0100
0001
0010
0100
1000
0000
0000
0000
0001
0010
0100
1000
0100
0000
0000
0000
,
1000
0010
0100
0010
0100
0000
0000
0000
0001
0100
0010
0100
0001
0000
0000
0000
,
1000
0100
0010
0001
1000
0000
0000
0000
0001
0100
0010
0100
0001
0000
0000
0000
,
1001
0100
1001
0MM0
1001
1000
0100
0001
,
0101
0000
0100
0000
1000
0000
0001
0000
0201
0000
0320
0000
2030
0000
3200
0300
,
1100
0000
1000
0000
0010
0000
0001
0000
0012
0000
0023
0000
2030
0000
3002
0003
,
1001
0000
1000
0000
0100
0000
0010
0000
0012
0000
0203
0000
2300
0000
3200
0300
,
0101
0001
1000
0001
1001
1000
0100
0001
,
0101
0000
0100
0000
1000
0000
0001
0000
0201
0000
0320
0000
2030
0000
3200
0300
,
1100
0000
1000
0000
0010
0000
0001
0000
0012
0000
0023
0000
2030
0000
3002
0003
,
1001
0000
1000
0000
0100
0000
0010
0000
0001
1000
0100
0010
0100
1000
0001
0100
,
0001
0010
0100
1000
0002
0000
0003
0000
1001
0000
0100
0000
0010
0000
1001
0000
,
0100
0001
1100
0001
1010
0100
0001
0110
,
1000
0001
1100
0001
0110
1000
0100
0011
,
0100
1000
0101
0010
1001
0100
0010
1000
,
1001
0000
0001
0000
1000
0100
1000
0001
0110
0000
1000
0000
0001
0000
1010
0000
,
0100
0001
1100
0001
0110
0100
1000
0101
,
0010
0100
1001
0010
1100
0001
0010
1100
,
0001
0100
1010
0100
0001
1000
0011
0100
,
1000
0001
0100
0010
1010
1000
0001
1000
,
1100
0110
0011
1001
1010
0010
0100
0001
,
0101
0110
1010
1001
1100
0100
0010
0001
,
0011
1001
0110
1010
0101
0001
0100
0010
,
1010
1001
1100
0110
0011
0001
1000
0100
,
1100
0110
0011
1001
0110
0010
1000
0010
,
0110
0101
1001
1100
0101
0001
1000
0100
,
0110
0011
0110
1100
1001
0001
0100
0010
,
0110
0101
1001
1100
0110
0010
0100
1000
,
1100
0101
0110
1010
1001
1000
0100
0010
,
0011
1001
0101
0110
1010
0010
0100
0001
,
1001
1100
0110
0011
1001
1000
0010
0100
,
0101
0110
0101
1001
1100
0100
0010
0001
,
0011
0110
1100
0110
0011
0010
0100
1000
,
1001
0101
1010
0101
1100
0100
0010
0001
,
0011
0000
0000
1001
0000
0000
0101
0000
0000
0101
0000
0000
0001
0000
0100
0000
0010
0000
1000
0000
0001
0000
1000
0000
,
1001
0000
0110
0000
0110
0000
2MM2
0000
0000
0000
0000
0000
,
0000
0000
0000
0000
0000
0000
0000
3003
,
1010
0000
0000
1001
0000
0000
1100
0000
2020
0000
0030
0000
0000
0000
0000
0000
,
0002
0000
0003
0020
0000
0030
0200
0000
0302
0000
0000
0000
0003
0000
3000
0000
,
0011
0000
0000
1010
0000
0000
1001
0000
2020
0000
3000
0000
0000
0000
0000
0000
,
0200
0000
0300
2000
0000
3000
0002
0000
2003
0000
0000
0000
3000
0000
0030
0000
,
0110
0000
0000
0101
0000
0000
1001
0000
2200
0000
0300
0000
0000
0000
0000
0000
,
0002
0000
0003
0200
0000
0300
0020
0000
0032
0000
0000
0000
0003
0000
3000
0000
,
1001
0000
0000
0101
0000
0000
0110
0000
2422
0000
3033
0000
0000
0000
0000
0000
,
0000
0000
0000
0000
,
0000
0000
0000
0000
,
0000
0000
0000
0000
,
0000
0300
0000
0000
;
