#TITLE:L K;
#SUBTITLE:Oh Henry!;
#ARTIST:DJ Marky and XRS Feat. Stamina MC;
#TITLETRANSLIT:;
#SUBTITLETRANSLIT:;
#ARTISTTRANSLIT:;
#CREDIT:;
#BANNER:../Fallback-Ban.png;
#BACKGROUND:../Fallback-BG.png;
#LYRICSPATH:;
#CDTITLE:../~CDTitle-@@.png;
#MUSIC:DJ Marky and XRS - L K.ogg;
#OFFSET:-4.219;
#SAMPLESTART:100.591;
#SAMPLELENGTH:26.667;
#SELECTABLE:YES;
#BPMS:0.000=180.000;
#STOPS:;
#BGCHANGES:;
// cache tags:
#FIRSTBEAT:0.000;
#LASTBEAT:1031.500;
#SONGFILENAME:Songs/Oh Henry! Mad Stamina/L K (16-)/L K.sm;
#HASMUSIC:1;
#HASBANNER:1;
#MUSICLENGTH:353.194;
// end cache tags

//---------------dance-single - @@----------------
#NOTES:
     dance-single:
     @@:
     Challenge:
     16:
     1.000,1.000,0.258,0.071,1.000,3341.000,91.000,25.000,10.000,0.000:
1001
0000
0000
0000
0001
0000
1000
0000
1010
0000
0010
0100
0001
0000
1000
0000
,
0001
0010
0100
0010
0001
0000
1000
0000
1100
0000
0100
0010
0001
0000
1000
0000
,
0001
0100
0010
1000
0001
0000
1000
0000
1001
0000
0001
0100
0010
0000
1000
0000
,
0100
0010
0100
1000
0001
0000
0001
0000
1001
0000
1000
0100
0010
0000
0001
0000
,
1000
0001
0100
0010
1000
0000
0001
0000
0101
0000
0100
0001
1000
0000
0001
0000
,
0010
0100
1000
0001
1000
0000
0100
0000
0110
0000
0010
0001
1000
0000
0001
0000
,
0100
0010
1000
0001
1000
0000
0010
0000
0110
0000
0100
0001
1000
0000
0001
0000
,
0010
0100
1000
0001
0010
0000
0010
0000
0011
0000
0001
1000
0100
0000
1000
0000
,
0001
0100
0010
0100
0001
0000
1000
0000
1010
0000
0010
0100
0001
0000
1000
0000
,
0001
0010
0100
1000
0001
0000
1000
0000
1001
0000
0001
0010
0100
0000
1000
0000
,
0010
0100
0001
0100
0010
0000
1000
0000
1010
0000
0010
0100
0001
0000
1000
0000
,
0100
0010
0100
1000
0001
0000
0001
0000
1001
0000
1000
0100
0010
0000
0001
0000
,
1000
0001
0100
0010
1000
0000
0001
0000
0101
0000
0100
0001
1000
0000
0001
0000
,
0010
0100
1000
0001
1000
0000
0100
0000
0110
0000
0010
0001
1000
0000
0001
0000
,
0100
0010
1000
0001
1000
0000
0010
0000
0110
0000
0100
0001
1000
0000
0001
0000
,
0010
0001
0010
0100
1000
0000
1000
0000
1001
0000
0001
1000
0100
0000
1000
0000
,
0001
0100
0001
1000
0010
0000
1000
0100
0010
0001
0100
0010
1000
0001
1000
0000
,
1001
0000
0001
0010
0100
0000
1000
0001
1000
0010
0100
0001
0010
0100
0010
0000
,
0011
0000
0001
1000
0010
0000
1000
0001
0010
0100
1000
0010
1000
0001
0100
0000
,
0101
0000
0001
1000
0100
0000
1000
0001
0100
0001
0010
0100
0010
0001
1000
0000
,
1001
0000
0001
0100
0010
0000
1000
0001
0010
0001
0100
0010
1000
0001
0100
0000
,
0101
0000
0001
1000
0100
0000
1000
0001
0100
0010
1000
0100
0010
0100
1000
0000
,
1001
0000
0001
0100
0010
0000
1000
0001
0010
0100
1000
0010
1000
0001
0100
0000
,
0101
0000
0001
1000
0100
0000
1000
0001
0100
0001
0010
0100
0010
0001
1000
0000
,
1001
0000
0001
1000
0010
0000
1000
0001
1000
0100
0010
0001
0100
0010
0100
0000
,
0101
0000
0001
1000
0100
0000
1000
0001
0100
0010
1000
0100
1000
0001
0010
0000
,
0011
0000
0001
1000
0010
0000
1000
0001
0010
0001
0100
0010
0100
0001
1000
0000
,
1001
0000
0001
0010
0100
0000
1000
0001
0100
0001
0010
0100
1000
0001
0010
0000
,
0011
0000
0001
1000
0010
0000
1000
0001
0010
0100
1000
0010
0100
0010
1000
0000
,
1001
0000
0001
0010
0100
0000
1000
0001
0100
0010
1000
0100
1000
0001
0010
0000
,
0011
0000
0001
1000
0010
0000
1000
0001
0010
0001
0100
0010
0100
0001
1000
0000
,
1100
0000
0100
0010
0001
0000
1000
0010
0100
0001
0010
0100
1000
0001
1000
0000
,
1001
0000
0001
0100
0010
1000
0001
0100
0001
0010
0100
1000
0001
0010
0001
0100
,
0010
1000
0001
1000
0100
0010
0100
1000
0010
0100
0001
1000
0010
1000
0100
0010
,
0001
1000
0001
0100
0010
1000
0001
0100
0001
0010
0100
1000
0100
0010
0001
0100
,
0010
1000
0001
0010
0001
0100
0010
1000
0100
0010
0001
0010
0100
1000
0010
0100
,
0001
1000
0001
0010
0100
1000
0001
0010
0001
0100
0010
1000
0001
0100
0001
0010
,
0100
1000
0001
0100
0001
1000
0010
1000
0100
0010
0001
0010
0100
1000
0010
0100
,
0001
1000
0100
1000
0001
0010
0100
1000
0010
0100
0001
1000
0010
1000
0100
0010
,
0001
1000
0010
0100
0001
0010
0100
1000
0010
0100
0001
1000
0010
1000
0100
0010
,
0001
1000
0001
0010
0100
1000
0001
0010
0001
0100
0010
1000
0001
0100
0001
0010
,
0100
1000
0001
1000
0010
0100
0010
1000
0100
0010
0001
1000
0100
1000
0010
0100
,
0001
1000
0001
0010
0100
1000
0001
0010
0001
0100
0010
1000
0010
0100
0001
0010
,
0100
1000
0001
0100
0001
0010
0100
1000
0010
0100
0001
0100
0010
1000
0100
0010
,
0001
1000
0001
0100
0010
1000
0001
0100
0001
0010
0100
1000
0001
0010
0001
0100
,
0010
1000
0001
0010
0001
1000
0100
1000
0010
0100
0001
0100
0010
1000
0100
0010
,
0001
1000
0010
1000
0001
0100
0010
1000
0100
0010
0001
1000
0100
1000
0010
0100
,
0001
1000
0100
0010
0001
0100
0010
1000
0100
0010
0001
1000
0100
1000
0010
0100
,
0001
1000
0001
0100
0010
1000
0010
0100
0001
1000
0001
0010
0100
1000
0001
0010
,
0001
1000
0010
0100
0010
1000
0001
0010
0100
1000
0100
0010
0001
1000
0010
1000
,
0001
0100
0001
1000
0100
0010
0001
1000
0001
0100
0010
1000
0001
0100
0001
1000
,
0100
0010
0100
1000
0001
0100
0010
1000
0001
0100
0001
1000
0100
0010
0001
1000
,
0001
0100
0010
0100
0001
1000
0001
0010
0100
0010
0001
1000
0001
0100
0010
1000
,
0010
0100
0001
1000
0100
0010
0100
1000
0001
0100
0010
1000
0010
0100
0001
1000
,
0100
1000
0001
0010
0001
1000
0010
1000
0001
0100
0001
1000
0100
0010
0001
1000
,
0001
0100
0010
0100
0001
1000
0001
0010
0100
1000
0100
0010
0001
1000
0010
1000
,
0100
0000
0000
0000
0000
0000
0000
0010
0001
0000
0000
0000
0000
0100
0000
0000
,
0110
0000
0000
0000
0000
0000
0000
0010
1000
0000
0000
0000
0000
0100
0000
0000
,
0110
0000
0000
0000
0000
0000
0000
0010
0001
0000
0000
0000
0000
0100
0000
0000
,
0110
0000
0000
0000
0000
0000
0000
0010
1000
0000
0000
0000
0000
0100
0000
0000
,
0110
0000
0000
0000
0000
0000
0000
0010
0001
0000
0000
0000
0000
0100
0000
0000
,
0110
0000
0000
0000
0000
0000
0000
0010
1000
0000
0000
0000
0000
0100
0000
0000
,
0110
0000
0000
0000
0000
0000
0000
0010
0001
0000
0000
0000
0000
0100
0000
0000
,
0110
0000
0000
0000
0000
0000
0000
0010
1000
0000
0000
0000
0000
0100
0000
0000
,
0110
0000
1001
0001
0011
0010
0100
1000
,
0010
0100
0100
0001
0010
0001
0001
1000
,
1000
1000
0010
0100
0001
0010
0100
1000
,
0001
0100
0100
0010
1000
0010
1000
0001
,
0100
0001
0011
0010
0110
0100
1000
0010
,
1000
0001
0001
0100
0010
1000
1000
0001
,
0001
0001
0100
0010
1000
0100
0010
0001
,
1000
0010
0010
0100
0001
0100
0001
1000
,
0010
1000
1001
0001
0101
0100
0010
1000
,
0100
0010
0010
0001
0100
0001
0001
1000
,
1000
1000
0100
0010
0001
0100
0010
1000
,
0001
0010
0010
0100
1000
0100
1000
0001
,
0010
0001
0101
0100
0110
0010
1000
0100
,
1000
0001
0001
0010
0100
1000
1000
0001
,
0001
0001
0010
0100
1000
0010
0100
0001
,
1000
0100
0100
0010
0001
0010
0001
1000
,
0001
0100
0110
0010
1000
1010
0010
1000
,
1001
0001
0011
0010
0100
1100
1000
0001
,
0101
0100
0110
0010
1000
1001
0001
0010
,
0011
0001
1000
0010
0100
0010
0100
0001
,
0001
0001
1001
1000
0100
1100
1000
0001
,
0010
0010
0011
0001
1000
1001
0001
0100
,
0101
0001
1001
1000
0001
0101
0100
0001
,
1001
1000
0001
0010
0100
0010
0100
1000
,
1000
1000
1001
0001
0100
0101
0001
1000
,
1001
0001
0011
0010
0100
1100
1000
0001
,
0101
0000
0100
0000
0110
0000
0010
0000
1000
0000
2020
3030
0000
2002
3003
0000
,
0022
0033
0010
0000
0100
0000
1000
0000
0001
0000
1000
0000
0001
0000
0100
0000
,
0100
0100
0110
0010
1000
1001
0001
1000
,
1100
0100
0110
0010
0001
1001
1000
0001
,
0101
0100
0110
0010
1000
1001
0001
0010
,
0011
0001
1000
0001
0010
0100
1000
0010
,
1001
0000
1000
0010
0100
0001
1000
0001
0010
0100
1000
0100
0010
0001
0010
0100
,
1000
0001
0100
0001
0010
0100
1000
0001
0010
0001
1000
0010
0100
0001
0010
0001
,
1000
0010
0100
0001
0010
0100
1000
0100
0010
0100
1000
0001
0100
0001
1000
0001
,
0010
0100
0010
0001
0010
0100
0010
0001
1000
0100
1000
0001
0100
0010
1000
0001
,
0100
0001
1000
0100
0010
0001
1000
0001
0100
0010
1000
0001
0100
0001
1000
0100
,
0010
0001
1000
0100
1000
0010
0100
0001
1000
0010
1000
0001
0010
0100
1000
0001
,
1000
0010
0100
0010
1000
0001
0010
0001
1000
0010
0100
0010
1000
0001
0010
0001
,
1000
0010
0100
0010
1000
0100
0010
0100
1000
0001
0010
0100
1000
0001
0100
0010
,
1000
0010
0100
0001
0010
0001
1000
0010
1000
0001
0100
0001
1000
0010
0100
0010
,
1000
0001
0010
0001
0100
0010
1000
0001
0100
0001
1000
0100
0010
0001
0100
0001
,
1000
0100
0010
0001
0100
0010
1000
0010
0100
0010
1000
0001
0010
0001
1000
0001
,
0100
0010
0100
0001
0100
0010
0100
0001
1000
0010
1000
0001
0010
0100
1000
0001
,
0010
0001
1000
0010
0100
0001
1000
0001
0010
0100
1000
0001
0010
0001
1000
0010
,
0100
0001
1000
0010
1000
0100
0010
0001
1000
0100
1000
0001
0100
0001
1000
0010
,
1000
0100
0010
0100
1000
0001
0100
0001
1000
0100
0010
0100
1000
0001
0100
0010
,
0100
0001
0100
0010
0100
0001
1000
0100
0010
0100
1000
0100
0010
0100
1000
0010
,
0100
0001
0010
0001
1000
0100
1000
0010
1000
0001
0100
0001
0010
0001
1000
0100
,
0010
0001
0010
0100
1000
0010
0100
0010
1000
0001
0010
0100
1000
0001
0100
0001
,
1000
0010
1000
0100
0010
0001
1000
0010
0100
0001
0010
0001
1000
0100
1000
0010
,
0100
0001
1000
0010
1000
0001
0010
0001
1000
0100
1000
0010
0100
0001
1000
0010
,
1000
0001
0010
0001
1000
0010
1000
0100
1000
0001
0010
0001
0100
0001
1000
0010
,
0100
0001
0100
0010
1000
0100
0010
0100
1000
0001
0100
0010
1000
0001
0010
0001
,
1000
0100
1000
0010
0100
0001
1000
0100
0010
0001
0100
0001
1000
0010
1000
0100
,
0010
0001
1000
0100
1000
0001
0100
0001
1000
0010
1000
0100
0010
0001
1000
0100
,
1000
0001
0100
0010
1000
0001
0100
0001
0010
0001
1000
0010
1000
0001
0010
0100
,
0010
0001
1000
0010
0100
0001
1000
0100
0010
0001
1000
0100
1000
0001
0100
0001
,
0010
0001
1000
0100
0010
0100
1000
0001
0010
0001
0100
0001
1000
0010
1000
0100
,
0010
0001
0010
0100
1000
0001
0100
0001
1000
0100
0010
0100
1000
0001
0100
0001
,
1000
0100
0010
0001
0010
0100
1000
0010
0100
0001
0100
0010
1000
0100
0010
0001
,
0010
0100
0010
0001
0100
0001
1000
0001
0100
0010
1000
0100
0010
0001
1000
0100
,
1000
0010
0100
0001
1000
0010
1000
0001
0100
0001
1000
0100
0010
0100
1000
0001
,
0100
0010
0100
0001
1000
0001
0100
0010
1000
0001
1000
0100
0010
0100
1000
0100
,
0010
0001
1000
0001
0100
0010
0100
0001
1000
0100
0010
0001
1000
0100
1000
0001
,
0010
0100
1000
0001
0100
0001
0010
0100
1000
0100
0010
0001
1000
0010
0100
0001
,
0010
0001
1000
0010
0100
0001
0010
0100
1000
0100
0010
0100
1000
0001
0100
0001
,
1000
0001
0010
0100
0010
0001
0010
0100
0010
0001
1000
0100
0010
0001
1000
0010
,
1000
0001
0100
0001
1000
0100
0010
0100
1000
0001
0100
0010
1000
0010
0100
0001
,
1000
0100
0010
0001
1000
0100
1000
0010
0100
0001
1000
0010
1000
0001
0010
0001
,
1000
0100
1000
0001
0100
0001
1000
0100
0010
0100
1000
0001
0100
0001
1000
0100
,
0010
0100
1000
0001
0100
0001
0010
0100
1000
0100
0010
0001
1000
0100
1000
0001
,
0100
0010
1000
0001
0010
0100
0010
0001
1000
0010
0100
0001
1000
0010
1000
0001
,
0100
0010
1000
0001
0010
0001
0100
0010
1000
0010
0100
0001
1000
0100
0010
0001
,
0100
0001
1000
0100
0010
0001
0100
0010
1000
0010
0100
0010
1000
0001
0010
0001
,
1000
0001
0100
0010
0100
0001
0100
0010
0100
0001
1000
0010
0100
0001
1000
0100
,
1000
0001
0010
0001
1000
0010
0100
0010
1000
0001
0010
0100
1000
0100
0010
0001
,
1000
0010
0100
0001
1000
0010
1000
0100
0010
0001
1000
0100
1000
0001
0100
0001
,
1000
0010
1000
0001
0010
0001
1000
0010
0100
0010
1000
0001
0010
0001
1000
0010
,
0100
0001
0100
0010
0100
0001
1000
0100
0010
0100
1000
0100
0010
0100
1000
0010
,
0100
0001
0010
0001
1000
0100
1000
0001
0100
0010
1000
0001
0100
0001
0010
0100
,
1000
0010
1000
0100
0010
0001
1000
0100
1000
0010
0100
0001
0100
0010
1000
0100
,
0010
0001
1000
0100
0010
0100
1000
0001
0100
0001
0010
0100
1000
0010
0100
0001
,
0010
0100
0010
0001
1000
0100
1000
0010
0100
0010
1000
0001
0100
0001
0010
0100
,
0010
0001
1000
0010
0100
0001
1000
0100
0010
0001
0100
0010
0100
0001
1000
0100
,
0010
0001
0010
0100
1000
0010
1000
0001
1000
0010
0100
0010
1000
0001
0100
0001
,
0010
0100
0010
0001
0100
0001
1000
0010
0100
0001
0010
0100
0010
0001
1000
0010
,
0100
0001
0100
0010
1000
0100
1000
0001
1000
0100
0010
0001
1000
0001
0010
0100
,
1000
0010
0100
0001
1000
0010
1000
0001
0010
0100
1000
0001
0010
0001
0100
0010
,
1000
0100
1000
0010
0100
0001
1000
0010
1000
0100
0010
0001
0010
0100
1000
0010
,
0100
0001
1000
0010
0100
0010
1000
0001
0010
0001
0100
0010
1000
0100
0010
0001
,
0100
0010
0100
0001
1000
0010
1000
0100
0010
0100
1000
0001
0010
0001
0100
0010
,
0100
0001
1000
0100
0010
0001
1000
0010
0100
0001
0010
0100
0010
0001
1000
0010
,
0100
0001
0100
0010
1000
0001
0100
0001
1000
0100
0010
0100
1000
0001
0010
0001
,
0100
0010
0100
0001
0010
0001
1000
0100
0010
0001
0100
0010
0100
0001
1000
0100
,
0010
0001
0010
0100
1000
0001
1000
0010
0100
0001
0100
0010
0100
0001
0010
0100
,
0010
0001
0010
0100
1000
0010
0100
0001
0100
0010
1000
0001
0010
0100
0010
0001
,
1000
0010
0100
0010
1000
0001
1000
0010
0100
0001
1000
0100
0010
0001
1000
0001
,
0100
0010
1000
0001
0100
0001
1000
0010
1000
0001
0010
0001
0100
0010
1000
0100
,
1000
0001
0010
0100
1000
0001
1000
0100
0010
0001
1000
0010
1000
0100
0010
0001
,
0100
0010
1000
0001
1000
0100
0010
0001
0010
0100
1000
0001
0100
0010
0100
0001
,
1000
0100
0010
0100
1000
0001
1000
0100
0010
0001
1000
0010
0100
0001
1000
0001
,
0010
0100
1000
0001
0010
0001
1000
0100
1000
0001
0100
0001
0010
0100
1000
0010
,
1000
0001
0100
0010
1000
0001
1000
0010
0100
0001
1000
0100
1000
0010
0100
0001
,
0010
0100
1000
0001
0100
0010
1000
0001
0100
0001
1000
0100
0010
0100
1000
0001
,
0010
0001
1000
0010
0100
0001
1000
0100
1000
0001
0100
0010
1000
0001
0100
0001
,
1000
0100
0010
0100
1000
0001
0010
0100
0010
0001
1000
0010
1000
0100
0010
0001
,
0100
0010
1000
0001
0100
0001
1000
0010
1000
0001
0010
0001
0100
0010
1000
0001
,
1000
0010
0100
0001
1000
0100
1000
0001
0010
0001
1000
0010
0100
0010
1000
0001
,
0100
0001
1000
0100
0010
0001
1000
0010
1000
0001
0010
0100
1000
0001
0010
0001
,
1000
0010
0100
0010
1000
0001
0100
0010
0100
0001
1000
0100
1000
0010
0100
0001
,
0010
0100
1000
0001
0010
0001
1000
0100
1000
0001
0100
0001
0010
0100
1000
0001
,
1000
0100
0010
0001
1000
0000
1000
0000
1000
0000
0010
0000
0100
0000
0001
0000
,
0010
0001
0000
1000
0000
0010
0010
0100
,
0001
1000
1000
1000
0001
0010
0001
1000
,
0000
0010
0000
0100
0000
0010
0010
0100
,
0001
1000
0001
0001
0001
1000
0001
0100
,
0010
1000
0000
0001
0000
1000
1000
0100
,
1000
0001
0000
1000
0010
0100
0001
1000
,
0100
0000
0000
1000
0000
0001
0001
1000
,
0010
0100
0102
0100
0103
0001
1000
0100
,
1000
0001
0000
0100
0000
0010
0000
1000
,
0000
1000
1000
1000
0001
0010
0100
1000
,
0000
1000
0000
0001
0000
0010
0010
0001
,
0100
0010
1000
1000
1000
0100
0010
0001
,
0010
0100
0000
1000
0000
0001
0001
1000
,
0010
0100
0010
0010
0010
0100
0001
1000
,
1000
0100
0010
0001
1000
0010
0100
0001
,
1001
0000
0000
0000
0001
0100
0010
1000
0010
0100
0001
1000
0100
0010
0100
1000
,
0001
0100
0010
0100
0001
1000
0001
0100
0010
1000
0001
0010
0100
1000
0001
1000
,
0010
0100
0001
1000
0010
1000
0001
0100
0001
1000
0100
1000
0010
0100
0001
0010
,
0001
1000
0100
0010
0001
1000
0001
0010
0100
1000
0001
0100
0001
0010
0100
1000
,
0010
0100
0001
1000
0001
0010
0100
1000
0100
0010
0001
1000
0010
0100
0010
1000
,
0001
0010
0100
0010
0001
1000
0001
0010
0100
1000
0001
0100
0010
1000
0001
1000
,
0100
0010
0001
1000
0100
1000
0001
0010
0001
1000
0010
1000
0100
0010
0001
0100
,
0001
1000
0010
0100
0001
1000
0001
0100
0010
1000
0001
0010
0001
0100
0010
1000
,
0100
0010
0001
1000
0010
0100
0001
1000
0010
1000
0001
0010
0100
0010
0001
1000
,
0100
1000
0001
0100
0010
1000
0001
0010
0001
1000
0010
0100
0001
1000
0010
1000
,
0001
0010
0100
0010
0001
1000
0100
0010
0100
1000
0001
0100
0001
0010
0100
1000
,
0010
0100
0001
1000
0010
1000
0001
0100
0001
1000
0100
1000
0010
0100
0001
1000
,
0001
0100
0010
1000
0001
0010
0001
1000
0100
1000
0001
0100
0010
0100
0001
1000
,
0010
1000
0001
0010
0100
1000
0001
0100
0001
1000
0100
0010
0001
1000
0100
1000
,
0001
0100
0010
0100
0001
1000
0010
0100
0010
1000
0001
0010
0001
0100
0010
1000
,
0100
0010
0001
1000
0100
1000
0001
0010
0001
1000
0010
1000
0100
0010
0001
1000
,
0001
0010
0100
1000
0001
0100
0010
1000
0001
0100
0001
1000
0100
0010
0100
1000
,
0001
0010
0100
1000
0001
0100
0001
1000
0100
0010
0100
1000
0001
0100
0010
1000
,
0001
0010
0001
1000
0010
0100
0010
1000
0001
0100
0001
0010
0100
1000
0010
1000
,
0001
0100
0001
1000
0100
0010
0100
1000
0001
0010
0001
0100
0010
1000
0001
0100
,
0001
1000
0010
1000
0001
0010
0100
1000
0001
0010
0001
1000
0010
0100
0010
1000
,
0001
0100
0010
1000
0001
0010
0001
1000
0010
0100
0010
1000
0001
0010
0100
1000
,
0001
0100
0001
1000
0100
0010
0100
1000
0001
0010
0001
0100
0010
1000
0100
1000
,
0001
0010
0001
1000
0010
0100
0010
1000
0001
0100
0001
0010
0100
1000
0001
0010
,
0001
1000
0010
0100
0001
1000
0100
0010
0001
1000
0100
1000
0001
0100
0010
1000
,
0001
0100
0001
1000
0100
0010
0100
1000
0001
0100
0010
1000
0001
0010
0100
0010
,
0001
1000
0010
1000
0001
0010
0100
1000
0001
1000
0100
0010
0001
0100
0010
1000
,
0100
0010
0001
1000
0100
1000
0001
0100
0001
1000
0010
1000
0100
0010
0001
0010
,
0100
1000
0001
0100
0001
1000
0010
0100
0010
1000
0001
1000
0100
0010
0100
1000
,
0001
0010
0001
1000
0010
0100
0010
1000
0001
0010
0100
1000
0001
0100
0010
0100
,
0001
1000
0100
1000
0001
0100
0010
1000
0001
1000
0010
0100
0001
0010
0100
1000
,
0010
0100
0001
1000
0010
1000
0001
0010
0001
1000
0100
1000
0010
0100
0001
0100
,
0010
1000
0001
0100
0001
0010
0100
1000
0001
0010
0001
1000
0001
0100
0010
1000
,
0100
0010
0001
0010
0100
1000
0001
1000
0010
1000
0001
1000
0100
0010
0001
0100
,
0010
1000
0001
1000
0010
0100
0001
0010
0001
1000
0100
1000
0010
0100
0001
0010
,
0001
0010
0100
1000
0001
0100
0010
1000
0100
0010
0100
1000
0001
0100
0010
1000
,
0001
0010
0100
0010
0001
0100
0010
1000
0001
0100
0001
1000
0001
0010
0100
1000
,
0010
1000
0001
1000
0100
0010
0001
0100
0010
1000
0100
1000
0010
0100
0001
0010
,
0001
1000
0001
0100
0010
1000
0001
0010
0001
1000
0100
1000
0010
0100
0001
0010
,
0001
1000
0010
1000
0001
0010
0100
1000
0010
0100
0010
1000
0001
0010
0001
1000
,
0010
0100
0001
1000
0001
0010
0100
1000
0001
0010
0001
1000
0001
0100
0010
1000
,
0100
0010
0100
1000
0001
0010
0001
1000
0001
0100
0001
1000
0010
0100
0001
0010
,
0100
1000
0001
1000
0100
0010
0001
0100
0001
1000
0010
1000
0100
0010
0001
0100
,
0001
0100
0010
1000
0001
0010
0100
1000
0010
0100
0010
1000
0001
0010
0100
1000
,
0001
0100
0010
0100
0001
0010
0100
1000
0001
0010
0001
1000
0001
0100
0010
1000
,
0100
1000
0001
1000
0010
0100
0001
0010
0100
1000
0010
1000
0100
0010
0001
0100
,
0001
1000
0001
0010
0100
1000
0001
0100
0001
1000
0010
1000
0100
0010
0001
0100
,
0001
1000
0100
1000
0001
0100
0010
1000
0100
0010
0100
1000
0001
0100
0001
1000
,
0100
0010
0001
1000
0001
0000
0100
0010
1000
0000
0100
0010
0001
1000
0100
1000
,
0001
0000
0100
0000
0010
0000
1000
0100
0010
0001
0100
0010
1000
0001
1000
0010
,
0100
0000
0001
1000
0100
0000
1000
0001
0100
0000
0001
0010
0100
1000
0001
0010
,
0001
0000
1000
0000
0010
0000
0100
0001
1000
0010
1000
0100
0010
0001
0010
0100
,
1000
0000
0001
0100
0010
0000
1000
0001
0010
0000
0001
0100
0010
1000
0001
0100
,
0001
0000
1000
0000
0100
0000
0010
0001
1000
0100
1000
0010
0100
0001
1000
0001
,
0100
0000
0001
0010
0100
0000
1000
0001
0100
0000
0001
1000
0001
0010
0100
1000
,
0001
0000
1000
0000
0001
0000
0100
0010
1000
0001
0100
0001
0010
0100
1000
0001
,
1000
0000
0001
0010
0200
0000
0000
0000
0300
0000
0200
0000
0000
0000
0300
0000
,
0000
1000
0001
0000
0000
0000
0100
0100
,
0010
1000
2200
0000
3300
2002
0000
3003
,
0101
0001
1000
0000
0000
0200
0000
0300
,
0020
0000
0100
0030
0000
0000
0000
0000
2000
0000
0000
0000
0000
3000
0000
0000
,
0002
0000
0000
0000
0200
0303
0000
0000
0000
0000
0000
0000
0020
0030
0000
0000
,
0200
0300
0002
0003
0000
0000
2000
3000
0000
0000
0200
0300
0000
0000
0020
0000
,
0000
0000
0030
0002
0000
0000
0003
1000
,
1000
0000
00M0
00M0
0000
00M0
00M0
0000
,
00M0
00M0
0000
00M0
00M0
0000
00M0
00M0
;
