#TITLE:Magna Centipede;
#SUBTITLE:MegaMan X2;
#ARTIST:Yuki Iwai;
#TITLETRANSLIT:;
#SUBTITLETRANSLIT:;
#ARTISTTRANSLIT:;
#CREDIT:;
#BANNER:Magna Centipede.png;
#BACKGROUND:Magna Centipede-bg.png;
#LYRICSPATH:;
#CDTITLE:!macTitle.png;
#MUSIC:Magna Centipede.mp3;
#OFFSET:-0.440;
#SAMPLESTART:15.800;
#SAMPLELENGTH:12.000;
#SELECTABLE:YES;
#BPMS:0.000=187.860;
#STOPS:;
#BGCHANGES:;
// cache tags:
#FIRSTBEAT:0.000;
#LASTBEAT:176.000;
#SONGFILENAME:Songs/VGMP 2/Magna Centipede (MacGravel)/Magna Centipede.sm;
#HASMUSIC:1;
#HASBANNER:1;
#MUSICLENGTH:59.854;
// end cache tags

//---------------dance-single - Blank----------------
#NOTES:
     dance-single:
     Blank:
     Hard:
     11:
     1.000,1.000,1.000,0.033,0.986,453.000,122.000,2.000,0.000,0.000:

0011
0001
0001
0001
0001
0001
0001
0001
,
0101
0001
0001
0001
0001
0001
0001
0001
,
1001
0001
1001
0001
1001
0001
1001
0001
,
1001
0000
0001
0000
1001
0000
0001
1000
0001
0000
0001
1000
0001
0000
0001
0000
,
0010
0000
0100
0010
1001
0000
0010
0000
0100
0010
0100
0010
1001
0000
0110
0000
,
0010
0000
0100
0010
1001
0000
0010
0000
0100
0010
0100
0010
1001
0000
0110
0000
,
1001
0000
0100
0010
1001
0000
1001
0100
0010
0001
0100
0010
1000
0001
0010
0100
,
1001
0000
0010
0100
1001
0000
0100
0010
0100
0001
0100
0001
0100
0001
0100
0001
,
0100
0000
0010
0100
1001
0000
0010
0000
0100
0010
0100
0010
1001
0000
0110
0000
,
0010
0000
0100
0010
1001
0000
0100
0000
0010
0100
0010
0100
1001
0000
0110
0000
,
1001
0000
0010
0100
1001
0000
1001
0100
0010
0001
0100
0010
1000
0001
0010
0100
,
1001
0000
0100
0010
1001
0000
0100
0010
1000
0001
1000
0001
1000
0001
1000
0001
,
0100
0000
0100
0000
1001
0000
0100
0000
0100
0000
0100
0000
1001
0000
0100
0010
,
0100
0000
0100
0000
1001
0000
0100
0000
0100
0000
0100
0000
1001
0000
0100
0010
,
0100
0000
0100
0000
1001
0000
0100
0000
0100
0000
0100
0000
1001
0000
0100
0010
,
0100
0000
0100
0000
1001
0000
0100
0000
0100
0000
0100
0000
1001
0000
0010
0100
,
0010
0000
0010
0000
1001
0000
0010
0000
0010
0000
0010
0000
1001
0000
0010
0100
,
0010
0000
0010
0000
1001
0000
0010
0000
0010
0000
0010
0000
1001
0000
0010
0100
,
0010
0000
0010
0000
1001
0000
0010
0000
0010
0000
0010
0000
1001
0000
0010
0100
,
0010
0000
0010
0000
1001
0000
0010
0000
0010
0100
0010
0100
1001
0000
0010
0100
,
1001
0000
0000
0000
0110
0000
0000
0000
1001
0000
0000
0100
0010
0100
0000
0000
,
1001
0000
0000
0000
0110
0000
0000
0000
1001
0000
0100
0010
0100
0010
0100
0010
,
0100
0010
1001
0100
0010
0100
1001
0000
0010
0100
1001
0000
0010
0000
1001
0100
,
0010
0100
1001
0000
0010
0100
1001
0100
0010
0000
1001
0000
0001
1000
0001
1000
,
0100
0010
1001
0010
0100
0010
1001
0000
0010
0100
1001
0100
0010
0000
1001
0100
,
0010
0100
1001
0000
0010
0100
1001
0100
0010
0100
1001
0000
0001
1000
0001
1000
,
0010
0100
0000
1001
0010
0100
0010
0000
1001
0000
0000
0110
0000
0000
0000
0000
,
1001
0001
0001
0001
0001
0001
0001
0001
,
1001
0001
0001
0001
0001
0001
0001
0001
,
1001
0001
0001
0001
0001
0001
0001
0001
,
1001
0001
0001
0001
0001
0001
0001
0001
,
0011
0011
0011
0011
0011
0011
0011
0011
,
0101
0101
0101
0101
0101
0101
0101
0101
,
1001
1001
1001
1001
1001
1001
1001
1001
,
1001
0000
1001
0000
1001
0000
0001
1000
0001
0000
0001
1000
0001
0000
0010
0100
,
0010
0000
0100
0010
1001
0000
0010
0000
0100
0010
0100
0010
1001
0000
0110
0000
,
0010
0000
0100
0010
1001
0000
0100
0000
0010
0100
0010
0100
1001
0000
0110
0000
,
1001
0000
0010
0100
1001
0000
0010
0100
0001
1000
0001
1000
0010
0100
0010
0100
,
1001
0000
0100
0010
1001
0000
0100
0010
0100
0001
0100
0001
0100
0001
0100
0010
,
1001
0000
0010
0100
1001
0000
0010
0000
0100
0010
0100
0010
1001
0000
0110
0000
,
0010
0000
0100
0010
1001
0000
0100
0000
0010
0100
0010
0100
1001
0000
0110
0000
,
1001
0000
0010
0100
1001
0000
0010
0100
0010
1000
0100
0010
0001
0010
0100
1000
,
0110
0000
0010
0100
1001
0000
0010
0100
0001
1000
0001
1000
0001
1000
0001
1000
,
0220
0000
0000
0000
,
0330
0000
0000
0000
;
