#TITLE:Zelda's on Crack;
#SUBTITLE:(Original Mix);
#ARTIST:Goblins from Mars;
#TITLETRANSLIT:;
#SUBTITLETRANSLIT:;
#ARTISTTRANSLIT:;
#CREDIT:OWENVIAU1;
#BANNER:;
#BACKGROUND:;
#LYRICSPATH:;
#CDTITLE:;
#MUSIC:Goblins from Mars - Zelda's on Crack (Original Mix).ogg;
#OFFSET:0.000;
#SAMPLESTART:53.918;
#SAMPLELENGTH:29.999;
#SELECTABLE:YES;
#DISPLAYBPM:128.000;
#BPMS:0.000=128.005,1.000=127.999,8.000=128.005,9.000=127.999,16.000=128.005,17.000=127.999,24.000=128.005,25.000=127.999,32.000=128.005,33.000=127.999,40.000=128.005,41.000=127.999,48.000=128.005,49.000=127.999,56.000=128.005,57.000=127.999,64.000=128.005,65.000=126.000,66.000=122.003,67.000=119.007,68.000=117.002,69.000=115.003,70.000=112.000,71.000=110.002,72.000=106.001,73.000=102.005,74.000=100.000,78.000=91.799,79.000=91.795,80.000=128.005,81.000=127.999,88.000=128.005,89.000=127.999,96.000=128.005,97.000=127.999,105.000=128.005,106.000=127.999,112.000=128.055,113.000=128.049,117.000=128.055,118.000=128.049,122.000=128.055,123.000=128.049,128.000=128.055,129.000=128.049,133.000=128.055,134.000=128.049,138.000=128.055,139.000=128.049,143.000=128.055,144.000=128.049,148.000=128.055,149.000=128.049,153.000=128.055,154.000=128.049,158.000=128.055,159.000=128.049,163.000=128.055,164.000=128.049,168.000=128.055,169.000=128.049,174.000=128.055,175.000=128.049,178.000=128.055,179.000=128.049,184.000=128.055,185.000=128.049,188.000=128.055,189.000=128.049,194.000=128.055,195.000=128.049,200.000=128.055,201.000=128.049,204.000=128.055,205.000=128.049,210.000=128.055,211.000=128.049,215.000=128.055,216.000=128.049,220.000=128.055,221.000=128.049,225.000=128.055,226.000=128.049,231.000=128.055,232.000=128.049,236.000=128.055,237.000=128.049,240.000=128.055,241.000=128.049,245.000=128.055,246.000=128.049,251.000=128.055,252.000=128.049,256.000=128.055,257.000=128.049,261.000=128.055,262.000=128.049,265.000=128.055,266.000=128.049,271.000=128.055,272.000=128.049,276.000=128.055,277.000=128.049,281.000=128.055,282.000=128.049,286.000=128.055,287.000=128.049,291.000=128.055,292.000=128.049,297.000=128.055,298.000=128.049,302.000=128.055,303.000=128.049,306.000=128.055,307.000=128.049,311.000=128.055,312.000=128.049,316.000=128.055,317.000=128.049,322.000=128.055,323.000=128.049,327.000=128.055,328.000=128.049,332.000=128.055,333.000=128.049,337.000=128.055,338.000=128.049;
#STOPS:;
#BGCHANGES:;
// cache tags:
#FIRSTBEAT:16.000;
#LASTBEAT:333.000;
#SONGFILENAME:Songs/owenviau1 Simfiles 07_final/Zelda's on Crack - [Braeden + owenviau1]/Zelda's on Crack.sm;
#HASMUSIC:1;
#HASBANNER:0;
#MUSICLENGTH:160.405;
// end cache tags

//---------------dance-single - ----------------
#NOTES:
     dance-single:
     :
     Challenge:
     16:
     0.930,1.000,0.355,0.069,1.000,975.000,57.000,11.000,0.000,0.000:

0000
0000
0000
0000
,
0000
0000
0000
0000
,
0000
0000
0000
0000
,
0000
0000
0000
0000
,
1001
0000
0001
0100
0020
0000
0000
0000
0000
0000
0000
0000
1030
0000
1000
0000
,
1000
0000
0001
0100
0020
0000
0000
0000
0000
0000
0000
0000
1030
0000
0100
0000
,
0010
0000
0001
1000
0020
0000
0000
0000
0000
0000
0000
0000
0230
0000
0000
0000
,
0301
0000
0000
1000
0000
0001
0000
1000
0000
0000
0001
0000
1000
0000
0001
0000
0000
1000
0000
0001
0000
1000
0000
0000
,
0000
0000
0000
0000
0000
0000
0011
0000
0000
0000
0000
0000
0022
0000
0000
0000
0000
0000
0033
0000
0000
0000
0000
0001
,
0100
0000
0010
0000
1000
0000
0100
0000
0022
0000
0000
0000
0000
0000
0000
0000
0033
0000
0000
0000
0000
0000
0000
0000
0000
0000
0000
0000
0001
0000
1000
0010
,
0100
0000
0000
0000
0000
0000
0000
0000
0000
0000
0000
0000
0000
0000
0000
0000
0010
0000
0000
0000
0000
0000
0000
0000
0000
0000
0000
0000
0000
0000
0000
0000
0100
0000
0000
0000
0000
0000
0000
0000
0000
0000
0000
0000
0000
0000
0000
0000
0002
0000
0000
0000
0000
0000
0000
0000
0000
0000
0000
0000
0000
0000
0000
0000
0000
0000
0000
0000
0000
0000
0000
0000
0000
0000
0000
0000
0000
0000
0000
0000
0000
0000
0000
0000
0000
0000
0000
0000
0000
0000
0000
0000
0000
0000
0000
0000
0003
0000
0000
0000
0000
0000
0000
0000
0000
0000
0000
0000
0000
0000
0000
0000
0000
0000
0000
0000
0000
0000
0000
0000
0000
0000
0000
0000
0000
0000
0000
0000
0000
0000
0000
0000
0000
0000
0000
0000
0000
0000
0000
0000
0000
0000
0000
0000
0000
0000
0000
0000
0000
0000
0000
0000
0000
0000
0000
0000
0010
0000
0000
0000
0000
0000
0001
0000
0000
0000
0000
0000
0010
0000
0000
0000
0000
0000
0000
0000
0000
0000
0000
0000
0000
0000
0000
0000
0000
0000
0000
0000
0000
0000
0000
0000
,
1001
0000
0000
0000
0010
0000
0000
0000
0100
0000
0000
0000
0001
0000
0000
0000
0000
0000
0101
0000
0000
0000
0000
0000
0010
0000
0000
0000
0000
0000
1000
0000
0000
0010
0000
0000
0100
0000
0000
0001
0000
0000
0101
0000
0000
0000
0000
0000
,
1001
0000
0000
0000
0000
0000
1000
0000
0001
0000
0100
0000
0010
0000
0000
1000
0000
0000
0010
0000
0000
0100
0000
0000
0001
0000
0000
1000
0000
0000
0100
0000
0000
0010
0000
0000
0001
0000
0000
0010
0000
0000
0100
0000
0000
1000
0000
0000
,
0001
0100
0010
1000
0001
0010
0001
1000
0100
0010
0100
1000
0001
0100
0010
1000
,
0100
0010
0100
1000
0001
0100
0010
0100
0001
1000
0100
0010
0100
1000
0001
0100
,
0010
1000
0100
0010
0001
0100
1000
0000
0100
0001
1000
0000
0001
0100
1000
0000
,
0100
0000
0000
0000
0001
0000
0000
0000
0000
0000
0000
0000
0001
0000
0000
0000
0100
0000
0000
0000
0000
0000
0000
0000
0000
0000
0000
0000
0000
0000
0000
0010
1000
0000
0000
0000
0000
0000
0000
0000
0000
0000
0000
0000
0000
0000
0000
0001
0100
0000
0000
0000
0000
0000
0000
0000
0000
0000
0000
0000
0010
0000
0000
0000
,
1000
0000
0100
0000
0010
0000
0001
0000
1000
0000
0000
0000
0000
0000
0000
0000
0001
0000
0100
0000
0010
1000
0000
0000
0000
0000
0010
0000
0000
0000
0010
0000
,
0100
0000
0001
0100
0010
0000
0000
0000
0000
0000
0000
0000
0000
0000
1000
0100
,
0010
0000
0001
0100
0000
0000
0010
0100
0000
0000
0000
0000
0000
0000
0000
0000
,
1000
0001
0100
0010
1000
0001
0010
0100
1000
0001
0100
0010
1000
0001
0100
0010
1000
0100
0010
0100
1000
0001
0100
0010
1000
0001
0010
0100
1000
0100
0010
0100
,
1000
0001
0100
0010
1000
0001
0100
0010
1000
0001
0010
0100
0010
0100
0010
0001
0100
0010
0100
0001
1000
0010
0100
0001
1000
0100
0010
0100
0010
0100
0010
0001
,
0100
0010
1000
0001
0100
0010
1000
0001
0010
0100
1000
0100
0010
0001
0100
0010
1000
0001
0010
0100
1000
0001
0010
0001
1000
0100
0010
0100
1000
0001
0100
0010
,
1000
0000
1000
0100
0010
0000
0001
0010
0100
1000
0001
0000
1000
0000
0001
0000
,
1000
0001
0100
0010
1000
0001
0010
0100
1000
0001
0100
0010
0100
0001
0010
0100
1000
0001
0100
0010
0100
0001
1000
0100
1000
0001
0100
0010
1000
0001
0010
0100
,
1000
0001
0010
0100
1000
0100
0010
0100
1000
0001
0100
0010
1000
0001
0100
0010
1000
0100
0010
0100
1000
0001
0100
0010
1000
0100
0010
0100
1000
0001
0010
0100
,
1000
0001
0100
0010
1000
0001
0100
0010
0100
0001
0010
0100
1000
0100
0010
0100
0010
0001
0100
0010
0100
0010
1000
0100
0010
0100
1000
0001
0100
0010
1000
0100
,
1000
0000
0000
0000
,
1000
0000
0100
0000
0001
0000
0100
0100
1000
0000
0010
0000
0100
0000
0001
0000
,
0010
0001
1000
0010
0100
0001
0010
0001
,
1000
0000
0000
0000
1000
0100
0010
0000
0011
0000
0001
0000
0101
0000
0100
0000
,
0010
1000
0010
0000
0000
0000
0000
0000
0100
0000
0001
0000
0100
0000
0010
0000
0000
0000
0000
0000
0100
0000
0000
0000
0000
0000
0100
0000
0000
0000
0000
0000
,
0001
0000
1000
0000
1001
0000
0010
1000
0100
0000
0010
0000
0011
0000
0001
0000
,
0100
0000
0000
0000
0010
0000
0000
0000
1010
0000
0000
0000
1000
0000
0000
0000
0001
0100
0010
0000
1000
0000
0000
0000
0001
0100
0010
0000
1000
0000
0000
0000
,
0001
0000
0100
0000
1010
1000
0010
0000
0100
0000
0001
0000
0101
0000
0010
0000
,
1000
0000
0010
0100
0001
0000
0000
0000
0000
0000
0000
0000
1000
0001
1000
0001
,
0100
0000
0010
0000
1010
0000
1000
0001
0100
0000
0010
0000
1010
1000
0010
0000
,
0100
0000
0001
0000
0100
0000
0000
0000
1010
0000
0100
0000
0001
0000
0000
0000
0100
0010
1000
0000
0001
0000
0000
0000
0100
0010
1000
0000
0100
0000
0000
0000
,
0010
0000
0001
0000
0011
0100
1000
0001
0010
0000
0100
0000
1100
0000
0010
0000
,
0001
0000
0000
0000
0000
0000
0000
0000
1001
0000
0000
0000
0000
0000
1000
0001
0100
0000
0000
0000
0010
0000
0000
0000
0000
0000
0000
0000
1000
0000
0001
0000
,
0100
0000
0010
0000
1010
0000
0100
0001
0100
0000
0010
0000
1010
1000
0010
0000
,
0100
0000
0001
0000
0100
0000
0000
0000
1010
0000
0010
0000
1000
0000
0000
0000
0100
0010
0100
0000
1000
0000
0000
0000
0001
0100
0010
0000
0100
0000
0000
0000
,
0010
0000
1000
0000
1010
0100
0001
0100
0010
0000
1000
0000
1010
0000
0010
0000
,
1010
0000
0000
0000
0100
0000
0000
0001
0000
0000
0100
0000
0010
0000
0000
0000
,
4000
0000
0000
0000
,
3000
0000
0000
0000
0001
0000
0000
0000
0100
0000
0100
0000
0010
0000
1000
0001
,
0100
0010
0000
0010
,
2000
0000
0000
0000
0001
0000
0000
0000
0010
0000
0010
0000
3010
0000
0100
0001
,
0200
0310
0000
0010
,
0010
0000
0000
0000
1001
0000
0000
0000
1001
0000
0000
1000
0001
0100
0010
1000
,
0100
0000
0000
0000
0000
0000
0011
0000
0000
0000
0000
0000
0011
0000
0000
0000
0000
0000
0000
0000
0000
0000
0000
0000
1001
0000
0000
0000
0000
0000
0000
0000
0000
0001
0000
0000
0100
0000
0000
0000
0010
0000
0000
0000
1000
0000
0000
0000
,
0010
0000
0000
0000
0000
0000
0101
0000
0000
0000
0000
0000
0101
0000
0000
0010
0000
0000
1000
0000
0001
0000
0100
0000
,
0010
0000
1000
0001
0100
0000
0000
0000
1010
0000
0000
0000
1001
0000
0000
0000
,
0101
0000
0010
1000
0010
0100
0001
1000
0100
0010
0100
1000
0001
0100
0010
1000
,
0100
0010
0100
1000
0001
0100
0010
0100
0001
0100
0010
1000
0100
0010
0100
1000
,
0001
0100
0010
1000
0001
0010
0100
1000
0100
0010
0001
0100
0010
0100
0001
0100
,
0010
1000
0100
0010
0100
1000
0001
0100
0001
0100
0010
1000
0100
0010
0100
1000
,
0001
0000
0000
0000
1001
0000
0000
0000
0010
0000
0000
1000
0001
0100
0010
1000
,
0100
0000
0000
0000
,
0000
0000
0000
0000
,
0001
0100
0010
1000
0001
0010
0100
1000
0001
0100
0010
1000
0100
0010
0100
1000
0001
0100
0010
1000
0001
0010
0100
1000
0001
0100
0010
1000
0001
0010
0100
1000
,
0001
0100
0010
1000
0100
0010
0100
1000
0001
0100
0010
1000
0001
0100
0010
1000
0001
0100
0010
1000
0001
0010
0100
1000
0100
0010
0100
1000
0001
0100
0010
1000
,
0001
0010
0100
1000
0001
0100
0010
0100
0001
1000
0100
0010
0100
1000
0001
0100
0010
1000
0100
0010
0100
1000
0001
0100
0010
1000
0001
0100
0010
1000
0001
0100
,
0010
0000
1000
0100
0010
0000
0001
0010
1000
0000
0000
0000
0000
0000
0000
0000
,
1000
0001
0100
0010
1000
0001
0010
0100
1000
0001
0100
0010
1000
0001
0010
0100
1000
0001
0100
0010
1000
0001
0010
0100
1000
0100
0010
0001
0010
0100
1000
0001
,
0100
0010
1000
0001
0100
0010
1000
0001
0100
0010
1000
0100
0010
0100
1000
0001
0010
0100
1000
0100
0010
0001
0100
0010
0100
0001
0010
0100
1000
0001
0100
0010
,
0100
0001
0100
0010
1000
0001
0010
0100
1000
0100
0010
0001
0010
0100
1000
0001
0100
0010
1000
0100
0010
0100
1000
0001
0100
0010
1000
0100
0010
0001
1000
0100
,
1000
0000
0000
0000
,
1000
0000
0100
0000
0001
0000
0100
0100
1000
0000
0010
0000
0100
0000
0001
0000
,
0010
0001
1000
0010
0100
0001
0010
0001
,
1000
0000
1000
0000
0000
0100
0010
0000
0011
0000
0001
0000
0101
0000
0100
0000
,
0010
1000
0010
0000
0000
0000
0000
0000
0100
0000
0001
0000
0100
0000
0010
0000
0000
0000
0000
0000
0100
0000
0000
0000
0000
0000
0100
0000
0000
0000
0000
0000
,
0001
0000
1000
0000
1001
0000
0010
1000
0100
0000
0010
0000
0011
0000
0001
0000
,
0100
0000
0000
0000
0010
0000
0000
0000
1010
0000
0000
0000
1000
0000
0000
0000
0001
0100
0010
0000
1000
0000
0000
0000
0001
0100
0010
0000
1000
0000
0000
0000
,
0001
0000
0100
0000
1010
1000
0010
0000
0100
0000
0001
0000
0101
0000
0010
0000
,
1000
0000
0010
0100
0001
0000
0000
0000
0000
0000
0000
0000
1000
0001
1000
0001
,
0100
0000
0010
0000
1010
0000
1000
0001
0100
0000
0010
0000
1010
1000
0010
0000
,
0100
0000
0001
0000
0100
0000
0000
0000
1010
0000
0100
0000
0001
0000
0000
0000
0100
0010
1000
0000
0001
0000
0000
0000
0100
0010
1000
0000
0100
0000
0000
0000
,
0010
0000
0001
0000
0011
0100
1000
0001
0010
0000
0100
0000
1100
0000
0010
0000
,
0001
0000
0000
0000
0000
0000
0000
0000
1001
0000
0000
0000
0000
0000
1000
0001
0100
0000
0000
0000
0010
0000
0000
0000
0000
0000
0000
0000
1000
0000
0001
0000
,
1000
0000
0010
0000
0101
0000
0010
1000
0010
0000
0100
0000
0101
0100
0010
0000
,
1000
0000
0010
0000
0100
0000
0000
0000
0001
0000
0100
0000
0010
0000
0000
0000
1000
0001
0100
0000
0010
0000
0000
0000
1000
0001
0100
0000
0010
0000
0000
0000
,
1000
0000
0100
0000
0011
0001
0010
0001
0010
0000
0001
0000
0011
0000
0001
0000
,
0011
1100
0000
0000
;

//---------------dance-single - ----------------
#NOTES:
     dance-single:
     :
     Hard:
     11:
     0.775,1.000,0.461,0.069,0.920,784.000,74.000,11.000,0.000,0.000:

0000
0000
0000
0000
,
0000
0000
0000
0000
,
0000
0000
0000
0000
,
0000
0000
0000
0000
,
1001
0000
0001
0100
0020
0000
0000
0000
0000
0000
0000
0000
1030
0000
1000
0000
,
1000
0000
0001
0100
0020
0000
0000
0000
0000
0000
0000
0000
1030
0000
0100
0000
,
0010
0000
0001
1000
0020
0000
0000
0000
0000
0000
0000
0000
0230
0000
0000
0000
,
0301
0000
0000
1000
0000
0001
0000
1000
0000
0000
0001
0000
1000
0000
0001
0000
0000
1000
0000
0001
0000
1000
0000
0000
,
0000
0000
0000
0000
0000
0000
0011
0000
0000
0000
0000
0000
0022
0000
0000
0000
0000
0000
0033
0000
0000
0000
0000
0001
,
0100
0000
0010
0000
1000
0000
0100
0000
0022
0000
0000
0000
0000
0000
0000
0000
0033
0000
0000
0000
0000
0000
0000
0000
0000
0000
0000
0000
0001
0000
1000
0010
,
0100
0000
0000
0000
0000
0000
0000
0000
0000
0000
0000
0000
0000
0000
0000
0000
0010
0000
0000
0000
0000
0000
0000
0000
0000
0000
0000
0000
0000
0000
0000
0000
0100
0000
0000
0000
0000
0000
0000
0000
0000
0000
0000
0000
0000
0000
0000
0000
0002
0000
0000
0000
0000
0000
0000
0000
0000
0000
0000
0000
0000
0000
0000
0000
0000
0000
0000
0000
0000
0000
0000
0000
0000
0000
0000
0000
0000
0000
0000
0000
0000
0000
0000
0000
0000
0000
0000
0000
0000
0000
0000
0000
0000
0000
0000
0000
0003
0000
0000
0000
0000
0000
0000
0000
0000
0000
0000
0000
0000
0000
0000
0000
0000
0000
0000
0000
0000
0000
0000
0000
0000
0000
0000
0000
0000
0000
0000
0000
0000
0000
0000
0000
0000
0000
0000
0000
0000
0000
0000
0000
0000
0000
0000
0000
0000
0000
0000
0000
0000
0000
0000
0000
0000
0000
0000
0000
0010
0000
0000
0000
0000
0000
0001
0000
0000
0000
0000
0000
0010
0000
0000
0000
0000
0000
0000
0000
0000
0000
0000
0000
0000
0000
0000
0000
0000
0000
0000
0000
0000
0000
0000
0000
,
1001
0000
0000
0000
0010
0000
0000
0000
0100
0000
0000
0000
0001
0000
0000
0000
0000
0000
0101
0000
0000
0000
0000
0000
0010
0000
0000
0000
0000
0000
1000
0000
0000
0010
0000
0000
0100
0000
0000
0001
0000
0000
0101
0000
0000
0000
0000
0000
,
1001
0000
0000
0000
0000
0000
1000
0000
0001
0000
0100
0000
0010
0000
0000
1000
0000
0000
0010
0000
0000
0100
0000
0000
0001
0000
0000
1000
0000
0000
0100
0000
0000
0010
0000
0000
0001
0000
0000
0010
0000
0000
0100
0000
0000
1000
0000
0000
,
0001
0100
0010
1000
0001
0010
0001
1000
0100
0010
0100
1000
0001
0100
0010
1000
,
0100
0010
0100
1000
0001
0100
0010
0100
0001
1000
0100
0010
0100
1000
0001
0100
,
0010
1000
0100
0010
0001
0100
1000
0000
0100
0001
1000
0000
0001
0100
1000
0000
,
0100
0000
0000
0000
0001
0000
0000
0000
0000
0000
0000
0000
0001
0000
0000
0000
0100
0000
0000
0000
0000
0000
0000
0000
0000
0000
0000
0000
0000
0000
0000
0010
1000
0000
0000
0000
0000
0000
0000
0000
0000
0000
0000
0000
0000
0000
0000
0001
0100
0000
0000
0000
0000
0000
0000
0000
0000
0000
0000
0000
0010
0000
0000
0000
,
1000
0000
0100
0000
0010
0000
0001
0000
1000
0000
0000
0000
0000
0000
0000
0000
0001
0000
0100
0000
0010
1000
0000
0000
0000
0000
0010
0000
0000
0000
0010
0000
,
0100
0000
0001
0100
0010
0000
0000
0000
0000
0000
0000
0000
0000
0000
1000
0100
,
0010
0000
0001
0100
0000
0000
0010
0100
0000
0000
0000
0000
0000
0000
0000
0000
,
0001
0100
0001
0000
0100
0000
0010
0000
1000
0010
1000
0000
0001
0000
0100
0000
0010
1000
0010
0000
0100
0000
0001
0000
1000
0001
1000
0000
0010
0000
0100
0000
,
0001
1000
0001
0000
0100
0000
0010
0000
1000
0001
1000
0000
0010
0000
0100
0000
0001
1000
0001
0000
0100
0000
0010
0000
1000
0100
0010
0000
0001
0000
0010
0000
,
0100
0010
0001
0000
0100
0000
0010
0000
0100
0001
0100
0000
0010
0000
1000
0000
0001
0100
0010
0000
1000
0000
0001
0000
0100
0010
1000
0000
0001
0000
0100
0000
,
0010
1000
0010
0100
0001
0000
0010
1000
0001
0000
0000
0000
0000
0000
0000
0000
,
1001
0000
0001
0100
0101
0000
0010
1000
0100
1000
1100
0000
1001
0000
0001
0100
,
0110
0000
0010
1000
1010
0000
0100
0001
0100
0010
1010
0000
1010
0000
0100
0001
,
1000
1000
0010
0010
0100
0100
0001
0001
0100
0100
0010
0010
1000
1000
0001
0001
,
1000
0000
0000
0000
,
1000
0000
0100
0000
0001
0000
0100
0100
1000
0000
0010
0000
0100
0000
0001
0000
,
0010
0001
1000
0010
0100
0001
0010
0001
,
1000
0000
0000
0000
1000
0100
0010
0000
0011
0000
0001
0000
0101
0000
0100
0000
,
0010
1000
0010
0000
0000
0000
0000
0000
0100
0000
0001
0000
0100
0000
0010
0000
0000
0000
0000
0000
0100
0000
0000
0000
0000
0000
0100
0000
0000
0000
0000
0000
,
0001
0000
1000
0000
1001
0000
0010
1000
0100
0000
0010
0000
0011
0000
0001
0000
,
0100
0000
0000
0000
0010
0000
0000
0000
1010
0000
0000
0000
1000
0000
0000
0000
0001
0100
0010
0000
1000
0000
0000
0000
0001
0100
0010
0000
1000
0000
0000
0000
,
0001
0000
0100
0000
1010
1000
0010
0000
0100
0000
0001
0000
0101
0000
0010
0000
,
1000
0000
0010
0100
0001
0000
0000
0000
0000
0000
0000
0000
1000
0001
1000
0001
,
0100
0000
0010
0000
1010
0000
1000
0001
0100
0000
0010
0000
1010
1000
0010
0000
,
0100
0000
0001
0000
0100
0000
0000
0000
1010
0000
0100
0000
0001
0000
0000
0000
0100
0010
1000
0000
0001
0000
0000
0000
0100
0010
1000
0000
0100
0000
0000
0000
,
0010
0000
0001
0000
0011
0100
1000
0001
0010
0000
0100
0000
1100
0000
0010
0000
,
0001
0000
0000
0000
0000
0000
0000
0000
1001
0000
0000
0000
0000
0000
1000
0001
0100
0000
0000
0000
0010
0000
0000
0000
0000
0000
0000
0000
1000
0000
0001
0000
,
0100
0000
0010
0000
1010
0000
0100
0001
0100
0000
0010
0000
1010
1000
0010
0000
,
0100
0000
0001
0000
0100
0000
0000
0000
1010
0000
0010
0000
1000
0000
0000
0000
0100
0010
0100
0000
1000
0000
0000
0000
0001
0100
0010
0000
0100
0000
0000
0000
,
0010
0000
1000
0000
1010
0100
0001
0100
0010
0000
1000
0000
1010
0000
0010
0000
,
1010
0000
0000
0000
0100
0000
0000
0001
0000
0000
0100
0000
0010
0000
0000
0000
,
4000
0000
0000
0000
,
3000
0000
0000
0000
0001
0000
0000
0000
0100
0000
0100
0000
0010
0000
1000
0001
,
0100
0010
0000
0010
,
2000
0000
0000
0000
0001
0000
0000
0000
0010
0000
0010
0000
3010
0000
0100
0001
,
0200
0310
0000
0010
,
0010
0000
0000
0000
1001
0000
0000
0000
1001
0000
0000
1000
0001
0100
0010
1000
,
0100
0000
0000
0000
0000
0000
0011
0000
0000
0000
0000
0000
0011
0000
0000
0000
0000
0000
0000
0000
0000
0000
0000
0000
1001
0000
0000
0000
0000
0000
0000
0000
0000
0001
0000
0000
0100
0000
0000
0000
0010
0000
0000
0000
1000
0000
0000
0000
,
0010
0000
0000
0000
0000
0000
0101
0000
0000
0000
0000
0000
0101
0000
0000
0010
0000
0000
1000
0000
0001
0000
0100
0000
,
0010
0000
1000
0001
0100
0000
0000
0000
1010
0000
0000
0000
1001
0000
0000
0000
,
0101
0000
0010
1000
0010
0100
0001
1000
0100
0010
0100
1000
0001
0100
0010
1000
,
0100
0010
0100
1000
0001
0100
0010
0100
0001
0100
0010
1000
0100
0010
0100
1000
,
0001
0100
0010
1000
0001
0010
0100
1000
0100
0010
0001
0100
0010
0100
0001
0100
,
0010
1000
0100
0010
0100
1000
0001
0100
0001
0100
0010
1000
0100
0010
0100
1000
,
0001
0000
0000
0000
1001
0000
0000
0000
0010
0000
0000
1000
0001
0100
0010
1000
,
0100
0000
0000
0000
,
0000
0000
0000
0000
,
0001
0100
0010
0000
1000
0000
0010
0000
0100
0001
0100
0000
0010
0000
1000
0000
0010
0100
0001
0000
1000
0000
0000
0000
0001
0100
0010
0000
1000
0000
0001
0000
,
1000
0010
0100
0000
0001
0000
0100
0000
0001
0010
0100
0000
1000
0000
0010
0000
0100
0001
0100
0000
0010
0000
0000
0000
0010
0100
0001
0000
1000
0000
0001
0000
,
0100
0010
1000
0000
0010
0000
0100
0000
0001
1000
0100
0000
0010
0000
0001
0000
0100
0010
1000
0000
0001
0000
0000
0000
0101
0000
0000
0000
0010
0000
1000
0010
,
0100
0000
0001
0100
0010
0000
0010
1000
0001
0000
0000
0000
0000
0000
0000
0000
,
1001
0000
0001
0100
0110
0000
0010
1000
0100
0010
0110
0000
0101
0000
0001
0100
,
0110
0000
0010
1000
1010
0000
1000
0001
0100
0010
0110
0000
1010
0000
1000
0001
,
1000
0100
1000
0100
0010
0001
0010
0001
0100
0010
0100
0010
1000
0001
0100
0010
,
1000
0000
0000
0000
,
1000
0000
0100
0000
0001
0000
0100
0100
1000
0000
0010
0000
0100
0000
0001
0000
,
0010
0001
1000
0010
0100
0001
0010
0001
,
1000
0000
1000
0000
0000
0100
0010
0000
0011
0000
0001
0000
0101
0000
0100
0000
,
0010
1000
0010
0000
0000
0000
0000
0000
0100
0000
0001
0000
0100
0000
0010
0000
0000
0000
0000
0000
0100
0000
0000
0000
0000
0000
0100
0000
0000
0000
0000
0000
,
0001
0000
1000
0000
1001
0000
0010
1000
0100
0000
0010
0000
0011
0000
0001
0000
,
0100
0000
0000
0000
0010
0000
0000
0000
1010
0000
0000
0000
1000
0000
0000
0000
0001
0100
0010
0000
1000
0000
0000
0000
0001
0100
0010
0000
1000
0000
0000
0000
,
0001
0000
0100
0000
1010
1000
0010
0000
0100
0000
0001
0000
0101
0000
0010
0000
,
1000
0000
0010
0100
0001
0000
0000
0000
0000
0000
0000
0000
1000
0001
1000
0001
,
0100
0000
0010
0000
1010
0000
1000
0001
0100
0000
0010
0000
1010
1000
0010
0000
,
0100
0000
0001
0000
0100
0000
0000
0000
1010
0000
0100
0000
0001
0000
0000
0000
0100
0010
1000
0000
0001
0000
0000
0000
0100
0010
1000
0000
0100
0000
0000
0000
,
0010
0000
0001
0000
0011
0100
1000
0001
0010
0000
0100
0000
1100
0000
0010
0000
,
0001
0000
0000
0000
0000
0000
0000
0000
1001
0000
0000
0000
0000
0000
1000
0001
0100
0000
0000
0000
0010
0000
0000
0000
0000
0000
0000
0000
1000
0000
0001
0000
,
1000
0000
0010
0000
0101
0000
0010
1000
0010
0000
0100
0000
0101
0100
0010
0000
,
1000
0000
0010
0000
0100
0000
0000
0000
0001
0000
0100
0000
0010
0000
0000
0000
1000
0001
0100
0000
0010
0000
0000
0000
1000
0001
0100
0000
0010
0000
0000
0000
,
1000
0000
0100
0000
0011
0001
0010
0001
0010
0000
0001
0000
0011
0000
0001
0000
,
0011
1100
0000
0000
;
