#TITLE:Clear Blue Water;
#SUBTITLE:;
#ARTIST:Oceanlab;
#TITLETRANSLIT:;
#SUBTITLETRANSLIT:;
#ARTISTTRANSLIT:;
#CREDIT:;
#BANNER:../Banner.png;
#BACKGROUND:../BG.png;
#LYRICSPATH:;
#CDTITLE:../CDTitleBRAEDEN.png;
#MUSIC:Oceanlab - Clear Blue Water.ogg;
#OFFSET:-1.077;
#SAMPLESTART:45.982;
#SAMPLELENGTH:11.880;
#SELECTABLE:YES;
#BPMS:0.000=71.179,1.000=69.659,2.000=69.000,5.000=69.002,6.000=69.000,8.000=69.933,9.000=68.091,10.000=69.000,11.000=69.002,12.000=67.205,13.000=68.091,14.000=69.000,15.000=69.933,16.000=69.000,17.000=69.935,18.000=71.879,19.000=70.893,20.000=68.091,21.000=67.205,22.000=68.091,23.000=68.092,24.000=69.000,25.000=71.879,26.000=69.000,28.000=69.002,29.000=69.000,33.000=67.645,34.000=138.007,35.000=137.999,46.000=138.007,47.000=137.999,57.000=138.007,58.000=137.999,69.000=138.007,70.000=137.999,81.000=138.007,82.000=137.999,93.000=138.007,94.000=137.999,104.000=138.007,105.000=137.999,116.000=138.007,117.000=137.999,127.000=138.007,128.000=137.999,138.000=138.007,139.000=137.999,149.000=138.007,150.000=137.999,161.000=138.007,162.000=137.999,172.000=138.007,173.000=137.999,186.000=138.007,187.000=137.999,198.000=138.007,199.000=137.999,209.000=138.007,210.000=137.999,220.000=138.007,221.000=137.999,232.000=138.007,233.000=137.999,243.000=138.007,244.000=137.999,253.000=138.007,254.000=137.999,265.000=138.007,266.000=137.999,276.000=138.007,277.000=137.999,288.000=138.007,289.000=137.999,299.000=138.007,300.000=137.999,310.000=138.007,311.000=137.999,322.000=138.007,323.000=137.999,333.000=138.007,334.000=137.999,345.000=138.007,346.000=137.999,356.000=138.007,357.000=137.999,367.000=138.007,368.000=137.999,379.000=138.007,380.000=137.999,390.000=138.007,391.000=137.999,402.000=138.007,403.000=137.999,419.000=138.007,420.000=137.999,425.000=138.007,426.000=137.999,442.000=138.007,443.000=137.999,447.000=138.007,448.000=137.999,465.000=138.007,466.000=137.999;
#STOPS:;
#BGCHANGES:;
// cache tags:
#FIRSTBEAT:0.000;
#LASTBEAT:453.000;
#SONGFILENAME:Songs/Index Tesseract/Clear Blue Water - [Braeden]/Clear Blue Water.sm;
#HASMUSIC:1;
#HASBANNER:1;
#MUSICLENGTH:219.544;
// end cache tags

//---------------dance-single - ----------------
#NOTES:
     dance-single:
     :
     Challenge:
     13:
     0.986,0.954,0.146,0.319,1.000,1413.000,32.000,70.000,28.000,0.000:
2000
0000
0000
0000
3020
0000
0030
0000
2002
0000
0000
0003
3020
0000
0230
0000
,
0302
0000
0000
0023
0000
0000
0230
0000
0000
0000
0000
0000
0000
0000
0000
0000
,
2300
0000
3002
0203
0000
0000
0000
0320
,
2030
0000
0000
3002
0000
0000
0203
0000
0000
0000
00M0
0000
0000
0000
M000
0000
,
0000
000M
0000
00M0
0000
0000
0310
1000
,
0020
0000
0000
0230
0000
0000
0302
0000
0000
0000
0000
0000
0000
0000
0000
0000
,
1003
0000
0000
0010
0000
0000
0200
0000
0000
0000
0000
0000
0000
0000
0301
0000
,
0002
0000
0000
0023
0000
0000
0230
0000
0000
0000
0000
0000
0000
0000
0300
0000
,
0000
0000
0000
0000
1001
0010
0000
0100
,
0000
0010
0000
1000
0002
0103
0000
0020
,
0030
2000
3000
0001
0200
0310
0000
2000
,
3000
0002
0003
1000
0200
0310
0000
0002
,
0003
0200
0300
0010
2000
3010
0000
0200
,
0300
0002
0003
0100
0010
1000
0000
0200
,
0300
0020
0030
0001
0100
0010
0000
2000
,
3000
0002
0003
0100
0010
0100
0000
0020
,
0030
0000
2000
0000
3000
0000
0001
0000
0010
0001
0100
0001
1000
0010
1000
0100
,
1000
0001
0010
0001
1000
0010
0100
0001
1000
0100
0010
0100
1000
0001
0100
0010
,
0100
0001
1000
0100
0010
0100
1000
0001
0010
0100
1000
0001
0100
0010
0100
0001
,
1000
0100
0010
0100
1000
0001
0010
0100
1000
0001
0100
0010
0100
0001
1000
0100
,
0010
0100
1000
0001
0010
0100
1000
0001
0100
0010
0100
0001
1000
0100
0010
0100
,
1000
0100
0010
0100
1000
0001
0100
0010
0100
0001
1000
0100
0010
0001
1000
0010
,
0100
0001
1000
0001
0100
0001
1000
0001
0100
0010
1000
0100
1000
0010
1000
0001
,
0100
0000
0000
0010
0000
0000
0100
0000
0000
0001
0000
0000
1000
0000
0000
0100
0000
0000
0010
0000
0000
0001
0000
0000
1000
0000
0010
0000
0100
0000
0001
0000
1000
0000
0100
0000
0010
0000
0100
0000
1000
0000
0001
0000
0100
0000
0010
0000
,
1000
0100
0010
0100
1000
0001
0100
0010
1000
0100
0010
0100
4000
0000
3010
0000
,
0100
0001
0100
0010
4000
0000
3010
0000
0100
0001
0000
0001
0040
0000
0130
0000
,
1000
0100
0000
0010
0004
0000
0103
0000
0010
1000
0000
1000
0040
0000
0130
0000
,
0001
0010
0000
0100
4000
0000
3001
0000
0100
0010
0000
1000
0400
0000
0310
0001
,
0100
0010
1000
0100
0040
0000
0031
0100
0010
1000
0100
0010
0004
0000
1003
0100
,
1000
0001
0100
0010
0400
0000
0310
0000
1000
0100
0010
0100
4000
0000
3001
0000
,
0100
0010
0100
0001
4000
0000
3100
0010
0100
1000
0001
0000
0400
0000
0310
1000
,
0010
0100
0001
1000
0400
0000
0310
0001
0100
0010
1000
0100
4000
0000
3001
0100
,
0010
0100
0001
1000
0400
0000
0310
0000
1001
0000
1000
0010
1000
0000
0010
0100
,
0010
0100
0001
0010
0001
0000
1000
0100
1000
0100
0010
0001
0010
0000
0001
0100
,
0001
0100
0010
1000
0010
0000
1000
0100
1000
0100
0010
0001
0010
0000
0100
1000
,
0100
1000
0100
0010
0001
0000
0100
0010
0100
0001
1000
0100
1000
0000
0001
0010
,
0100
1000
0001
0100
0010
0000
1000
0100
0010
0100
1000
0001
0100
0000
0010
1000
,
0001
0010
0100
1000
0001
0000
0100
0010
1000
0001
0100
0001
0100
0000
0010
1000
,
0100
0010
0100
1000
0001
0000
0100
0010
0100
0001
0010
0100
1000
0000
0001
0100
,
0010
0100
0001
1000
0010
0000
0100
0001
0100
0010
1000
0100
0010
0100
1000
0001
,
0010
0100
1000
0001
0100
0010
1000
0000
1001
0000
0010
0000
2002
3003
1000
0100
,
0000
0010
0001
0010
0002
0000
1003
0100
0010
0100
1000
0001
0200
0000
0310
1000
,
0100
1000
0001
0100
0020
0000
1030
0100
1000
0001
0010
0100
2000
0000
3001
0100
,
0000
0100
0010
1000
0002
0000
1003
0100
0000
0010
0100
1000
0002
0000
1003
0100
,
0000
0010
0100
1000
0002
0000
0103
0010
0100
0001
1000
0100
0020
0000
0031
0100
,
0010
1000
0001
0010
0200
0000
1300
0001
0010
0001
1000
0010
0200
0000
0310
1000
,
0100
1000
0001
0010
0200
0000
0310
0001
0100
0001
1000
0010
0200
0000
0310
1000
,
0000
0010
0100
0001
0200
0000
0310
1000
0000
0100
0010
0100
2000
0000
3001
0100
,
0000
0100
0010
1000
0010
0000
1000
0001
1001
0000
1000
0100
0010
0100
1000
0001
,
0100
0010
0100
0001
0010
0001
1000
0100
0010
0100
1000
0001
0010
0100
1000
0001
,
0100
0010
0100
0001
0010
0001
1000
0100
0010
0100
1000
0001
0100
0010
0100
0001
,
0010
0001
1000
0010
0100
0001
0010
0001
1000
0100
0010
0100
1000
0001
0010
0100
,
1000
0001
0100
0010
0100
0001
0010
0001
1000
0100
0010
0100
1000
0001
0010
0001
,
0100
0010
0100
0001
0010
0001
1000
0010
0100
0001
0010
0001
0100
0010
0100
0001
,
0010
0001
0100
0010
0100
0001
0010
0100
1000
0001
0100
0010
0100
0001
1000
0100
,
0010
0000
0000
0100
0000
0000
1000
0000
0000
0001
0000
0000
0100
0000
0000
0010
0000
0000
1000
0000
0000
0001
0000
0000
0100
0000
0010
0000
1000
0000
0001
0000
1000
0000
0100
0000
0010
0000
0100
0000
1000
0000
0001
0000
0100
0000
0010
0000
,
1000
0000
0010
0100
0010
0000
1000
0001
1001
0000
1000
0100
0010
0001
0010
0100
,
1000
0000
0001
0100
0010
0100
0001
0010
0100
0000
1000
0001
0100
0010
0100
0001
,
0100
0010
0000
0010
1000
0000
0100
0010
0100
1000
0000
0001
0100
0000
0010
1000
,
0100
0010
0000
0001
0100
0000
0010
1000
0001
0100
0000
0010
1000
0000
0001
0010
,
0100
1000
0000
0001
0100
0000
0010
1000
0100
1000
0001
1000
0010
0000
0100
0001
,
0010
0001
0100
0010
1000
0000
0001
0010
0001
0100
0010
0100
0001
0000
1000
0100
,
0010
0100
1000
0001
0100
0000
0010
1000
0100
0010
0100
1000
0001
0000
0100
0010
,
0100
0001
0010
0100
1000
0000
0001
0100
0010
1000
0100
0010
0001
0100
0010
1000
,
0100
0010
0100
1000
0001
0100
0010
1000
0001
0100
0000
0010
0100
0000
0010
0000
,
1000
0000
0000
0100
0000
0000
0010
0000
0000
0001
0000
0000
0010
0000
0000
0100
0000
0000
1000
0000
0010
0000
0100
0000
0001
0000
0000
0100
0000
0000
0010
0000
0000
1000
0000
0000
0100
0000
0000
0010
0000
0000
0001
0000
1000
0000
0100
0000
,
0010
0000
0000
0001
0000
0000
0010
0000
0000
0100
0000
0000
1000
0000
0000
0001
0000
0000
0100
0000
0010
0000
1000
0000
0001
0000
0000
0100
0000
0000
0010
0000
0000
1000
0000
0000
0001
0000
0000
0010
0000
0000
0100
0000
1000
0000
0001
0000
,
0100
0000
0000
0010
0000
0000
1000
0000
0000
0100
0000
0000
0010
0000
0000
0100
0000
0000
1000
0000
0001
0000
0100
0000
0010
0000
0000
1000
0000
0000
0100
0000
0000
0010
0000
0000
0100
0000
0000
1000
0000
0000
0001
0000
0100
0000
0010
0000
,
1000
0000
0000
0000
0000
0000
0010
0000
0000
0100
0000
0000
0010
0000
0000
0000
0000
0000
1000
0000
0100
0000
0010
0000
0001
0000
0000
0000
0000
0000
0100
0000
0000
0010
0000
0000
0200
0000
0000
0000
0000
0000
0310
0000
1000
0000
0001
0000
,
0100
0000
0000
0000
0000
0000
0010
0000
0000
1000
0000
0000
0002
0000
0000
0000
0000
0000
0103
0000
0010
0000
1000
0000
0001
0000
0000
0000
0000
0000
0100
0000
0000
0010
0000
0000
2000
0000
0000
0000
0000
0000
3100
0000
0010
0000
0001
0000
,
1000
0000
0000
0000
0000
0000
0010
0000
0000
0100
0000
0000
0010
0000
0000
1000
0000
0000
0100
0000
0010
0000
0001
0000
0010
0000
0000
0100
0000
0000
1000
0000
0000
0001
0000
0000
0100
0000
0000
0010
0000
0000
1000
0000
0100
0000
0010
0000
,
0001
0000
0000
1000
0000
0000
0100
0000
0000
0010
0000
0000
0100
0000
0000
1000
0000
0000
0001
0000
0100
0000
0010
0000
1000
0000
0000
0001
0000
0000
0100
0000
0000
0010
0000
0000
1000
0000
0000
0000
0000
0000
0010
0000
0000
0100
0000
0000
,
0001
0100
0010
1000
0100
0000
0010
0001
0010
0100
1000
0001
0100
0010
1000
0100
,
0010
0001
0100
0010
1000
0100
0010
0100
1000
0001
0010
0100
1000
0001
0100
0010
,
0100
0001
0010
0001
1000
0100
0010
0001
0010
0100
1000
0001
0100
0010
0100
0001
,
1000
0100
0010
0100
1000
0001
0100
0010
0100
0001
1000
0001
0010
0100
1000
0001
,
0100
0010
0100
0001
1000
0100
0010
0001
1000
0100
0010
0100
1000
0001
0010
0100
,
1000
0010
0100
0001
0010
0001
1000
0010
0100
0001
1000
0100
0010
0100
1000
0001
,
0010
0100
1000
0001
0100
0010
0100
0001
0010
0001
0100
0010
1000
0100
0010
0100
,
1000
0000
0000
0001
0000
0000
1000
0000
0000
0100
0000
0000
0010
0000
0000
0100
0000
0000
1000
0000
0000
0001
0000
0000
0010
0000
0100
0000
1000
0000
0001
0000
0010
0000
0001
0000
1000
0000
0100
0000
0010
0000
0001
0000
1000
0000
0010
0000
,
0100
0001
0010
0001
1000
0001
1000
0010
1000
0001
0010
0001
1000
0000
0000
MM1M
0000
0000
0000
0000
0000
MM1M
0000
0000
,
0000
MM1M
0000
0010
0100
0010
0000
MM1M
,
0000
MM1M
0000
0010
0001
0010
0000
MM1M
,
0000
MM1M
0000
0010
0100
0010
0000
MM1M
,
0000
0000
0010
0000
0000
0000
1000
0000
0100
0000
0010
0000
0011
0000
0001
0100
,
0010
0100
0000
0000
0101
0000
0010
1000
0100
1000
0000
0000
1010
0000
0100
0001
,
0100
0010
0000
0000
0101
0000
0010
1000
0010
0100
0000
0000
0101
0000
0010
1000
,
0100
1000
0000
0000
1001
0000
0010
0000
0100
0000
0010
0000
1001
0000
0100
0000
,
0010
1000
0100
1000
0001
0000
0100
0000
1001
0000
1000
0001
1000
0000
0010
0100
,
0001
1000
0100
0010
0100
1000
0001
0100
0010
0100
0001
1000
0100
0000
0010
1000
,
0001
0100
0010
1000
0100
0010
0100
1000
0001
0010
0100
1000
0010
0000
0100
0001
,
0100
0010
1000
0100
0010
0100
1000
0001
0010
0100
1000
0001
0100
0000
0001
1000
,
0100
1000
0001
0010
0100
1000
0001
0100
0010
0100
0001
0010
0100
0000
1000
0001
,
0100
0010
0100
0001
0010
0001
1000
0100
0010
0100
1000
0001
0100
0000
0010
1000
,
0001
0000
0100
0010
0100
0001
1000
0100
0010
0100
1000
0001
0100
0000
0010
1000
,
0010
0000
0000
0000
1000
0010
1000
0010
1000
0000
0000
0000
0001
0000
0100
0000
0010
0000
0000
0000
1000
0000
0010
0000
0100
0000
0000
0000
0001
0000
0100
0000
,
0010
1000
0100
0010
0100
1000
0001
0100
0010
0000
1000
0100
0020
0000
0031
0100
,
0010
1000
0100
0010
0200
0000
1300
0001
0100
0010
1000
0001
0020
0000
0130
1000
,
0001
0100
0010
1000
0200
0000
0310
0001
0010
0001
0010
0100
2000
0000
3010
0100
,
0010
0100
0001
0010
0002
0000
1003
0100
1000
0001
0100
0010
0200
0000
0301
0100
,
0010
1000
0100
0010
0200
0000
0310
1000
0000
0100
0010
0001
2000
0000
3100
1000
,
0001
0100
0010
1000
0100
0000
0010
0001
0100
0010
1000
0001
0010
0000
0100
1000
,
0001
0100
0010
0100
0001
0000
1000
0100
0010
0100
1000
0001
0100
0010
1000
0001
,
0010
0001
1000
0100
0010
0100
1000
0001
0100
0010
0100
0001
0010
0000
0100
0010
,
1000
0100
0010
0100
1000
0001
0010
0100
1001
0000
0100
0000
1000
0000
0000
0000
,
0001
1000
0100
1000
0001
1000
0100
1000
0001
0100
0010
0100
0001
0100
0010
0100
,
0001
0010
0001
1000
0001
0010
0001
0100
0010
1000
0100
1000
0001
1000
0100
1000
,
0010
0100
0010
0100
0001
0100
0010
0100
0001
1000
0100
1000
0001
1000
0100
1000
,
0001
0010
0100
1000
0001
0010
0100
1000
0001
0100
0010
0100
0001
1000
0010
0100
,
0001
0100
0010
1000
0001
0010
0001
1000
0100
0010
0100
1000
0001
0010
0100
0010
,
0100
1000
0010
0100
0001
1000
0100
1000
0001
0010
0100
1000
0001
0100
0010
0100
,
0001
0000
0000
1000
0000
0000
0100
0000
0000
0010
0000
0000
0001
0000
0000
0010
0000
0000
0100
0000
0000
1000
0000
0000
0001
0000
0100
0000
0010
0000
1000
0000
0001
0000
0010
0000
0100
0000
1000
0000
0001
0000
0100
0000
0010
0000
1000
0000
,
0001
0010
0100
1000
0001
1000
0100
1000
0200
0000
0000
0000
0000
0000
0000
0000
,
0000
0300
0000
0000
;
