#TITLE:I Can Walk On Water, I Can Fly;
#SUBTITLE:;
#ARTIST:Basshunter;
#TITLETRANSLIT:;
#SUBTITLETRANSLIT:;
#ARTISTTRANSLIT:;
#CREDIT:;
#BANNER:;
#BACKGROUND:;
#LYRICSPATH:;
#CDTITLE:;
#MUSIC:05 I can walk on water, I can fly.ogg;
#OFFSET:0.050;
#SAMPLESTART:42.822;
#SAMPLELENGTH:12.000;
#SELECTABLE:YES;
#BPMS:0.000=140.000;
#STOPS:;
#BGCHANGES:;
// cache tags:
#FIRSTBEAT:3.000;
#LASTBEAT:512.000;
#SONGFILENAME:Songs/lvsb tourney pack/-Mootz- I Can Walk On Water, I Can Fly/05 I can walk on water, I can fly.sm;
#HASMUSIC:1;
#HASBANNER:0;
#MUSICLENGTH:105.000;
// end cache tags

//---------------dance-single - Mootz----------------
#NOTES:
     dance-single:
     Mootz:
     Challenge:
     11:
     1.000,1.000,0.267,0.657,1.000,1150.000,28.000,69.000,148.000,0.000:

0000
0000
0000
0000
0000
0000
0000
0000
0000
0000
0000
0000
MMMM
M00M
MMM0
M00M
,
MMMM
0000
0MM0
M00M
MMMM
M00M
M00M
0000
0MMM
M000
0MM0
000M
MMM0
0000
0MMM
M000
,
0MM0
000M
MMM0
0000
M00M
M00M
MMMM
M00M
M00M
0000
M00M
M00M
M00M
M00M
MMMM
0000
,
M00M
MM0M
M0MM
M00M
0000
MMMM
00M0
00M0
00M0
00M0
0000
MMMM
M000
MMM0
M000
MMMM
,
0000
MMMM
M00M
MMM0
M00M
M00M
0000
0000
MMMM
00M0
00M0
00M0
MMMM
0000
MMMM
00M0
,
00M0
00M0
00M0
0000
MMMM
M000
M0MM
M00M
MMMM
0000
0000
0000
0000
0000
0000
0000
,
0000
0000
0000
0000
,
0000
0000
0000
0000
,
0000
0000
0000
2000
,
0000
3010
0200
0000
0000
0310
2000
0000
,
0000
3001
0200
0000
0000
0300
0002
0000
,
0000
1003
0020
0000
0000
0130
0020
0000
,
0000
1030
0002
0000
0000
0003
2000
0000
,
0000
3001
0020
0000
0000
0130
2000
0000
,
0000
3010
0200
0000
0000
0300
0020
0000
,
0000
0130
0020
0000
0000
0130
0002
0000
,
0000
1003
0020
0000
0000
0030
1000
0100
,
1000
0000
0010
0100
0010
0000
0100
0000
1001
0000
1010
0000
0010
0000
0100
0000
,
0001
0000
1000
0000
0010
0000
0100
0000
0010
0000
1000
0000
0010
0000
1000
0001
,
1000
0000
0001
0100
0010
0000
0200
0000
0040
0000
0300
0000
1030
0000
0100
0000
,
1000
0000
0001
0000
0100
0000
0001
0000
1000
0000
0100
0000
1000
0000
0010
1000
,
0010
0000
0100
0010
0100
0000
0002
0000
4000
0000
0003
0000
3001
0000
0010
0000
,
0100
1000
1000
0100
0010
0001
0001
0010
,
0100
0000
1000
0000
0010
0000
1000
0001
0100
0001
0100
0000
0010
0000
0100
0000
,
0010
0000
1000
0000
0100
0000
1000
0000
0100
0000
0010
0000
0001
0000
0010
0001
,
0010
0000
0001
0100
0001
0000
1000
0000
1010
0000
0110
0000
0100
0010
0100
0010
,
1000
0000
0001
0000
0010
0000
0100
0000
1000
0000
0001
0000
0100
0000
0001
1000
,
0001
0000
0010
0001
0010
0000
0002
0000
0400
0000
0003
0000
0301
1000
0010
1000
,
0010
0000
1000
0000
0001
0000
0100
0000
0010
0000
0100
0000
0010
0000
0100
0010
,
0100
0000
0010
1000
0010
0000
2000
0000
0040
0000
3000
0000
1030
0010
0100
0010
,
0100
0001
1000
0010
0100
0001
1000
0010
,
1000
0000
0010
1000
0100
0000
1000
0000
0010
0000
1000
0000
0010
0100
0001
0100
,
0001
0000
0100
0000
0010
0000
1000
0000
0001
0000
1000
0000
0110
0000
0100
0010
,
1000
0000
0001
0000
0101
0000
0100
0010
1000
0000
1010
0000
1002
0000
0000
0000
,
0000
0103
0020
0000
0000
1030
0200
0000
,
0000
1300
0002
0000
0000
0003
2000
0000
,
0000
3010
0200
0000
0000
0310
2000
0000
,
0000
3100
0020
0000
0000
0030
0002
0000
,
0000
0103
0020
0000
0000
1030
0200
0000
,
0000
1300
0002
0000
0000
0003
2000
0000
,
0000
3010
0200
0000
0000
0310
0200
0000
,
0000
0301
2000
0000
0000
3000
0002
0000
,
0203
2300
3020
0032
,
0203
2300
3020
0032
,
2003
3020
0230
0302
,
2003
3200
0320
0031
,
0001
0100
0001
1000
0001
0010
0100
0000
,
0100
0000
0000
1000
0000
0000
0010
0000
0000
0000
0000
0000
0100
0000
0000
0010
1000
0010
1000
0000
0000
0010
0000
0000
,
0100
0000
0000
0000
0000
0000
0001
0000
0100
0000
0001
0000
0100
0000
0000
0000
0000
0000
0001
0000
0000
0000
0000
0000
1000
0000
0000
0000
0000
0000
0010
0000
0000
1000
0000
0000
0010
0000
0000
1000
0000
0000
0001
0000
0000
0100
0000
0000
,
0010
1000
0001
0100
0010
1000
0010
1000
0001
0010
0100
1000
0010
0000
0000
0000
,
0000
0000
0100
0010
1000
0000
1100
0000
1001
0000
0101
0000
0010
0000
1000
0001
,
1000
0010
1000
0001
0100
0010
0100
0010
1000
0010
0100
0010
1000
0000
0001
1000
,
0100
0010
0001
1000
0010
0000
0100
0000
0010
0000
1000
0000
0001
0000
1000
0100
,
0010
0001
0010
0100
1000
0000
0001
0000
0100
0000
0001
0000
1000
0000
0010
1000
,
0001
0100
0010
0100
0010
0000
0100
0010
1000
0000
0010
0000
0100
0000
0001
1000
,
0010
1000
0001
0100
0001
0100
0001
0010
0100
1000
0010
0100
0010
0000
1000
0001
,
0100
0001
1000
0010
1000
0000
0010
0000
1000
0000
0100
0000
1000
0000
0010
1000
,
0001
1000
0010
0100
0010
1000
0001
1000
0001
0010
0100
1000
0010
0000
0100
0010
,
1000
0001
0100
0010
0100
0000
0100
0000
0001
0000
0001
0000
1000
0000
0001
0100
,
0001
1000
0001
1000
0001
0100
0001
0100
0010
1000
0010
1000
0001
0010
0100
1000
,
0001
0010
0100
1000
0010
0100
0010
0100
0010
1000
0010
1000
0001
1000
0001
1000
,
0001
0010
0100
1000
0001
0010
0100
1000
0001
0100
0001
1000
0010
0100
0010
0100
,
0001
1000
0001
1000
0001
0010
0100
1000
0100
0010
0100
1000
0010
0100
0010
0100
,
0001
0100
0001
0100
0010
1000
0010
1000
0001
0100
0001
0010
0001
0100
0001
0010
,
0001
1000
0100
1000
0010
1000
0100
1000
0010
0100
0010
0100
0001
1000
0001
0100
,
0010
1000
0001
1000
0010
1000
0010
1000
0001
1000
0001
1000
0001
0010
0100
1000
,
0100
0010
0001
0100
0010
0000
0010
0000
1000
0000
1000
0000
0010
0000
0100
0010
,
1000
0010
0100
0010
1000
0100
0010
0001
1000
0010
0100
0001
1000
0000
0010
1000
,
0100
1000
0010
1000
0010
0000
0100
0000
0010
0000
1000
0000
0001
0000
1000
0100
,
0010
0001
0010
0100
1000
0000
0001
0000
1000
0000
0100
0000
0010
0000
0001
0010
,
0001
0010
0100
1000
0100
0000
1000
0010
1000
0000
1000
0000
0010
0000
1000
0001
,
1000
0001
0100
0010
0100
0001
0100
0001
1000
0010
1000
0010
1000
0000
0010
0100
,
0010
1000
0010
0100
0010
0000
1000
0000
0100
0000
0010
0000
0100
0000
1000
0010
,
1000
0001
1000
0100
1000
0000
0010
0000
0100
0000
0001
0000
0100
0000
0010
0100
,
0010
1000
0010
0100
0001
0000
0100
0010
0100
0000
0010
0000
2000
0000
0000
0000
,
3000
0000
0001
1000
0001
0000
1000
0000
0011
0000
0101
0000
0010
0000
1000
0000
,
0001
0000
1000
0000
0010
0000
0100
0000
0010
0000
1000
0000
0001
0000
0010
0001
,
0010
0000
0001
0100
0001
0000
0200
0000
0040
0000
0300
0000
0130
0000
0010
0000
,
1000
0000
0010
0000
0100
0000
0001
0000
1000
0000
0010
0000
1000
0000
0100
1000
,
0100
0000
1000
0010
1000
0000
0020
0000
0400
0000
0030
0000
0301
0000
0010
0000
,
0100
1000
0100
0010
0001
1000
0010
0100
,
0010
0000
1000
0000
0010
0000
0100
0010
1000
0010
1000
0000
0010
0000
0010
0000
,
1000
0000
0100
0000
0010
0000
0010
0000
0100
0000
1000
0000
0001
0000
0100
0001
,
0100
0000
0001
1000
0001
0000
0100
0000
0010
1000
0100
0000
1000
0010
0100
0010
,
1000
0000
0010
0000
0100
0000
0010
0000
1000
0000
0001
0000
1000
0000
0100
0010
,
0100
0000
0010
0100
1000
0000
0100
0000
0010
0000
0001
0000
0100
0001
0100
0001
,
0100
0000
0010
0000
1000
0000
0010
0000
1000
0000
0001
0000
0100
0000
0010
0100
,
0010
0000
0100
0010
1000
0000
0100
0000
0010
0000
0010
0000
0001
0100
0001
1000
,
0001
0100
0010
1000
0001
1000
0010
0100
,
0010
0000
0100
0001
1000
0000
0010
0000
0010
0000
1000
0000
0010
0100
0010
1000
,
0010
0000
1000
0000
0100
0000
0010
0000
0001
0000
0100
0000
0110
0000
0100
0010
,
1000
0000
0001
0000
0011
0000
0010
0001
0100
0000
0110
0000
2020
0000
0000
0000
,
0000
3030
0000
0200
,
0000
0310
0100
0010
1000
0010
2000
0000
,
0000
3100
0020
0000
0000
0030
0002
0000
,
0000
0103
0001
1000
0100
0010
0002
0000
,
0000
0103
0020
0000
0000
0030
0200
0000
,
0000
0301
1000
0010
1000
0001
2000
0000
,
0000
3010
0200
0000
0000
0300
0020
0000
,
0000
0000
0130
0000
0010
0000
1000
0000
0001
0000
1000
0000
0001
1000
0001
1000
,
0010
0000
0000
1000
0000
0000
0010
0000
0000
0100
0000
0000
0010
0000
0000
0000
0000
0000
0100
0000
0010
0000
0100
0000
0010
0000
0000
0000
0000
0000
0100
0000
0000
0000
0000
0000
0002
0000
0000
0000
0000
0000
0000
0000
0000
0000
0000
0000
,
0000
0000
0000
0000
0000
0003
0000
0000
0000
0000
0000
0000
0000
0000
0000
0000
0000
0000
0000
0000
0000
0000
0000
0000
,
0000
0000
0000
0000
0110
0000
1010
0000
1001
0000
0011
0000
0101
0000
0100
0010
,
1000
0010
0100
0010
1000
0100
0010
0001
1000
0001
0010
0100
1000
0000
0001
0010
,
0100
1000
0100
0010
0001
0000
0100
0000
0010
0000
0100
0000
0010
0000
1000
0001
,
0100
0001
1000
0010
1000
0000
0001
0000
1000
0000
0010
0000
0100
0000
0001
0010
,
0100
1000
0100
0010
0100
0000
0010
0001
0100
0000
0100
0000
0001
0000
1000
0010
,
0100
0010
1000
0010
0100
0010
1000
0001
0100
0001
0010
0100
1000
0000
0001
0010
,
0100
1000
0001
0100
0010
0000
0100
0000
0010
0000
1000
0000
0001
0000
1000
0010
,
0100
0001
1000
0001
0100
0010
0100
0010
0100
0001
0100
0001
1000
0000
0001
1000
,
0010
0100
0010
1000
0001
0000
0001
0000
1000
0000
1000
0000
0010
0000
1000
0001
,
1000
0100
0010
0001
1000
0100
0010
0001
0100
0001
0100
0010
1000
0010
1000
0001
,
0100
0010
0100
0010
1000
0100
1000
0010
1000
0100
1000
0010
0100
0001
0100
0010
,
0100
0001
1000
0001
0100
0010
0100
0010
1000
0100
0010
0001
1000
0100
0010
0100
,
1000
0100
0010
0001
0100
0001
0100
0001
1000
0010
0100
0001
0100
0010
1000
0001
,
0100
0010
1000
0001
1000
0010
1000
0001
1000
0010
1000
0100
1000
0010
0100
0001
,
0100
0010
0100
0001
1000
0100
0010
0001
1000
0100
0010
0001
0100
0010
1000
0001
,
0100
0010
1000
0010
1000
0100
1000
0010
0100
0001
0100
0010
0100
0000
0001
0100
,
0001
0000
0100
0010
1000
0000
1000
0000
0001
0000
0001
0000
0100
0010
1000
0001
,
0100
0010
1000
0001
1000
0001
0100
0001
1000
0001
1000
0100
1000
0010
1000
0010
,
0100
0001
0100
0001
0100
0010
1000
0010
1000
0001
0100
0001
0010
0100
1000
0100
,
0010
0001
1000
0010
1000
0001
0100
0010
1000
0001
0100
0001
1000
0010
1000
0010
,
0100
0010
0100
0001
0100
0010
0100
0010
0100
0001
0100
0001
1000
0010
1000
0010
,
1000
0100
0010
0001
1000
0001
0100
0010
0100
0001
1000
0010
0100
0010
0100
0010
,
1000
0010
1000
0010
0100
0001
0100
0001
1000
0001
0100
0001
1000
0100
0010
0001
,
1000
0100
0010
0001
1000
0010
1000
0001
0100
0010
0100
0001
1000
0100
1000
0001
,
1000
0100
1000
0010
0100
0000
0100
0000
0001
0000
0001
0000
0020
0000
0000
0000
,
0000
0000
0000
0000
,
0030
0000
0000
0000
;
