#TITLE:Our 16-bit War;
#SUBTITLE:;
#ARTIST:sasakure.UK;
#TITLETRANSLIT:;
#SUBTITLETRANSLIT:;
#ARTISTTRANSLIT:;
#CREDIT:M.L-INS;
#BANNER:../Tachyon DIVA.png;
#BACKGROUND:../Tachyon DIVA-bg.png;
#LYRICSPATH:;
#CDTITLE:;
#MUSIC:our 16-bit war.ogg;
#OFFSET:-0.300;
#SAMPLESTART:100.000;
#SAMPLELENGTH:12.000;
#SELECTABLE:YES;
#BPMS:0.000=243.999;
#STOPS:;
#BGCHANGES:;
// cache tags:
#FIRSTBEAT:36.000;
#LASTBEAT:571.500;
#SONGFILENAME:Songs/Tachyon DIVA/+16bit[M.L-INS]/our 16-bit war.sm;
#HASMUSIC:1;
#HASBANNER:1;
#MUSICLENGTH:140.736;
// end cache tags

//---------------dance-single - ----------------
#NOTES:
     dance-single:
     :
     Challenge:
     14:
     1.000,1.000,0.426,1.000,1.000,1101.000,60.000,249.000,22.000,3.000:
0000
0000
0000
0000
,
0000
0000
0000
0000
,
0000
0000
0000
0000
,
0000
0000
0000
0000
,
0000
0000
0000
0000
,
0000
0000
0000
0000
,
0000
0000
0000
0000
,
0000
0000
0000
0000
,
0000
0000
0000
0000
,
0012
0000
0010
0000
,
0013
0000
0201
0000
,
0001
0000
0301
0000
,
1200
0000
1000
0000
,
1000
0000
0000
0000
0300
0000
0000
0000
1000
0000
0100
0010
0001
0000
0100
0000
,
0010
1000
0001
0000
0100
0000
0010
0000
1000
0000
0001
0010
0100
0000
1000
0000
,
2001
0000
0010
0000
,
3001
0000
0120
0000
,
1000
0000
0130
0000
,
0201
0000
0010
0000
,
0301
0000
0120
0000
,
1000
0000
0130
0000
,
1002
0000
0100
0000
,
1103
0000
2100
0000
,
0010
0000
3110
0000
,
0002
0000
0010
0000
,
1013
0000
MMMM
0010
,
0010
0000
0000
MM00
0000
0000
00MM
0000
0000
1000
0001
0200
0000
0000
0000
0000
0000
0000
0300
0000
0000
M0MM
0000
0001
,
1000
0020
0000
0000
0000
0000
0000
0000
0000
1030
0000
0000
1M0M
0000
0000
0100
0000
0000
0010
0000
0000
0001
0000
0000
,
0100
0010
1000
0001
0010
0110
0000
1100
,
0000
0110
0000
0011
0001
0100
00M0
0010
,
0100
1000
0001
0010
0100
4000
3000
0011
,
0000
0110
0000
1010
0010
0100
0001
0010
,
0100
1100
0000
1100
0100
0010
0001
1000
,
0100
0000
0110
0000
0000
0000
0110
0000
0010
0000
1000
0100
1000
0000
0001
0000
,
0100
0010
0100
0010
0100
0000
0001
0000
0100
0001
1000
0001
0100
0000
0001
0000
,
0010
0100
1000
0001
1000
0010
0100
0001
,
0010
0001
1000
0010
1000
0001
1000
0001
,
0100
0010
1000
0010
1000
0100
0010
0001
,
0100
0001
0100
0001
0010
0100
1000
0001
,
0100
0001
0010
0001
1000
0100
0010
0001
,
0100
0010
1000
0001
0100
0010
0100
0001
,
0100
0000
0101
0001
1000
1100
0000
1100
,
1000
0010
0100
0001
0100
0101
0000
0011
,
0000
4100
3000
0001
0001
0100
0010
1000
,
0100
0010
0001
0100
0110
0000
1010
1000
,
0010
1010
0000
0101
0001
1000
0010
0100
,
0101
0001
000M
0001
1001
1000
0100
0010
,
0110
0000
0100
0000
0M00
0000
0100
0000
1000
0001
1000
0000
0100
0000
0010
0000
,
0001
0100
0001
0000
0010
0000
0100
0000
1000
0000
0001
0010
0100
1000
0001
0000
,
0200
0320
2030
3002
0023
0230
0320
0032
,
2003
3200
2300
3002
0203
0302
2003
3200
,
2300
3002
0203
0302
0023
0230
0320
0032
,
2003
3200
2300
3002
0203
0302
0023
0230
,
0320
0032
2003
3200
2300
3002
2003
3020
,
2030
3200
0300
0044
0033
4400
3300
0404
,
0303
0044
0033
4040
3030
0440
0330
0M01
,
2000
0000
0000
3001
0010
0100
1000
0010
,
0200
0000
0000
0302
0000
0000
1003
0100
0010
0200
0000
0300
,
2000
3020
0230
0302
2003
3200
0320
0000
,
0031
0100
0010
1000
0001
1000
0020
0100
,
0230
0000
0301
0010
0100
1000
0100
0010
,
0001
1000
0200
0010
0320
0000
0031
1000
,
0100
0010
0001
2000
0010
3010
0200
0000
,
0301
0010
0100
1000
0002
0400
0003
0300
,
0010
0000
0000
1000
0000
0000
0010
0000
0000
0100
0000
0000
0001
0000
0100
0000
0010
0000
1000
0000
0000
0001
0000
0000
,
0010
0100
1000
0001
1000
0100
0010
0001
,
0100
0000
0001
0000
0010
0000
0100
0000
0000
1000
0000
0000
0010
0000
0000
0100
0000
0000
0001
0000
0000
1000
0000
0000
,
0020
0000
2030
0000
3002
0000
0203
0000
0301
0010
0001
0010
0200
0000
0320
0000
,
0032
2003
3200
2300
3002
0023
0032
2003
,
3040
0030
4000
3000
0400
0300
0040
0030
0004
0003
0400
0300
0020
0000
2030
0000
,
3002
0000
0203
0000
0320
0000
2030
0000
3001
0100
0001
0100
0020
0000
2030
0000
,
3002
0203
0302
2003
3200
0320
0230
2300
,
3004
0003
0400
0300
0040
0030
4000
3000
0400
0300
0040
0030
0004
0003
0400
0300
,
0040
0030
0400
0300
0002
0000
0203
0000
0320
0000
2030
0000
3002
0000
0203
0000
,
0301
0010
0001
0010
0200
0000
0320
0000
0032
0000
2003
0000
3200
0000
2300
0000
,
3002
0000
0023
0000
0032
0000
2003
0000
3040
0030
4000
3000
0400
0300
0040
0030
,
0004
0003
0400
0300
0020
0000
2030
0000
3002
0000
0203
0000
03M2
0000
0023
0000
,
M030
0000
020M
2300
3002
0203
0300
00M0
,
0002
2003
3200
0320
M030
0101
0000
1010
,
0000
0110
0000
0011
0000
1010
0000
0101
,
0000
0000
0022
0033
0000
2200
3300
0000
0000
0000
0201
0000
0000
0000
0300
0000
,
0001
0010
0100
0010
0001
1000
0100
1000
0002
0000
2003
0000
3200
0000
0320
0000
,
0230
2300
3002
0203
0302
2003
3200
2300
,
3002
0203
0302
2003
3020
0230
0302
0203
,
0320
2030
3020
2030
3200
2300
3002
0203
,
0320
2030
3200
0320
0032
2003
3002
0203
,
0320
2030
3200
0320
0032
0203
0320
0230
,
0302
0023
0230
0320
0032
2003
3200
2300
,
3002
0203
0302
2003
3020
2030
3200
0320
,
0032
2003
3020
0230
0302
0023
0230
0320
,
0031
1000
0100
1000
0100
0000
0020
0000
0032
0000
0203
0000
0320
0000
2030
0000
,
3200
0000
2300
0000
3002
0000
0203
0000
0302
0000
0023
0000
0230
0000
1300
0001
,
1000
0001
0200
0000
0320
0000
2030
0000
3002
0000
2003
0000
3020
0000
2030
0000
,
3100
0010
0100
0010
0001
0000
2000
0000
3200
0000
0320
0000
0230
0000
2300
0000
,
3002
0000
0203
0000
0320
0000
0230
0000
0301
0100
0001
0100
0020
0000
2030
0000
,
3200
0320
0032
0203
0320
2030
3002
0103
,
0101
0101
0000
0000
0002
1003
1001
0110
,
0000
0000
0000
0000
0000
0000
0000
0000
0000
0000
0000
0000
1000
0000
0000
0010
0000
0000
0100
0000
0000
0001
0000
0000
1000
0000
0000
0100
0000
0000
0010
0000
0000
0001
0000
0000
1000
0000
0000
0000
0001
0000
0000
0000
1000
0000
0000
0000
,
0001
0100
0001
1000
0100
0010
0001
0100
0010
1000
0001
0100
,
0001
1000
0010
0100
0001
0010
0100
1000
0001
0100
0010
1000
,
0010
0100
0001
1000
0001
0010
0100
0010
0001
0100
0001
1000
,
0010
1000
0100
0010
0100
1000
0001
0100
0010
1000
0001
0100
,
0010
1000
0010
0100
0001
0010
0100
0010
0001
1000
0010
1000
,
0100
0010
0001
0100
0010
1000
0001
0100
0010
1000
0100
1000
,
0001
0100
0001
1000
0010
1000
0100
0010
0001
0100
0001
0010
,
0001
1000
0010
1000
0100
1000
0001
0100
0001
0010
0100
1000
,
0010
1000
0100
1000
0001
0010
0001
0100
0001
0010
0100
1000
,
0010
0100
0001
1000
0010
1000
0100
0010
0100
1000
0001
0100
,
0001
1000
0010
1000
0100
0010
0001
0100
0010
1000
0001
0100
,
0001
0010
0001
1000
0010
1000
0100
1000
0001
0100
0001
1000
,
0010
0100
0001
1000
0100
0010
0001
0100
0010
1000
0001
0010
,
0100
1000
0001
0100
0010
1000
0100
0010
0001
1000
0010
0100
,
0001
0010
0001
1000
0100
1000
0001
0100
0001
0010
0100
0010
,
0001
1000
0010
1000
0100
0010
0001
0100
0010
1000
0010
0100
,
0001
1000
0010
1000
0100
0010
0001
0100
0010
1000
0001
0100
,
0001
0010
0001
1000
0010
1000
0100
1000
0001
0100
0001
1000
,
0010
0100
0001
1000
0100
0010
0001
0100
0010
1000
0001
0010
,
0100
1000
0001
0100
0010
1000
0100
0010
0001
1000
0010
0100
,
0001
0010
0001
1000
0100
1000
0001
0100
0001
0010
0100
0010
,
0001
1000
0010
1000
0100
0010
0001
0100
0010
1000
0001
0100
,
0001
0010
0100
1000
0010
0100
0001
1000
0010
1000
0100
1000
,
0001
0100
0001
0010
0001
1000
0010
1000
0001
0100
0010
1000
,
0001
0010
0100
1000
0010
0100
0001
1000
0100
0010
0001
1000
,
0010
0100
0001
0010
0100
1000
0001
0100
0010
1000
0100
1000
,
0001
0010
0001
1000
0010
1000
0100
0010
0100
1000
0001
0100
,
0001
0010
0100
1000
0010
0100
0001
0100
0010
1000
0010
0100
,
0001
0010
0001
1000
0100
1000
0010
0100
0010
1000
0010
0100
,
0001
0100
0010
0100
0001
0010
0100
1000
0100
0010
0001
1000
,
0100
0010
0100
1000
0001
0100
0001
1000
0100
1000
0001
0100
,
0010
1000
0100
1000
0100
0010
0001
0100
0010
1000
0010
0100
,
0001
1000
0100
0010
0100
1000
0001
0100
0001
0100
0010
1000
,
0100
1000
0100
0010
0001
0100
0010
1000
0100
1000
0001
0100
,
0001
1000
0100
1000
0001
0100
0001
1000
0100
1000
0010
0100
,
0001
1000
0010
0100
0001
0100
0010
1000
0100
0010
0001
0100
,
0010
0000
0000
0000
1000
0000
0000
0000
0100
0000
0000
0000
1000
0000
0000
0000
0001
0000
0000
0000
0100
0000
0000
0000
0001
0000
0000
0000
1000
0000
0000
0000
0100
0000
0000
0000
0010
0000
0000
0001
0000
0000
1000
0000
0000
0001
0000
0000
,
1000
0000
0000
0010
0000
0000
0100
0000
0000
0001
0000
0000
1000
0000
0000
0010
0000
0000
0100
0000
0000
0001
0000
0000
0010
0000
0000
0100
0000
0000
1000
0000
0000
0100
0000
0000
0010
0000
0000
0000
0001
0000
0000
0000
1000
0000
0000
0000
,
0100
1000
0001
0100
0010
1000
0100
0010
0100
1000
0001
0100
,
0001
0100
0010
1000
0100
1000
0001
0100
0001
0100
0010
1000
,
0100
0010
0001
0100
0010
0100
0001
0010
0100
1000
0001
0100
,
0001
0000
0000
0000
1000
0000
0000
0000
0010
0000
0000
0000
1000
0000
0000
0000
0100
0000
0000
0000
0010
0000
0000
0000
0001
0000
0000
1000
0000
0000
0100
0000
0000
1000
0000
0000
0001
0000
0000
0100
0000
0000
0001
0000
0000
0010
0000
0000
,
0100
0010
0001
1000
0100
1000
0001
0010
0100
1000
0010
0000
0100
0000
0100
0000
,
0110
0220
0000
0330
0001
0001
0101
0202
,
0000
0303
1000
1000
1100
2200
0000
3300
;
