#TITLE:Burning Blade;
#SUBTITLE:;
#ARTIST:Nintendude;
#TITLETRANSLIT:;
#SUBTITLETRANSLIT:;
#ARTISTTRANSLIT:;
#CREDIT:;
#BANNER:burningbladebanner.jpg;
#BACKGROUND:burningblade.jpg;
#LYRICSPATH:;
#CDTITLE:NiGHTSchao.png;
#MUSIC:Nintendude-burning_blade.mp3;
#OFFSET:-0.272;
#SAMPLESTART:33.490;
#SAMPLELENGTH:11.980;
#SELECTABLE:YES;
#BPMS:0.000=189.000;
#STOPS:;
#BGCHANGES:;
// cache tags:
#FIRSTBEAT:0.000;
#LASTBEAT:314.750;
#SONGFILENAME:Songs/toune 2/Burning Blade/burningblade.sm;
#HASMUSIC:1;
#HASBANNER:1;
#MUSICLENGTH:105.560;
// end cache tags

//---------------dance-single - Copied from----------------
#NOTES:
     dance-single:
     Copied from:
     Hard:
     10:
     0.794,0.745,0.445,0.076,1.000,532.000,47.000,8.000,0.000,0.000:
2000
0000
0000
0000
0000
0000
0000
0000
0000
3002
0000
0000
0000
0000
0000
0000
,
0000
2003
0000
0000
,
0000
3020
0000
0000
0000
0000
0000
0000
0000
0000
0000
0030
0000
0001
0000
0000
,
0000
0001
0000
0010
0000
0000
0000
0010
0000
1000
0000
0001
0000
1000
0000
0010
,
0000
1000
0000
0010
0000
1000
0000
0000
0000
0001
0000
0000
0000
0100
0000
0000
,
0000
1000
0000
0001
0000
0010
0000
1000
0000
0010
0000
1000
0000
0000
0000
0100
,
0000
1000
0000
0001
0000
1000
0000
1010
0000
0000
0000
0001
0000
0100
0000
1000
,
0000
0010
0000
1000
0000
0001
0000
1000
0000
0100
0000
0000
0000
1000
0000
0001
,
0000
0100
0000
0001
0000
1000
0100
1000
0000
0000
0000
0010
0000
1100
0000
0001
,
0000
1010
0000
0010
0000
1000
0000
0001
0000
0010
0000
1000
0001
0000
0001
1000
,
0000
0000
0000
1000
0010
0000
0000
1100
0000
0000
0000
0001
0000
0010
0000
0000
,
0000
1100
0000
0000
0000
0101
0000
0000
0000
0010
0000
1010
0000
0000
0000
0000
,
0000
0101
0000
0000
0000
0010
1000
0000
1000
0100
0000
0000
0000
0001
0000
0010
,
0000
0001
0000
0010
0000
1000
0000
0000
0010
1000
0000
0010
0000
1000
0000
0010
,
0000
0100
0000
1000
0000
0001
0000
0000
0000
0110
0000
1000
0000
1010
0000
0000
,
0000
0101
0000
0000
0000
1000
0000
0100
0000
1010
0000
0100
0000
0001
0000
0000
,
0000
1100
0000
0000
0000
0010
0000
1000
0000
0101
0000
0000
0000
0010
0000
0000
,
0000
1000
0000
0000
0000
0001
0000
0000
0000
0010
0000
0001
0000
0000
0000
0010
,
0000
0001
0000
1000
0000
1000
0010
1000
0000
0100
0000
1000
0000
0000
0000
0100
,
0000
0010
0001
0010
0000
0000
0000
0010
0000
0001
0000
0000
0000
0010
0000
0000
,
0000
0010
0000
0000
0000
1000
0000
0010
0000
1000
0000
0000
0000
0001
0000
0100
,
1000
0001
0000
0100
0000
1000
0001
0010
0000
1000
0000
0001
0000
0010
0000
0001
,
0000
0010
0000
0000
0000
1000
0010
1000
0000
1000
0010
0001
0000
0010
0000
0000
,
0000
0001
0000
0110
0000
1001
0000
0000
0000
0000
0000
1000
0000
0000
0000
0010
,
0000
1000
0000
0010
0000
1000
0000
0000
0000
0001
0000
0000
0000
0110
0000
0000
,
0000
0100
0000
1000
0000
0001
0000
0000
0000
0010
0000
0100
0000
0000
0000
1000
,
0000
0010
0000
0000
0000
1010
0000
0000
0000
0100
0001
1000
0000
0100
0000
0000
,
0000
1100
0000
0000
0000
0001
0000
0000
0000
0010
0000
0020
0000
1000
0000
0000
,
0000
1000
0000
0000
0000
1000
0000
0000
0000
1000
0030
0000
0000
1010
0000
0000
,
0000
0100
0000
1000
0000
0001
0000
0010
0000
1000
0000
0001
0000
0000
0000
0100
,
0000
1000
0000
0100
0000
0001
0000
0110
0000
0001
0000
0010
0000
0001
0000
0010
,
0000
1000
0000
0010
0000
1000
0000
0001
0000
0010
0000
1000
0010
0001
0000
1000
,
0000
0001
0000
0000
0000
0001
0010
1000
0000
0000
0000
0000
0000
0010
0000
0000
,
0000
0000
0000
0101
0000
0000
0000
0000
0000
0001
0000
0001
0100
0010
0000
0100
,
0000
0001
0000
0000
0000
0010
0000
0000
0000
1000
0001
1000
0000
0001
0000
0000
,
0000
0010
0000
0000
0000
0010
0000
1000
0000
0001
0000
0010
0000
0000
0000
1000
,
0000
0020
0000
0001
0000
0100
0000
0000
0000
1000
0000
0000
0000
0031
0000
0010
,
0000
0001
1000
0001
0000
0010
0000
0100
0000
0010
0000
1000
0000
0001
0000
0010
,
0001
0010
0000
0100
0000
0001
0000
0100
0000
1000
0000
0001
0000
0010
0000
0000
,
0000
0100
0000
1000
0000
0000
0000
0100
0000
1000
0000
0002
0000
0000
0000
0010
,
0000
0000
0000
1000
0000
0000
0000
0010
0000
0000
0000
0000
0000
0013
0000
1000
,
0000
0001
0000
0100
0010
0100
0000
1000
0000
0010
0000
1000
0000
0010
0000
0001
,
0000
0001
0000
0001
0000
0001
0000
0010
0000
1000
0000
0000
0000
0001
0000
0000
,
0000
0010
0000
1000
0000
0000
0000
0001
0000
0010
0000
1000
0000
0000
0000
0100
,
0000
1000
0000
0000
0000
1100
0000
0000
0000
0100
0001
1000
0000
0011
0000
0000
,
0000
1010
0000
0000
0000
0010
0100
0010
0000
1001
0000
0000
0000
0110
0000
0000
,
0000
1001
0000
0000
0000
0001
0000
0010
0000
1000
0000
0001
0000
1000
0001
1000
,
0000
0001
0000
0110
0000
1001
0000
0010
0000
1000
0000
0010
0000
1000
0000
0001
,
0100
1000
0000
0010
0000
1000
0001
0010
0100
0000
0000
0010
0001
1000
0000
0010
,
0000
1000
0000
0010
0000
0001
0000
0100
1000
0001
0000
0000
0000
0001
0000
0001
,
0000
0010
0100
1000
0000
0010
0000
0100
0000
0010
0100
0001
0000
0100
0000
0010
,
0000
0000
0000
0000
0000
0010
0100
0010
0000
0000
0000
0100
0000
1000
0100
0001
,
0000
0010
0000
1000
0000
0010
0000
0010
0000
0000
0000
1000
0001
0010
1000
0100
,
0000
0001
0100
0001
0000
0100
0000
0000
0000
1100
0000
0001
0000
0000
0000
0010
,
0000
0001
0000
0000
0000
0010
0000
0000
0000
1010
0000
0000
0000
0001
0000
0000
,
0000
0101
0000
0000
0000
0010
0000
0000
0000
0001
0000
0011
0000
0000
0000
0100
,
0000
1100
0000
0000
0000
0010
0000
0000
0000
0010
0000
0000
0000
0100
0010
0001
,
0000
1000
0000
0000
0000
1010
0000
0000
0000
0001
0000
0100
0000
0000
0000
1000
,
0010
1000
0000
0001
0000
1010
0000
0100
0000
0010
0000
0010
0000
0010
0000
0000
,
0000
0010
0000
0000
0000
1000
0000
0000
0010
1000
0000
0010
0000
1000
0000
0010
,
1000
0010
0000
0000
0000
0001
0100
0000
0100
0001
0000
1000
0000
0100
0000
0000
,
0000
0001
0000
1000
0010
1000
0010
1000
0000
0001
0000
0100
0000
0001
0000
0100
,
0010
1000
0000
0001
0000
1000
0000
0010
0001
0010
0000
1000
0000
0010
0000
0000
,
0000
1000
0000
1000
0001
0000
0001
1000
0000
0001
0000
0010
0000
1000
0000
0010
,
0000
0100
0000
0001
0000
1000
0000
0010
0000
0010
0000
0010
0000
1000
0000
0001
,
0000
0010
0000
1000
0000
0001
0000
0100
1000
0001
0000
0010
0000
0101
0000
0010
,
0000
0001
0000
1000
0000
0000
0000
0110
0000
1000
0001
1000
0000
0110
0000
0000
,
0000
1010
0000
0000
0000
1000
0010
0000
0000
0001
0000
0101
0000
0000
0000
0010
,
0100
0010
0000
0000
0000
0001
0000
1000
0000
0000
0000
0101
0000
0010
0000
1000
,
0000
0001
0000
0010
0000
1000
0000
0010
1000
0100
0000
0000
0000
0100
0010
0001
,
0000
1001
0000
0001
0000
0100
0000
1000
0000
0001
0000
0010
0000
1010
0000
0000
,
0000
0100
0000
0000
0000
1000
0100
0010
0000
0010
0000
0100
0000
0001
0000
0010
,
0000
1000
0010
0001
0000
0001
0100
0001
0000
1000
0010
1000
0000
0010
0000
1000
,
0000
0001
0000
0010
0000
0100
0000
1000
0000
0010
0000
1000
0000
0010
1000
0100
,
0000
0001
0000
0100
0000
1000
0000
0010
0000
0100
0000
0000
0000
0010
0000
0110
,
0000
0000
0000
1000
0000
0000
0000
0100
1000
0001
0000
0010
0001
1000
0000
0000
,
0000
0002
0000
0000
0000
1000
0000
0000
0000
0100
0000
0000
0000
1000
0000
0000
,
0000
0010
0003
0000
0000
0001
0000
0000
0000
1000
0000
0001
0000
0000
0000
0010
,
0000
0100
0000
1000
0000
0001
0000
0010
0000
0100
0000
1001
0000
0000
0000
0000
;
