#TITLE:Mr12000 is a Lie;
#SUBTITLE:;
#ARTIST:Sandpaperdemon;
#TITLETRANSLIT:;
#SUBTITLETRANSLIT:;
#ARTISTTRANSLIT:;
#CREDIT:;
#BANNER:12klie.png;
#BACKGROUND:12kliebg.png;
#LYRICSPATH:;
#CDTITLE:!therairaicdtitle.png;
#MUSIC:Mr12000 is a Lie.mp3;
#OFFSET:-0.020;
#SAMPLESTART:45.180;
#SAMPLELENGTH:10.420;
#SELECTABLE:YES;
#BPMS:0.000=42.500,8.000=85.000,40.000=340.001,118.000=170.001,125.500=340.001,160.500=170.002;
#STOPS:;
#BGCHANGES:;
// cache tags:
#FIRSTBEAT:0.000;
#LASTBEAT:192.500;
#SONGFILENAME:Songs/Keys of Flames/Mr12000 is a Lie (The Rai Rai)/Mr12000 is a Lie.sm;
#HASMUSIC:1;
#HASBANNER:1;
#MUSICLENGTH:74.428;
// end cache tags

//---------------dance-single - ----------------
#NOTES:
     dance-single:
     :
     Hard:
     12:
     1.000,1.000,1.000,0.994,0.490,359.000,121.000,74.000,0.000,1.000:  // measure 1
0012
0000
0000
0000
0000
0000
0000
0000
0010
0000
0000
0000
0000
0000
0000
0000
0010
0000
0000
0000
0000
0000
0000
0000
0010
0000
0000
0000
0000
0000
0000
0000
0010
0000
0000
0000
0000
0000
0000
0000
0010
0000
0000
0000
0000
0000
0000
0000
1000
0000
0000
0000
0000
0000
0000
0000
1000
0000
0000
0000
0000
0000
0000
0000
1000
0000
0000
0000
0000
0000
0000
0000
1000
0000
0000
0000
0000
0000
0000
0000
1000
0000
0000
0000
0000
0000
0000
0000
1000
0000
0000
0000
0000
0000
0000
0000
0100
0000
0000
0000
0000
0000
0000
0000
0100
0000
0000
0000
0000
0000
0000
0000
0100
0000
0000
0000
0000
0000
0000
0000
0100
0000
0000
0000
0000
0000
0000
0000
0100
0000
0000
0000
0000
0000
0000
0000
0100
0000
0000
0000
0000
0000
0000
0000
0100
0000
0000
0000
0000
0000
0000
0000
0100
0000
0000
0000
0000
0000
0000
0000
0100
0000
0000
0000
0000
0000
0000
0000
0100
0000
0000
0000
0000
0000
0000
0000
0100
0000
0000
0000
0000
0000
0000
0000
0100
0000
0000
0000
0000
0003
0000
0000
,  // measure 2
2010
0000
0000
0000
0000
0000
0000
0000
0010
0000
0000
0000
0000
0000
0000
0000
0010
0000
0000
0000
0000
0000
0000
0000
0010
0000
0000
0000
0000
0000
0000
0000
0010
0000
0000
0000
0000
0000
0000
0000
0010
0000
0000
0000
0000
0000
0000
0000
0001
0000
0000
0000
0000
0000
0000
0000
0001
0000
0000
0000
0000
0000
0000
0000
0001
0000
0000
0000
0000
0000
0000
0000
0001
0000
0000
0000
0000
0000
0000
0000
0001
0000
0000
0000
0000
0000
0000
0000
0001
0000
0000
0000
0000
0000
0000
0000
0100
0000
0000
0000
0000
0000
0000
0000
0100
0000
0000
0000
0000
0000
0000
0000
0100
0000
0000
0000
0000
0000
0000
0000
0100
0000
0000
0000
0000
0000
0000
0000
0100
0000
0000
0000
0000
0000
0000
0000
0100
0000
0000
0000
0000
0000
0000
0000
0100
0000
0000
0000
0000
0000
0000
0000
0100
0000
0000
0000
0000
0000
0000
0000
0100
0000
0000
0000
0000
0000
0000
0000
0100
0000
0000
0000
0000
0000
0000
0000
0100
0000
0000
0000
0000
0000
0000
0000
0100
0000
0000
0000
0000
3000
0000
0000
,  // measure 3
0011
0000
1100
0000
1010
0000
0101
1000
,  // measure 4
0011
0000
0101
0000
1010
0000
0011
0100
,  // measure 5
1010
0000
0101
0000
0011
0000
1100
0001
,  // measure 6
1010
0000
1100
0000
0011
0000
1010
0100
,  // measure 7
0011
0001
0001
0001
1100
0100
0100
1000
1010
1000
1000
1000
1001
1000
1010
1000
,  // measure 8
0110
0010
0010
0010
0101
0001
0001
1000
1010
1000
1000
1000
1001
1000
1100
1000
,  // measure 9
1010
1000
1000
1000
0101
0100
0100
0001
0011
0001
0001
0001
1001
0001
0011
0001
,  // measure 10
0210
0000
0000
0310
0000
0000
0012
0000
0000
0013
0000
0000
1200
0000
0000
1300
0000
0000
1010
0000
0000
0001
0000
0000
2001
0000
3000
0001
2000
0000
3001
0000
2000
0001
3000
0000
2001
0000
3000
0001
2000
0000
3101
0000
2000
0001
3000
0000
,  // measure 11
2200
3300
0100
0000
1010
0000
1000
0001
,  // measure 12
0100
0000
0100
1000
0001
0100
1000
0010
,  // measure 13
0101
1000
0100
0010
0101
1000
0100
0010
,  // measure 14
0001
0100
2002
3003
2020
3030
0220
0330
,  // measure 15
0202
0303
1000
0000
1010
0000
0100
0001
,  // measure 16
1000
0010
0100
0001
0010
0100
1001
0100
,  // measure 17
1000
0010
0101
1000
0210
0301
1000
0100
,  // measure 18
0011
0000
1100
0000
0010
0000
0001
0010
,  // measure 19
2200
3300
0010
0000
2200
3300
0010
0000
,  // measure 20
2200
3300
0001
0000
0202
0303
1000
0000
,  // measure 21
0010
0100
0001
0010
1100
0001
0010
0001
,  // measure 22
0100
0010
1000
0100
0011
0000
2000
3100
,  // measure 23
0011
0000
0010
0000
0101
0000
0010
1000
,  // measure 24
0001
0000
2200
3300
0010
0101
2000
3001
,  // measure 25
1100
0010
0001
1100
0010
0001
1100
0010
,  // measure 26
0001
0000
0000
0000
1100
0000
0000
0000
0010
0000
0000
0000
0001
0000
0000
0000
1100
0000
0000
0000
0010
0000
0000
0000
0001
0000
0000
0000
2000
0000
0000
3000
,  // measure 27
0101
0000
0001
0000
1010
0000
1000
0010
,  // measure 28
0101
0000
2200
3300
2200
3300
2200
3300
,  // measure 29
0220
0000
0330
0000
0020
0030
0000
0000
1001
0000
0000
0000
0001
0000
0100
0000
,  // measure 30
1010
0000
0000
0000
0000
0000
0000
0000
0000
0000
0000
0000
0000
0000
0000
0000
0202
0000
0000
0000
0000
0000
0000
0000
0303
0000
0000
0000
0000
0000
0000
0000
1020
0030
0000
0000
0000
0000
0000
0000
1000
0000
0000
0000
0020
0030
0000
0000
0101
0000
0000
0000
0000
0000
0000
0000
0020
0030
0000
0000
0000
0000
0000
0000
,  // measure 31
0100
0000
0000
0000
0020
0030
0000
0000
1000
0000
0000
0000
0000
0000
0000
0000
0101
0000
0000
0000
0020
0030
0000
0000
1000
0000
0000
0000
0200
0000
0300
0000
0012
0003
0000
0000
0000
0000
0000
0000
0001
0000
0000
0000
0000
0000
0000
0000
1001
0000
0000
0000
0000
0000
0000
0000
0001
0000
0000
0000
0000
0000
0000
0000
,  // measure 32
0001
0000
0002
0013
2100
3000
0202
0000
0303
0000
0011
0000
0000
0000
2100
3000
,  // measure 33
0020
0030
0000
0000
0202
0000
0000
0000
0303
0000
0000
0000
1000
0000
0000
0000
0000
0000
0000
0000
0011
0000
0000
0000
0000
0000
0000
0000
0220
0000
0000
0000
,  // measure 34
0330
1001
0000
0011
0000
2200
3300
0001
,  // measure 35
0000
1010
0001
1000
0100
0011
0000
0010
,  // measure 36
0001
0000
0000
0000
1100
0000
0000
0000
0020
0030
0000
0000
0001
0000
0000
0000
1000
0000
0000
0000
0102
0000
0003
0000
0010
0000
0000
0000
1000
0000
0000
0000
,  // measure 37
0100
0011
0000
1000
0000
0101
0000
0001
,  // measure 38
0010
1100
0010
0001
0010
0100
1000
0001
,  // measure 39
1000
0202
0303
1000
0000
1010
0000
0001
,  // measure 40
0020
0000
0030
0000
1100
0000
0000
0000
0020
0000
0030
0000
0001
0000
0000
0000
0100
0000
0000
0000
2000
0000
3000
0000
0100
0000
0000
0000
0020
0030
0000
0000
,  // measure 41
0002
0003
0000
0000
1100
0000
0000
0000
0000
0000
0000
0000
0000
0000
0000
0000
0010
0000
0000
0000
0101
0000
0000
0000
0000
0000
0000
0000
0000
0000
0000
0000
,  // measure 42
1000
0110
0000
0000
0100
0011
0000
0000
,  // measure 43
0010
0101
0000
0000
1000
0110
0000
0000
,  // measure 44
0001
1100
0000
0000
1000
0110
0000
0000
,  // measure 45
0010
1100
0000
0000
0010
0101
0000
0000
,  // measure 46
0010
1100
0000
0000
0100
0011
0000
0000
,  // measure 47
1000
0101
0000
0000
0010
1100
0000
0000
,  // measure 48
0010
0101
0000
0000
1000
0110
0000
0000
,  // measure 49
0001
1100
0000
0000
0000
0000
0000
0000
;
