#TITLE:I Love It;
#SUBTITLE:Sexuality Violation;
#ARTIST:Icona Pop (feat. Charli XCX);
#TITLETRANSLIT:;
#SUBTITLETRANSLIT:;
#ARTISTTRANSLIT:;
#CREDIT:;
#BANNER:i love it bn.png;
#BACKGROUND:i love it bg.png;
#LYRICSPATH:;
#CDTITLE:;
#MUSIC:i love it.ogg;
#OFFSET:-0.261;
#SAMPLESTART:23.821;
#SAMPLELENGTH:12.000;
#SELECTABLE:YES;
#DISPLAYBPM:252.000;
#BPMS:0.000=252.000;
#STOPS:;
#BGCHANGES:;
// cache tags:
#FIRSTBEAT:32.000;
#LASTBEAT:640.000;
#SONGFILENAME:Songs/Sexuality Violation 2/I Love It - [Tyler]/i love it.sm;
#HASMUSIC:1;
#HASBANNER:1;
#MUSICLENGTH:153.521;
// end cache tags

//---------------dance-single - T. Moore----------------
#NOTES:
     dance-single:
     T. Moore:
     Challenge:
     22:
     1.000,1.000,0.026,0.000,1.000,1816.000,4.000,0.000,0.000,4.000:
0000
0000
0000
0000
,
0000
0000
0000
0000
,
0000
0000
0000
0000
,
0000
0000
0000
0000
,
0000
0000
0000
0000
,
0000
0000
0000
0000
,
0000
0000
0000
0000
,
0000
0000
0000
0000
,
1000
0010
0100
0010
,
1000
0001
0100
0001
,
1000
0010
0000
0100
0000
0000
0010
0000
,
1000
0000
0001
0100
0000
0000
0010
0000
,
1000
0100
0010
0100
,
1000
0000
0100
0000
0010
0001
0000
1000
,
0000
0001
0010
0001
,
0100
0010
0000
0010
0000
0000
1000
0000
,
0001
0010
0100
1000
,
0001
0000
1000
0000
0100
0010
0000
0001
,
0000
1000
0001
0010
,
0001
0000
1000
0100
0000
0000
0010
0000
,
0001
1000
0010
1000
,
0001
0000
0100
0000
0001
1000
0000
1000
,
0000
0000
0000
0000
,
1111
0000
1111
0000
,
0001
0100
0001
1000
0010
1000
0001
0100
0001
1000
0100
1000
0001
0010
0001
1000
,
0001
0100
0010
1000
0001
0010
0100
1000
0001
0010
0100
1000
0001
0100
0010
1000
,
0001
1000
0010
0100
0001
1000
0010
1000
0001
0010
0001
1000
0100
0010
0100
1000
,
0001
0010
0001
1000
0100
0010
0100
1000
0001
0100
0001
1000
0010
1000
0001
1000
,
0001
0010
0001
1000
0100
1000
0001
0010
0001
1000
0010
1000
0001
0100
0001
1000
,
0001
0100
0010
1000
0001
1000
0010
0100
0001
1000
0001
0010
0001
1000
0010
1000
,
0001
0100
0010
1000
0001
1000
0100
0010
0001
1000
0001
0010
0100
1000
0001
0010
,
0001
1000
0001
0100
0001
1000
0010
0100
0001
1000
0010
1000
0001
0010
0100
1000
,
0001
0010
0001
1000
0010
0100
0010
1000
0001
0100
0001
1000
0010
1000
0001
0100
,
0001
1000
0100
1000
0001
1000
0100
0010
0001
1000
0100
1000
0001
0010
0001
1000
,
0001
0100
0010
1000
0001
1000
0010
0100
0001
1000
0010
1000
0001
0100
0001
1000
,
0001
0010
0100
0010
0001
1000
0010
1000
0001
0100
0010
1000
0001
0100
0001
1000
,
0100
0010
0001
1000
0001
0100
0001
1000
0010
0100
0010
1000
0001
0100
0001
1000
,
0100
0010
0100
1000
0001
0010
0001
1000
0001
0100
0010
1000
0001
1000
0010
0100
,
0001
1000
0010
1000
0001
0010
0001
1000
0100
1000
0001
0010
0001
1000
0001
0100
,
0010
1000
0001
1000
0010
0100
0001
1000
0010
1000
0001
1000
0100
0010
0001
1000
,
0001
0010
0001
1000
0010
0100
0010
1000
0001
0100
0001
1000
0010
1000
0001
0100
,
0001
1000
0100
1000
0001
1000
0100
0010
0001
1000
0100
1000
0001
0010
0001
1000
,
0001
0100
0010
1000
0001
1000
0010
0100
0001
1000
0010
1000
0001
0100
0001
1000
,
0001
0010
0100
0010
0001
1000
0010
1000
0001
0100
0010
1000
0001
0100
0001
1000
,
0100
0010
0001
1000
0001
0100
0001
1000
0010
0100
0010
1000
0001
0100
0001
1000
,
0100
0010
0100
1000
0001
0010
0001
1000
0001
0100
0010
1000
0001
1000
0010
0100
,
0001
1000
0010
1000
0001
0010
0001
1000
0100
1000
0001
0010
0001
1000
0001
0100
,
0010
1000
0001
1000
0010
0100
0001
1000
0010
1000
0001
1000
0100
0010
0001
1000
,
0001
0100
0001
1000
0010
1000
0001
0100
0001
1000
0100
1000
0001
0010
0001
1000
,
0001
0100
0010
1000
0001
0010
0100
1000
0001
0010
0100
1000
0001
0100
0010
1000
,
0001
1000
0010
0100
0001
1000
0010
1000
0001
0010
0001
1000
0100
0010
0100
1000
,
0001
0010
0001
1000
0100
0010
0100
1000
0001
0100
0001
1000
0010
1000
0001
1000
,
0001
0010
0001
1000
0100
1000
0001
0010
0001
1000
0010
1000
0001
0100
0001
1000
,
0001
0100
0010
1000
0001
1000
0010
0100
0001
1000
0001
0010
0001
1000
0010
1000
,
0001
0100
0010
1000
0001
1000
0100
0010
0001
1000
0001
0010
0100
1000
0001
0010
,
0001
1000
0001
0100
0001
1000
0010
0100
0001
1000
0010
1000
0001
0010
0100
1000
,
0001
0000
0000
0100
0000
0000
0100
0000
,
0000
0010
0010
0010
,
1000
0000
0000
0100
0000
0000
0010
0000
,
0000
0001
0001
0001
,
0100
0000
0000
0010
0000
0000
1000
0000
,
0000
0001
0001
0001
,
0010
0000
0000
0100
0000
0000
0100
0000
,
0000
1000
1000
1000
,
0001
0000
0000
0100
0000
0000
0100
0000
,
0000
0010
0010
0010
,
1000
0000
0000
0100
0000
0000
0010
0000
,
0000
0001
0001
0001
,
0100
0000
0000
0010
0000
0000
1000
0000
,
0000
0001
0001
0001
,
0010
0000
0000
0100
0000
0000
0100
0000
,
0000
0000
0000
0000
,
1000
0010
1000
0001
0100
0001
1000
0010
1000
0001
0010
0001
1000
0100
1000
0001
,
1000
0010
0100
0001
1000
0100
0010
0001
1000
0100
0010
0001
1000
0010
0100
0001
,
1000
0001
0100
0010
1000
0001
0100
0001
1000
0100
1000
0001
0010
0100
0010
0001
,
1000
0100
1000
0001
0010
0100
0010
0001
1000
0010
1000
0001
0100
0001
1000
0001
,
1000
0100
1000
0001
0010
0001
1000
0100
1000
0001
0100
0001
1000
0010
1000
0001
,
1000
0010
0100
0001
1000
0001
0100
0010
1000
0001
1000
0100
1000
0001
0100
0001
,
1000
0010
0100
0001
1000
0001
0010
0100
1000
0001
1000
0100
0010
0001
1000
0100
,
1000
0001
1000
0010
1000
0001
0100
0010
1000
0001
0100
0001
1000
0100
0010
0001
,
1000
0100
1000
0001
0100
0001
1000
0010
1000
0001
0010
0001
1000
0100
1000
0001
,
1000
0010
0100
0001
1000
0100
0010
0001
1000
0100
0010
0001
1000
0010
0100
0001
,
1000
0001
0100
0010
1000
0001
0100
0001
1000
0100
1000
0001
0010
0100
0010
0001
,
1000
0100
1000
0001
0010
0100
0010
0001
1000
0010
1000
0001
0100
0001
1000
0001
,
1000
0100
1000
0001
0010
0001
1000
0100
1000
0001
0100
0001
1000
0010
1000
0001
,
1000
0010
0100
0001
1000
0001
0100
0010
1000
0001
1000
0100
1000
0001
0100
0001
,
1000
0010
0100
0001
1000
0001
0010
0100
1000
0001
1000
0100
0010
0001
1000
0100
,
1000
0001
1000
0010
1000
0001
0100
0010
1000
0001
0100
0001
1000
0100
0010
0001
,
1000
0100
1000
0001
0100
0010
0100
0001
1000
0010
1000
0001
0100
0001
1000
0010
,
1000
0001
0010
0001
1000
0001
0010
0100
1000
0001
0010
0001
1000
0100
1000
0001
,
1000
0010
0100
0001
1000
0001
0100
0010
1000
0001
0100
0001
1000
0010
1000
0001
,
1000
0100
0010
0100
1000
0001
0100
0001
1000
0010
0100
0001
1000
0010
1000
0001
,
0010
0100
1000
0001
1000
0010
1000
0001
0100
0010
0100
0001
1000
0010
1000
0001
,
0010
0100
0010
0001
1000
0100
1000
0001
1000
0010
0100
0001
1000
0001
0100
0010
,
1000
0001
0100
0001
1000
0100
1000
0001
0010
0001
1000
0100
1000
0001
1000
0010
,
0100
0001
1000
0001
0100
0010
1000
0001
0100
0001
1000
0001
0010
0100
1000
0001
,
1000
0100
1000
0001
0100
0010
0100
0001
1000
0010
1000
0001
0100
0001
1000
0010
,
1000
0001
0010
0001
1000
0001
0010
0100
1000
0001
0010
0001
1000
0100
1000
0001
,
1000
0010
0100
0001
1000
0001
0100
0010
1000
0001
0100
0001
1000
0010
1000
0001
,
1000
0100
0010
0100
1000
0001
0100
0001
1000
0010
0100
0001
1000
0010
1000
0001
,
0010
0100
1000
0001
1000
0010
1000
0001
0100
0010
0100
0001
1000
0010
1000
0001
,
0010
0100
0010
0001
1000
0100
1000
0001
1000
0010
0100
0001
1000
0001
0100
0010
,
1000
0001
0100
0001
1000
0100
1000
0001
0010
0001
1000
0100
1000
0001
1000
0010
,
0100
0001
1000
0001
0100
0010
1000
0001
0100
0001
1000
0001
0010
0100
1000
0001
,
1000
0010
1000
0001
0100
0001
1000
0010
1000
0001
0010
0001
1000
0100
1000
0001
,
1000
0010
0100
0001
1000
0100
0010
0001
1000
0100
0010
0001
1000
0010
0100
0001
,
1000
0001
0100
0010
1000
0001
0100
0001
1000
0100
1000
0001
0010
0100
0010
0001
,
1000
0100
1000
0001
0010
0100
0010
0001
1000
0010
1000
0001
0100
0001
1000
0001
,
1000
0100
1000
0001
0010
0001
1000
0100
1000
0001
0100
0001
1000
0010
1000
0001
,
1000
0010
0100
0001
1000
0001
0100
0010
1000
0001
1000
0100
1000
0001
0100
0001
,
1000
0010
0100
0001
1000
0001
0010
0100
1000
0001
1000
0100
0010
0001
1000
0100
,
1000
0001
1000
0010
1000
0001
0100
0010
1000
0001
0100
0001
1000
0100
0010
0001
,
1000
0010
1000
0001
0100
0001
1000
0010
1000
0001
0010
0001
1000
0100
1000
0001
,
1000
0010
0100
0001
1000
0100
0010
0001
1000
0100
0010
0001
1000
0010
0100
0001
,
1000
0001
0100
0010
1000
0001
0100
0001
1000
0100
1000
0001
0010
0100
0010
0001
,
1000
0100
1000
0001
0010
0100
0010
0001
1000
0010
1000
0001
0100
0001
1000
0001
,
1000
0100
1000
0001
0010
0001
1000
0100
1000
0001
0100
0001
1000
0010
1000
0001
,
1000
0010
0100
0001
1000
0001
0100
0010
1000
0001
1000
0100
1000
0001
0100
0001
,
1000
0010
0100
0001
1000
0001
0010
0100
1000
0001
1000
0100
0010
0001
1000
0100
,
1000
0001
1000
0010
1000
0001
0100
0010
1000
0001
0100
0001
1000
0100
0010
0001
,
1000
0000
0000
0100
0000
0000
0100
0000
,
0000
0010
0010
0010
,
0001
0000
0000
0100
0000
0000
0010
0000
,
0000
1000
1000
1000
,
0100
0000
0000
0010
0000
0000
0001
0000
,
0000
1000
1000
1000
,
0010
0000
0000
0100
0000
0000
0100
0000
,
0000
0001
0001
0001
,
1000
0000
0000
0100
0000
0000
0100
0000
,
0000
0010
0010
0010
,
0001
0000
0000
0010
0000
0000
0100
0000
,
0000
1000
1000
1000
,
0001
0000
0000
0100
0000
0000
0010
0000
,
0000
0010
0010
0010
,
1000
0000
0000
0001
0000
0000
0100
0000
,
1111
0000
1111
0000
,
0001
0100
0001
1000
0010
1000
0001
0100
0001
1000
0100
1000
0001
0010
0001
1000
,
0001
0100
0010
1000
0001
0010
0100
1000
0001
0010
0100
1000
0001
0100
0010
1000
,
0001
1000
0010
0100
0001
1000
0010
1000
0001
0010
0001
1000
0100
0010
0100
1000
,
0001
0010
0001
1000
0100
0010
0100
1000
0001
0100
0001
1000
0010
1000
0001
1000
,
0001
0010
0001
1000
0100
1000
0001
0010
0001
1000
0010
1000
0001
0100
0001
1000
,
0010
0100
0001
1000
0001
0010
0100
1000
0001
0010
0100
1000
0001
0100
0010
1000
,
0001
1000
0010
1000
0001
0010
0100
1000
0001
0010
0100
1000
0001
0100
0010
1000
,
0001
0100
0001
1000
0010
1000
0001
0010
0001
1000
0010
1000
0001
0010
0100
1000
,
0001
1000
0001
0100
0010
1000
0001
0100
0001
1000
0100
1000
0001
0010
0001
1000
,
0001
0100
0010
1000
0001
0010
0100
1000
0001
0010
0100
1000
0001
0100
0010
1000
,
0001
1000
0010
0100
0001
1000
0010
1000
0001
0010
0001
1000
0100
0010
0100
1000
,
0001
0010
0001
1000
0100
0010
0100
1000
0001
0100
0001
1000
0010
1000
0001
1000
,
0001
0010
0001
1000
0100
1000
0001
0010
0001
1000
0010
1000
0001
0100
0001
1000
,
0001
0100
0010
1000
0001
0010
0100
1000
0001
0010
0100
1000
0001
0100
0010
1000
,
0001
1000
0100
0010
0001
0010
0100
1000
0001
0010
0100
1000
0001
0100
0010
1000
,
0001
1000
0001
0100
0001
1000
0010
0100
0001
1000
0010
1000
0001
0010
0100
1000
,
0001
1000
0001
0100
0010
1000
0001
0100
0001
1000
0100
1000
0001
0010
0001
1000
,
0001
0100
0010
1000
0001
0010
0100
1000
0001
0010
0100
1000
0001
0100
0010
1000
,
0001
1000
0010
0100
0001
1000
0010
1000
0001
0010
0001
1000
0100
0010
0100
1000
,
0001
0010
0001
1000
0100
0010
0100
1000
0001
0100
0001
1000
0010
1000
0001
1000
,
0001
0010
0001
1000
0100
1000
0001
0010
0001
1000
0010
1000
0001
0100
0001
1000
,
0001
0100
0010
1000
0001
1000
0010
0100
0001
1000
0010
1000
0001
0010
0001
1000
,
0100
0010
0001
1000
0001
0010
0100
1000
0001
1000
0001
0100
0010
1000
0001
1000
,
0100
0010
0100
1000
0001
0010
0100
1000
0001
0010
0100
1000
0001
0100
0010
1000
,
0001
0000
0000
0000
;

//---------------dance-single - T. Moore----------------
#NOTES:
     dance-single:
     T. Moore:
     Hard:
     20:
     1.000,1.000,0.248,0.000,1.000,1542.000,38.000,0.000,0.000,8.000:
0000
0000
0000
0000
,
0000
0000
0000
0000
,
0000
0000
0000
0000
,
0000
0000
0000
0000
,
0000
0000
0000
0000
,
0000
0000
0000
0000
,
0000
0000
0000
0000
,
0000
0000
0000
0000
,
1000
0010
0100
0010
,
1000
0001
0100
0001
,
1000
0010
0000
0100
0000
0000
0010
0000
,
1000
0000
0001
0100
0000
0000
0010
0000
,
1000
0100
0010
0100
,
1000
0000
0100
0000
0010
0001
0000
1000
,
0000
0001
0010
0001
,
0100
0010
0000
0010
0000
0000
1000
0000
,
0001
0010
0100
1000
,
0001
0000
1000
0000
0100
0010
0000
0001
,
0000
1000
0001
0010
,
0001
0000
1000
0100
0000
0000
0010
0000
,
0001
1000
0010
1000
,
0001
0000
0100
0000
0001
1000
0000
1000
,
0000
0000
0000
0000
,
1111
0000
1111
0000
,
0001
0100
0001
1000
0010
1000
0001
0100
0001
1000
0100
1000
0001
0010
0001
1000
,
0001
0100
0010
1000
0001
0010
0100
1000
0001
0010
0100
1000
0001
0100
0010
1000
,
0001
1000
0010
0100
0001
1000
0010
1000
0001
0010
0001
1000
0100
0010
0100
1000
,
0001
0010
0001
1000
0100
0010
0100
1000
0001
0100
0001
1000
0010
1000
0001
1000
,
0001
0010
0001
1000
0100
1000
0001
0010
0001
1000
0010
1000
0001
0100
0001
1000
,
0001
0100
0010
1000
0001
1000
0010
0100
0001
1000
0001
0010
0001
1000
0010
1000
,
0001
0100
0010
1000
0001
1000
0100
0010
0001
1000
0001
0010
0100
1000
0001
0010
,
0001
1000
0001
0100
0001
1000
0010
0100
0001
1000
0010
1000
0001
0010
0100
1000
,
0001
0100
0001
0010
0110
0100
1000
0001
,
0010
0001
1000
0010
0110
0100
0001
1000
,
0010
1000
0001
0010
0110
0100
1000
0001
,
1000
0010
0100
0001
1001
1000
0100
1000
,
0001
0010
0100
1000
1001
0001
0100
0010
,
1000
0001
1000
0100
0110
0010
0001
0010
,
0100
1000
0001
1000
1010
0010
0100
0001
,
0010
0100
0010
0001
1001
1000
0010
0100
,
0001
1000
0010
1000
1001
0001
0010
0100
,
1000
0100
0010
0001
1001
1000
0001
0100
,
0010
1000
0001
0010
0110
0100
1000
0001
,
0100
0010
1000
0001
0011
0010
0100
1000
,
0001
0010
0100
1000
1001
0001
0100
0001
,
0010
0100
1000
0001
1001
1000
0010
0100
,
0001
0010
0100
1000
1001
0000
0000
0000
,
1111
0000
1111
0000
,
0001
0100
0001
1000
0010
1000
0001
0100
0001
1000
0100
1000
0001
0010
0001
1000
,
0001
0100
0010
1000
0001
0010
0100
1000
0001
0010
0100
1000
0001
0100
0010
1000
,
0001
1000
0010
0100
0001
1000
0010
1000
0001
0010
0001
1000
0100
0010
0100
1000
,
0001
0010
0001
1000
0100
0010
0100
1000
0001
0100
0001
1000
0010
1000
0001
1000
,
0001
0010
0001
1000
0100
1000
0001
0010
0001
1000
0010
1000
0001
0100
0001
1000
,
0001
0100
0010
1000
0001
1000
0010
0100
0001
1000
0001
0010
0001
1000
0010
1000
,
0001
0100
0010
1000
0001
1000
0100
0010
0001
1000
0001
0010
0100
1000
0001
0010
,
0001
1000
0001
0100
0001
1000
0010
0100
0001
1000
0010
1000
0001
0010
0100
1000
,
0001
0000
0000
0100
0000
0000
0100
0000
,
0000
0010
0010
0010
,
1000
0000
0000
0100
0000
0000
0010
0000
,
0000
0001
0001
0001
,
0100
0000
0000
0010
0000
0000
1000
0000
,
0000
0001
0001
0001
,
0010
0000
0000
0100
0000
0000
0100
0000
,
0000
1000
1000
1000
,
0001
0000
0000
0100
0000
0000
0100
0000
,
0000
0010
0010
0010
,
1000
0000
0000
0100
0000
0000
0010
0000
,
0000
0001
0001
0001
,
0100
0000
0000
0010
0000
0000
1000
0000
,
0000
0001
0001
0001
,
0010
0000
0000
0100
0000
0000
0100
0000
,
0000
0000
0000
0000
,
1000
0010
1000
0001
0100
0001
1000
0010
1000
0001
0010
0001
1000
0100
1000
0001
,
1000
0010
0100
0001
1000
0100
0010
0001
1000
0100
0010
0001
1000
0010
0100
0001
,
1000
0001
0100
0010
1000
0001
0100
0001
1000
0100
1000
0001
0010
0100
0010
0001
,
1000
0100
1000
0001
0010
0100
0010
0001
1000
0010
1000
0001
0100
0001
1000
0001
,
1000
0100
1000
0001
0010
0001
1000
0100
1000
0001
0100
0001
1000
0010
1000
0001
,
1000
0010
0100
0001
1000
0001
0100
0010
1000
0001
1000
0100
1000
0001
0100
0001
,
1000
0010
0100
0001
1000
0001
0010
0100
1000
0001
1000
0100
0010
0001
1000
0100
,
1000
0001
1000
0010
1000
0001
0100
0010
1000
0001
0100
0001
1000
0100
0010
0001
,
1000
0100
1000
0001
0100
0001
1000
0010
1000
0001
0010
0001
1000
0100
1000
0001
,
1000
0010
0100
0001
1000
0100
0010
0001
1000
0100
0010
0001
1000
0010
0100
0001
,
1000
0001
0100
0010
1000
0001
0100
0001
1000
0100
1000
0001
0010
0100
0010
0001
,
1000
0100
1000
0001
0010
0100
0010
0001
1000
0010
1000
0001
0100
0001
1000
0001
,
1000
0100
1000
0001
0010
0001
1000
0100
1000
0001
0100
0001
1000
0010
1000
0001
,
1000
0010
0100
0001
1000
0001
0100
0010
1000
0001
1000
0100
1000
0001
0100
0001
,
1000
0010
0100
0001
1000
0001
0010
0100
1000
0001
1000
0100
0010
0001
1000
0100
,
1000
0001
1000
0010
1000
0001
0100
0010
1000
0001
0100
0001
1000
0100
0010
0001
,
1000
0010
1000
0100
0110
0010
0001
1000
,
0100
1000
0001
0100
0110
0010
1000
0001
,
0100
0001
1000
0100
0110
0010
0001
1000
,
0001
0100
0010
1000
1001
0001
0010
0001
,
1000
0100
0010
0001
1001
1000
0010
0100
,
0001
1000
0001
0010
0110
0100
1000
0100
,
0010
0001
1000
0001
0101
0100
0010
1000
,
0100
0010
0100
1000
1001
0001
0100
0010
,
1000
0001
0100
0001
1001
1000
0100
0010
,
0001
0010
0100
1000
1001
0001
1000
0010
,
0100
0001
1000
0100
0110
0010
0001
1000
,
0010
0100
0001
1000
1100
0100
0010
0001
,
1000
0100
0010
0001
1001
1000
0010
1000
,
0100
0010
0001
1000
1001
0001
0100
0010
,
1000
0100
0010
0001
1001
0000
0000
0000
,
1111
0000
1111
0000
,
1000
0010
1000
0001
0100
0001
1000
0010
1000
0001
0010
0001
1000
0100
1000
0001
,
1000
0010
0100
0001
1000
0100
0010
0001
1000
0100
0010
0001
1000
0010
0100
0001
,
1000
0001
0100
0010
1000
0001
0100
0001
1000
0100
1000
0001
0010
0100
0010
0001
,
1000
0100
1000
0001
0010
0100
0010
0001
1000
0010
1000
0001
0100
0001
1000
0001
,
1000
0100
1000
0001
0010
0001
1000
0100
1000
0001
0100
0001
1000
0010
1000
0001
,
1000
0010
0100
0001
1000
0001
0100
0010
1000
0001
1000
0100
1000
0001
0100
0001
,
1000
0010
0100
0001
1000
0001
0010
0100
1000
0001
1000
0100
0010
0001
1000
0100
,
1000
0001
1000
0010
1000
0001
0100
0010
1000
0001
0100
0001
1000
0100
0010
0001
,
1000
0010
1000
0001
0100
0001
1000
0010
1000
0001
0010
0001
1000
0100
1000
0001
,
1000
0010
0100
0001
1000
0100
0010
0001
1000
0100
0010
0001
1000
0010
0100
0001
,
1000
0001
0100
0010
1000
0001
0100
0001
1000
0100
1000
0001
0010
0100
0010
0001
,
1000
0100
1000
0001
0010
0100
0010
0001
1000
0010
1000
0001
0100
0001
1000
0001
,
1000
0100
1000
0001
0010
0001
1000
0100
1000
0001
0100
0001
1000
0010
1000
0001
,
1000
0010
0100
0001
1000
0001
0100
0010
1000
0001
1000
0100
1000
0001
0100
0001
,
1000
0010
0100
0001
1000
0001
0010
0100
1000
0001
1000
0100
0010
0001
1000
0100
,
1000
0001
1000
0010
1000
0001
0100
0010
1000
0001
0100
0001
1000
0100
0010
0001
,
1000
0000
0000
0100
0000
0000
0100
0000
,
0000
0010
0010
0010
,
0001
0000
0000
0100
0000
0000
0010
0000
,
0000
1000
1000
1000
,
0100
0000
0000
0010
0000
0000
0001
0000
,
0000
1000
1000
1000
,
0010
0000
0000
0100
0000
0000
0100
0000
,
0000
0001
0001
0001
,
1000
0000
0000
0100
0000
0000
0100
0000
,
0000
0010
0010
0010
,
0001
0000
0000
0010
0000
0000
0100
0000
,
0000
1000
1000
1000
,
0001
0000
0000
0100
0000
0000
0010
0000
,
0000
0010
0010
0010
,
1000
0000
0000
0001
0000
0000
0100
0000
,
1111
0000
1111
0000
,
0001
0100
0001
1000
0010
1000
0001
0100
0001
1000
0100
1000
0001
0010
0001
1000
,
0001
0100
0010
1000
0001
0010
0100
1000
0001
0010
0100
1000
0001
0100
0010
1000
,
0001
1000
0010
0100
0001
1000
0010
1000
0001
0010
0001
1000
0100
0010
0100
1000
,
0001
0010
0001
1000
0100
0010
0100
1000
0001
0100
0001
1000
0010
1000
0001
1000
,
0001
0010
0001
1000
0100
1000
0001
0010
0001
1000
0010
1000
0001
0100
0001
1000
,
0010
0100
0001
1000
0001
0010
0100
1000
0001
0010
0100
1000
0001
0100
0010
1000
,
0001
1000
0010
1000
0001
0010
0100
1000
0001
0010
0100
1000
0001
0100
0010
1000
,
0001
0100
0001
1000
0010
1000
0001
0010
0001
1000
0010
1000
0001
0010
0100
1000
,
0001
1000
0001
0100
0010
1000
0001
0100
0001
1000
0100
1000
0001
0010
0001
1000
,
0001
0100
0010
1000
0001
0010
0100
1000
0001
0010
0100
1000
0001
0100
0010
1000
,
0001
1000
0010
0100
0001
1000
0010
1000
0001
0010
0001
1000
0100
0010
0100
1000
,
0001
0010
0001
1000
0100
0010
0100
1000
0001
0100
0001
1000
0010
1000
0001
1000
,
0001
0010
0001
1000
0100
1000
0001
0010
0001
1000
0010
1000
0001
0100
0001
1000
,
0001
0100
0010
1000
0001
0010
0100
1000
0001
0010
0100
1000
0001
0100
0010
1000
,
0001
1000
0100
0010
0001
0010
0100
1000
0001
0010
0100
1000
0001
0100
0010
1000
,
0001
1000
0001
0100
0001
1000
0010
0100
0001
1000
0010
1000
0001
0010
0100
1000
,
0001
1000
0001
0100
0010
1000
0001
0100
0001
1000
0100
1000
0001
0010
0001
1000
,
0001
0100
0010
1000
0001
0010
0100
1000
0001
0010
0100
1000
0001
0100
0010
1000
,
0001
1000
0010
0100
0001
1000
0010
1000
0001
0010
0001
1000
0100
0010
0100
1000
,
0001
0010
0001
1000
0100
0010
0100
1000
0001
0100
0001
1000
0010
1000
0001
1000
,
0001
0010
0001
1000
0100
1000
0001
0010
0001
1000
0010
1000
0001
0100
0001
1000
,
0001
0100
0010
1000
0001
1000
0010
0100
0001
1000
0010
1000
0001
0010
0001
1000
,
0100
0010
0001
1000
0001
0010
0100
1000
0001
1000
0001
0100
0010
1000
0001
1000
,
0100
0010
0100
1000
0001
0010
0100
1000
0001
0010
0100
1000
0001
0100
0010
1000
,
0001
0000
0000
0000
;

//---------------dance-single - T. Moore----------------
#NOTES:
     dance-single:
     T. Moore:
     Medium:
     15:
     1.000,1.000,0.026,0.000,1.000,1400.000,4.000,0.000,0.000,4.000:
0000
0000
0000
0000
,
0000
0000
0000
0000
,
0000
0000
0000
0000
,
0000
0000
0000
0000
,
0000
0000
0000
0000
,
0000
0000
0000
0000
,
0000
0000
0000
0000
,
0000
0000
0000
0000
,
1000
0010
0100
0010
,
1000
0001
0100
0001
,
1000
0010
0000
0100
0000
0000
0010
0000
,
1000
0000
0001
0100
0000
0000
0010
0000
,
1000
0100
0010
0100
,
1000
0000
0100
0000
0010
0001
0000
1000
,
0000
0001
0010
0001
,
0100
0010
0000
0010
0000
0000
1000
0000
,
0001
0010
0100
1000
,
0001
0000
1000
0000
0100
0010
0000
0001
,
0000
1000
0001
0010
,
0001
0000
1000
0100
0000
0000
0010
0000
,
0001
1000
0010
1000
,
0001
0000
0100
0000
0001
1000
0000
1000
,
0000
0000
0000
0000
,
1111
0000
1111
0000
,
0001
0100
0010
1000
0001
1000
0100
0010
0001
1000
0010
0100
,
0001
0010
0100
1000
0010
0100
0001
0010
0100
1000
0010
0100
,
0001
1000
0100
0010
0100
1000
0001
0010
0001
1000
0010
0100
,
0001
1000
0001
0100
0010
1000
0001
1000
0100
0010
0001
1000
,
0001
0010
0100
1000
0001
0100
0010
1000
0001
1000
0010
0100
,
0001
1000
0100
0010
0001
1000
0010
1000
0001
0010
0100
1000
,
0001
0100
0010
1000
0001
1000
0100
0010
0100
1000
0001
0010
,
0001
1000
0010
0100
0001
1000
0100
0010
0001
1000
0001
0100
,
0001
1000
0010
1000
0001
0010
0001
1000
0100
1000
0001
0010
,
0001
1000
0001
0100
0010
1000
0001
1000
0010
0100
0001
0010
,
0100
1000
0001
0100
0001
1000
0100
0010
0100
1000
0001
0100
,
0010
1000
0010
1000
0001
0010
0100
1000
0001
0010
0001
1000
,
0001
0100
0010
1000
0001
1000
0010
0100
0001
1000
0001
0100
,
0010
1000
0001
1000
0100
0010
0001
1000
0001
1000
0100
0010
,
0001
1000
0001
0100
0010
1000
0001
1000
0010
0100
0001
0010
,
0100
1000
0100
0010
0001
1000
0001
1000
0010
0100
0001
1000
,
0100
1000
0001
0010
0001
1000
0010
1000
0001
0100
0001
1000
,
0100
0010
0001
1000
0001
0010
0100
1000
0001
0100
0001
1000
,
0010
0100
0001
1000
0001
0100
0010
1000
0001
1000
0100
0010
,
0100
1000
0001
0010
0001
1000
0001
0010
0100
1000
0001
0010
,
0100
1000
0001
0010
0001
1000
0001
0100
0010
1000
0010
0100
,
0001
1000
0010
1000
0001
0010
0100
1000
0001
0010
0001
1000
,
0001
0100
0010
1000
0010
0100
0001
0010
0100
1000
0001
1000
,
0010
0100
0001
1000
0001
1000
0100
0010
0001
1000
0001
1000
,
0001
0100
0010
1000
0001
1000
0100
0010
0001
1000
0010
0100
,
0001
0010
0100
1000
0010
0100
0001
0010
0100
1000
0010
0100
,
0001
1000
0100
0010
0100
1000
0001
0010
0001
1000
0010
0100
,
0001
1000
0001
0100
0010
1000
0001
1000
0100
0010
0001
1000
,
0001
0010
0100
1000
0001
0100
0010
1000
0001
1000
0010
0100
,
0001
1000
0100
0010
0001
1000
0010
1000
0001
0010
0100
1000
,
0001
0100
0010
1000
0001
1000
0100
0010
0100
1000
0001
0010
,
0001
1000
0010
0100
0001
1000
0100
0010
0001
1000
0001
0100
,
0001
0000
0000
0100
0000
0000
0100
0000
,
0000
0010
0010
0010
,
1000
0000
0000
0100
0000
0000
0010
0000
,
0000
0001
0001
0001
,
0100
0000
0000
0010
0000
0000
1000
0000
,
0000
0001
0001
0001
,
0010
0000
0000
0100
0000
0000
0100
0000
,
0000
1000
1000
1000
,
0001
0000
0000
0100
0000
0000
0100
0000
,
0000
0010
0010
0010
,
1000
0000
0000
0100
0000
0000
0010
0000
,
0000
0001
0001
0001
,
0100
0000
0000
0010
0000
0000
1000
0000
,
0000
0001
0001
0001
,
0010
0000
0000
0100
0000
0000
0100
0000
,
0000
0000
0000
0000
,
1000
0010
0100
0001
1000
0001
0010
0100
1000
0001
0100
0010
,
1000
0100
0010
0001
0100
0010
1000
0100
0010
0001
0100
0010
,
1000
0001
0010
0100
0010
0001
1000
0100
1000
0001
0100
0010
,
1000
0001
1000
0010
0100
0001
1000
0001
0010
0100
1000
0001
,
1000
0100
0010
0001
1000
0010
0100
0001
1000
0001
0100
0010
,
1000
0001
0010
0100
1000
0001
0100
0001
1000
0100
0010
0001
,
1000
0010
0100
0001
1000
0001
0010
0100
0010
0001
1000
0100
,
1000
0001
0100
0010
1000
0001
0010
0100
1000
0001
1000
0010
,
1000
0001
0010
0001
1000
0001
0100
0010
1000
0001
0010
0100
,
1000
0100
0010
0001
0100
0010
1000
0100
0010
0001
0100
0010
,
1000
0001
0010
0100
0010
0001
1000
0100
1000
0001
0100
0010
,
1000
0001
1000
0010
0100
0001
1000
0001
0010
0100
1000
0001
,
1000
0100
0010
0001
1000
0010
0100
0001
1000
0001
0100
0010
,
1000
0001
0010
0100
1000
0001
0100
0001
1000
0100
0010
0001
,
1000
0010
0100
0001
1000
0001
0010
0100
0010
0001
1000
0100
,
1000
0001
0100
0010
1000
0001
0010
0100
1000
0001
1000
0010
,
1000
0001
0100
0001
1000
0100
1000
0001
0010
0001
1000
0100
,
1000
0001
1000
0010
0100
0001
1000
0001
0100
0010
1000
0100
,
0010
0001
1000
0010
1000
0001
0010
0100
0010
0001
1000
0010
,
0100
0001
0100
0001
1000
0100
0010
0001
1000
0100
1000
0001
,
1000
0010
0100
0001
1000
0001
0100
0010
1000
0001
1000
0010
,
0100
0001
1000
0001
0010
0100
1000
0001
1000
0001
0010
0100
,
1000
0001
1000
0010
0100
0001
1000
0001
0100
0010
1000
0100
,
0010
0001
0010
0100
1000
0001
1000
0001
0100
0010
1000
0001
,
0010
0001
1000
0100
1000
0001
0100
0001
1000
0010
1000
0001
,
0010
0100
1000
0001
1000
0100
0010
0001
1000
0010
1000
0001
,
0100
0010
1000
0001
1000
0010
0100
0001
1000
0001
0010
0100
,
0010
0001
1000
0100
1000
0001
1000
0100
0010
0001
1000
0100
,
0010
0001
1000
0100
1000
0001
1000
0010
0100
0001
0100
0010
,
1000
0001
0100
0001
1000
0100
0010
0001
1000
0100
1000
0001
,
1000
0010
0100
0001
0100
0010
1000
0100
0010
0001
1000
0001
,
0100
0010
1000
0001
1000
0001
0010
0100
1000
0001
1000
0001
,
1000
0010
0100
0001
1000
0001
0010
0100
1000
0001
0100
0010
,
1000
0100
0010
0001
0100
0010
1000
0100
0010
0001
0100
0010
,
1000
0001
0010
0100
0010
0001
1000
0100
1000
0001
0100
0010
,
1000
0001
1000
0010
0100
0001
1000
0001
0010
0100
1000
0001
,
1000
0100
0010
0001
1000
0010
0100
0001
1000
0001
0100
0010
,
1000
0001
0010
0100
1000
0001
0100
0001
1000
0100
0010
0001
,
1000
0010
0100
0001
1000
0001
0010
0100
0010
0001
1000
0100
,
1000
0001
0100
0010
1000
0001
0010
0100
1000
0001
1000
0100
,
1000
0001
0100
0001
1000
0001
0010
0100
1000
0001
0100
0010
,
1000
0100
0010
0001
0100
0010
1000
0100
0010
0001
0100
0010
,
1000
0001
0010
0100
0010
0001
1000
0100
1000
0001
0100
0010
,
1000
0001
1000
0010
0100
0001
1000
0001
0010
0100
1000
0001
,
1000
0100
0010
0001
1000
0010
0100
0001
1000
0001
0100
0010
,
1000
0001
0010
0100
1000
0001
0100
0001
1000
0100
0010
0001
,
1000
0010
0100
0001
1000
0001
0010
0100
0010
0001
1000
0100
,
1000
0001
0100
0010
1000
0001
0010
0100
1000
0001
1000
0010
,
1000
0000
0000
0100
0000
0000
0100
0000
,
0000
0010
0010
0010
,
0001
0000
0000
0100
0000
0000
0010
0000
,
0000
1000
1000
1000
,
0100
0000
0000
0010
0000
0000
0001
0000
,
0000
1000
1000
1000
,
0010
0000
0000
0100
0000
0000
0100
0000
,
0000
0001
0001
0001
,
1000
0000
0000
0100
0000
0000
0100
0000
,
0000
0010
0010
0010
,
0001
0000
0000
0010
0000
0000
0100
0000
,
0000
1000
1000
1000
,
0001
0000
0000
0100
0000
0000
0010
0000
,
0000
0010
0010
0010
,
1000
0000
0000
0001
0000
0000
0100
0000
,
1111
0000
1111
0000
,
0001
0100
0010
1000
0001
1000
0100
0010
0001
1000
0010
0100
,
0001
0010
0100
1000
0010
0100
0001
0010
0100
1000
0010
0100
,
0001
1000
0100
0010
0100
1000
0001
0010
0001
1000
0010
0100
,
0001
1000
0001
0100
0010
1000
0001
1000
0100
0010
0001
1000
,
0001
0010
0100
1000
0001
0100
0010
1000
0001
1000
0010
0100
,
0001
1000
0100
0010
0001
1000
0010
1000
0001
0010
0100
1000
,
0001
0100
0010
1000
0001
1000
0100
0010
0100
1000
0001
0010
,
0001
1000
0010
0100
0001
1000
0100
0010
0001
1000
0001
0100
,
0001
1000
0010
1000
0001
0010
0001
1000
0100
1000
0001
0010
,
0001
1000
0001
0100
0010
1000
0001
1000
0010
0100
0001
0010
,
0100
1000
0001
0100
0001
1000
0100
0010
0100
1000
0001
0100
,
0010
1000
0010
1000
0001
0010
0100
1000
0001
0010
0001
1000
,
0001
0100
0010
1000
0001
1000
0010
0100
0001
1000
0001
0100
,
0010
1000
0001
1000
0100
0010
0001
1000
0001
1000
0100
0010
,
0001
1000
0001
0100
0010
1000
0001
1000
0010
0100
0001
0010
,
0100
1000
0100
0010
0001
1000
0001
1000
0010
0100
0001
1000
,
0100
1000
0001
0010
0001
1000
0010
1000
0001
0100
0001
1000
,
0100
0010
0001
1000
0001
0010
0100
1000
0001
0100
0001
1000
,
0010
0100
0001
1000
0001
0100
0010
1000
0001
1000
0100
0010
,
0100
1000
0001
0010
0001
1000
0001
0010
0100
1000
0001
0010
,
0100
1000
0001
0010
0001
1000
0001
0100
0010
1000
0010
0100
,
0001
1000
0010
1000
0001
0010
0100
1000
0001
0010
0001
1000
,
0001
0100
0010
1000
0010
0100
0001
0010
0100
1000
0001
1000
,
0010
0100
0001
0010
0100
1000
0010
0100
0001
0010
0100
1000
,
0001
0000
0000
0000
;

//---------------dance-single - T. Moore + Gazebo----------------
#NOTES:
     dance-single:
     T. Moore + Gazebo:
     Easy:
     11:
     0.927,0.886,0.026,0.000,0.000,984.000,4.000,0.000,0.000,4.000:

0000
0000
0000
0000
,
0000
0000
0000
0000
,
0000
0000
0000
0000
,
0000
0000
0000
0000
,
0000
0000
0000
0000
,
0000
0000
0000
0000
,
0000
0000
0000
0000
,
0000
0000
0000
0000
,
1000
0010
0100
0010
,
1000
0001
0100
0001
,
1000
0010
0000
0100
0000
0000
0010
0000
,
1000
0000
0001
0100
0000
0000
0010
0000
,
1000
0100
0010
0100
,
1000
0000
0100
0000
0010
0001
0000
1000
,
0000
0001
0010
0001
,
0100
0010
0000
0010
0000
0000
1000
0000
,
0001
0010
0100
1000
,
0001
0000
1000
0000
0100
0010
0000
0001
,
0000
1000
0001
0010
,
0001
0000
1000
0100
0000
0000
0010
0000
,
0001
1000
0010
1000
,
0001
0000
0100
0000
0001
1000
0000
1000
,
0000
0000
0000
0000
,
1111
0000
1111
0000
,
0001
0100
0010
1000
0001
1000
0010
1000
,
0001
0100
0001
0010
0100
1000
0010
1000
,
0001
1000
0100
1000
0001
0010
0001
1000
,
0010
0100
0010
0100
0001
0100
0001
0100
,
0001
0010
0100
1000
0001
1000
0100
1000
,
0001
0010
0001
0010
0100
1000
0100
1000
,
0001
1000
0010
1000
0001
0100
0001
1000
,
0100
0010
0100
0010
0100
1000
0100
1000
,
0001
1000
0010
0100
0001
0100
0010
0100
,
0001
1000
0100
1000
0001
1000
0100
0010
,
0001
0100
0001
1000
0010
1000
0001
0100
,
0001
1000
0100
0010
0001
0100
0010
1000
,
0001
1000
0100
0010
0100
1000
0100
0010
,
0001
1000
0001
0100
0010
0100
0001
1000
,
0010
1000
0001
0100
0001
1000
0100
0010
,
0001
0100
0001
1000
0010
1000
0100
0010
,
0001
1000
0010
0100
0001
0100
0010
0100
,
0001
1000
0100
1000
0001
1000
0100
0010
,
0001
0100
0001
1000
0010
1000
0001
0100
,
0001
1000
0100
0010
0001
0100
0010
1000
,
0001
1000
0100
0010
0100
1000
0100
0010
,
0001
1000
0001
0100
0010
0100
0001
1000
,
0010
1000
0001
0100
0001
1000
0001
0100
,
0001
0010
0100
1000
0001
0010
0100
1000
,
0001
0100
0010
1000
0001
1000
0010
1000
,
0001
0100
0001
0010
0100
1000
0010
1000
,
0001
1000
0100
1000
0001
0010
0001
1000
,
0010
0100
0010
0100
0001
0100
0001
0100
,
0001
0010
0100
1000
0001
1000
0100
1000
,
0001
0010
0001
0010
0100
1000
0100
1000
,
0001
1000
0010
1000
0001
0100
0001
1000
,
0100
0010
0100
0010
0100
1000
0100
1000
,
0001
0000
0000
0100
0000
0000
0100
0000
,
0000
0010
0010
0010
,
1000
0000
0000
0100
0000
0000
0010
0000
,
0000
0001
0001
0001
,
0100
0000
0000
0010
0000
0000
1000
0000
,
0000
0001
0001
0001
,
0010
0000
0000
0100
0000
0000
0100
0000
,
0000
1000
1000
1000
,
0001
0000
0000
0100
0000
0000
0100
0000
,
0000
0010
0010
0010
,
1000
0000
0000
0100
0000
0000
0010
0000
,
0000
0001
0001
0001
,
0100
0000
0000
0010
0000
0000
1000
0000
,
0000
0001
0001
0001
,
0010
0000
0000
0100
0000
0000
0100
0000
,
0000
0000
0000
0000
,
1000
0010
0100
0001
1000
0001
0100
0001
,
1000
0010
1000
0100
0010
0001
0100
0001
,
1000
0001
0010
0001
1000
0100
1000
0001
,
0100
0010
0100
0010
1000
0010
1000
0010
,
1000
0100
0010
0001
1000
0001
0010
0001
,
1000
0100
1000
0100
0010
0001
0010
0001
,
1000
0001
0100
0001
1000
0010
1000
0001
,
0010
0100
1000
0010
0100
0001
0010
0100
,
1000
0001
0100
0010
1000
0010
0100
0010
,
1000
0001
0010
0001
1000
0001
0010
0100
,
1000
0010
1000
0001
0100
0001
1000
0010
,
1000
0001
0010
0100
1000
0010
0100
0001
,
1000
0001
0010
0100
0010
0001
0010
0100
,
1000
0001
1000
0010
0100
0010
1000
0001
,
0100
0001
1000
0010
1000
0001
0010
0100
,
1000
0010
1000
0001
0100
0001
0010
0100
,
1000
0001
0100
0010
1000
0010
0100
0010
,
1000
0001
0010
0001
1000
0001
0010
0100
,
1000
0010
1000
0001
0100
0001
1000
0010
,
1000
0001
0010
0100
1000
0010
0100
0001
,
1000
0001
0010
0100
0010
0001
0010
0100
,
1000
0001
1000
0010
0100
0010
1000
0001
,
0100
0001
1000
0010
1000
0001
1000
0010
,
1000
0100
0010
0001
1000
0100
0010
0001
,
1000
0010
0100
0001
1000
0001
0100
0001
,
1000
0010
1000
0100
0010
0001
0100
0001
,
1000
0001
0010
0001
1000
0100
1000
0001
,
0100
0010
0100
0010
1000
0010
1000
0010
,
1000
0100
0010
0001
1000
0001
0010
0001
,
1000
0100
1000
0100
0010
0001
0010
0001
,
1000
0001
0100
0001
1000
0010
1000
0001
,
0010
0100
0010
0100
0010
0001
0010
0001
,
1000
0010
0100
0001
1000
0001
0100
0001
,
1000
0010
1000
0100
0010
0001
0100
0001
,
1000
0001
0010
0001
1000
0100
1000
0001
,
0100
0010
0100
0010
1000
0010
1000
0010
,
1000
0100
0010
0001
1000
0001
0010
0001
,
1000
0100
1000
0010
0100
0001
0010
0001
,
1000
0100
1000
0010
0100
0001
0010
0001
,
1000
0100
1000
0100
0010
0100
0010
0100
,
1000
0010
0100
0001
1000
0001
0100
0001
,
1000
0010
1000
0100
0010
0001
0100
0001
,
1000
0001
0010
0001
1000
0100
1000
0001
,
0100
0010
0100
0010
1000
0010
1000
0010
,
1000
0100
0010
0001
1000
0001
0010
0001
,
1000
0010
1000
0010
0100
0001
0100
0001
,
1000
0100
1000
0100
0010
0001
0010
0001
,
1000
0010
0100
0010
1000
0100
0010
0001
,
1000
0000
0000
0100
0000
0000
0100
0000
,
0000
0010
0010
0010
,
0001
0000
0000
0100
0000
0000
0010
0000
,
0000
1000
1000
1000
,
0100
0000
0000
0010
0000
0000
0001
0000
,
0000
1000
1000
1000
,
0010
0000
0000
0100
0000
0000
0100
0000
,
0000
0001
0001
0001
,
1000
0000
0000
0100
0000
0000
0100
0000
,
0000
0010
0010
0010
,
0001
0000
0000
0010
0000
0000
0100
0000
,
0000
1000
1000
1000
,
0001
0000
0000
0100
0000
0000
0010
0000
,
0000
0010
0010
0010
,
1000
0000
0000
0001
0000
0000
0100
0000
,
1111
0000
1111
0000
,
0001
0100
0010
1000
0001
1000
0010
1000
,
0001
0100
0001
0010
0100
1000
0010
1000
,
0001
1000
0100
1000
0001
0010
0001
1000
,
0010
0100
0010
0100
0001
0100
0001
0100
,
0001
0010
0100
1000
0001
1000
0100
1000
,
0001
0010
0001
0100
0010
1000
0100
1000
,
0001
0010
0001
0100
0010
1000
0100
1000
,
0001
0010
0001
0010
0100
0010
0100
0010
,
0001
0100
0010
1000
0001
1000
0010
1000
,
0001
0100
0001
0010
0100
1000
0010
1000
,
0001
1000
0100
1000
0001
0010
0001
1000
,
0010
0100
0010
0100
0001
0100
0001
0100
,
0001
0010
0100
1000
0001
1000
0100
1000
,
0001
0010
0001
0100
0010
1000
0100
1000
,
0001
0010
0001
0100
0010
1000
0100
1000
,
0001
0010
0001
0010
0100
0010
0100
0010
,
0001
0100
0010
1000
0001
1000
0010
1000
,
0001
0100
0001
0010
0100
1000
0010
1000
,
0001
1000
0100
1000
0001
0010
0001
1000
,
0010
0100
0010
0100
0001
0100
0001
0100
,
0001
0010
0100
1000
0001
1000
0100
1000
,
0001
0010
0001
0010
0100
1000
0100
1000
,
0001
1000
0010
1000
0001
0100
0001
1000
,
0100
0010
0001
0100
0010
1000
0100
1000
,
0001
0000
0000
0000
;
