#TITLE:Dream Dashers;
#SUBTITLE:;
#ARTIST:Helblinde;
#TITLETRANSLIT:;
#SUBTITLETRANSLIT:;
#ARTISTTRANSLIT:;
#CREDIT:;
#BANNER:bn.png;
#BACKGROUND:bg.png;
#LYRICSPATH:;
#CDTITLE:cd-parrax.png;
#MUSIC:Dream Dashers.ogg;
#OFFSET:1.759;
#SAMPLESTART:110.841;
#SAMPLELENGTH:12.000;
#SELECTABLE:YES;
#BPMS:0.000=170.000;
#STOPS:;
#BGCHANGES:;
// cache tags:
#FIRSTBEAT:5.125;
#LASTBEAT:636.000;
#SONGFILENAME:Songs/Index Tournament 1/Dream Dashers/Dream Dashers.sm;
#HASMUSIC:1;
#HASBANNER:1;
#MUSICLENGTH:224.487;
// end cache tags

//---------------dance-single - 15.5 (Parrax!)----------------
#NOTES:
     dance-single:
     15.5 (Parrax!):
     Challenge:
     15:
     1.000,1.000,0.071,0.566,1.000,2179.000,16.000,127.000,4.000,0.000:

0000
0000
0000
0000
,
0000
0000
0000
0000
0000
0000
0000
0000
4000
3000
0040
0030
0400
0300
0004
0003
0000
0000
0400
0300
0000
0000
0004
0003
0040
0030
0004
0003
0040
0030
0400
0300
,
4000
0000
0000
0000
0000
0000
3000
0000
0000
0000
0000
0000
0000
0000
0000
0000
0000
0000
0000
0000
0000
0000
0000
0000
0200
0000
0000
0000
0000
0000
0000
0000
0300
0000
0000
0000
0000
0000
0000
0000
0000
0000
0000
0000
0000
0000
0000
0000
1000
0000
0000
0000
0000
0000
0000
0000
0000
0000
0000
0000
0000
0000
0000
0000
0000
0000
0000
0000
0000
0000
0000
0000
0200
0000
0000
0000
0000
0000
0000
0000
0300
0000
0000
0000
0000
0000
0000
0000
0000
0000
0000
0000
0000
0000
0000
0000
1000
0000
0000
0000
0000
0000
0000
0000
0000
0000
0000
0000
0000
0000
0000
0000
0000
0000
0000
0000
0000
0000
0000
0000
0002
0000
0000
0000
0000
0000
0000
0000
0003
0000
0000
0000
0000
0000
0000
0000
0000
0000
0000
0000
0000
0000
0000
0000
1000
0000
0000
0000
0000
0000
0000
0000
0000
0000
0000
0000
0000
0000
0000
0000
0000
0000
0000
0000
0000
0000
0000
0000
0020
0000
0000
0000
0000
0000
0000
0000
0030
0000
0000
0000
0000
0000
0000
0000
0000
0000
0000
0000
0000
0000
0000
0000
,
0100
0000
0000
0002
0003
0000
1000
0000
0000
0200
0300
0000
2000
0000
0000
3002
0003
0000
1000
0000
0000
0200
0300
0000
,
2000
0000
0000
3020
0030
0000
0100
0000
0000
0002
0003
0000
0020
0000
0000
0230
0300
0000
2000
0000
0000
3002
0003
0000
,
0200
0000
0000
0000
0000
0000
0000
0000
0000
0000
0000
0000
0000
0000
0000
0000
0000
0000
0000
0000
0000
0000
0000
0000
0320
0000
0000
0000
0000
0000
0000
0000
0030
0000
0000
0000
0000
0000
0000
0000
0000
0000
0000
0000
0000
0000
0000
0000
4000
0000
0000
0000
0000
0000
3000
0000
0000
0000
0000
0000
0040
0000
0000
0000
0000
0000
0030
0000
0000
0000
0000
0000
0400
0000
0000
0000
0000
0000
0300
0000
0000
0000
0000
0000
0004
0000
0000
0000
0000
0000
0003
0000
0000
0000
0000
0000
0000
0000
0000
0000
0000
0000
0000
0000
0000
0000
0000
0000
0400
0000
0000
0000
0000
0000
0300
0000
0000
0000
0000
0000
0000
0000
0000
0000
0000
0000
0000
0000
0000
0000
0000
0000
0004
0000
0000
0000
0000
0000
0003
0000
0000
0000
0000
0000
0040
0000
0000
0000
0000
0000
0030
0000
0000
0000
0000
0000
0004
0000
0000
0000
0000
0000
0003
0000
0000
0000
0000
0000
0040
0000
0000
0000
0000
0000
0030
0000
0000
0000
0000
0000
0400
0000
0000
0000
0000
0000
0300
0000
0000
0000
0000
0000
,
4000
0000
0000
0000
0000
0000
3000
0000
0000
0000
0000
0000
0000
0000
0000
0000
0000
0000
0000
0000
0000
0000
0000
0000
0200
0000
0000
0000
0000
0000
0000
0000
0300
0000
0000
0000
0000
0000
0000
0000
0000
0000
0000
0000
0000
0000
0000
0000
1000
0000
0000
0000
0000
0000
0000
0000
0000
0000
0000
0000
0000
0000
0000
0000
0000
0000
0000
0000
0000
0000
0000
0000
0200
0000
0000
0000
0000
0000
0000
0000
0300
0000
0000
0000
0000
0000
0000
0000
0000
0000
0000
0000
0000
0000
0000
0000
1000
0000
0000
0000
0000
0000
0000
0000
0000
0000
0000
0000
0000
0000
0000
0000
0000
0000
0000
0000
0000
0000
0000
0000
0002
0000
0000
0000
0000
0000
0000
0000
0003
0000
0000
0000
0000
0000
0000
0000
0000
0000
0000
0000
0000
0000
0000
0000
0100
0000
0000
0000
0000
0000
0000
0000
0000
0000
0000
0000
0000
0000
0000
0000
0000
0000
0000
0000
0000
0000
0000
0000
0020
0000
0000
0000
0000
0000
0000
0000
0030
0000
0000
0000
0000
0000
0000
0000
0000
0000
0000
0000
0000
0000
0000
0000
,
1000
0000
0000
0020
0030
0000
1000
0000
0000
0002
0003
0000
0020
0000
0000
0230
0300
0000
1000
0000
0000
0002
0003
0000
,
0200
0000
0000
0302
0003
0000
1000
0000
0000
0002
0003
0000
0020
0000
0000
0032
0003
0000
2000
0000
0000
3002
0003
0000
,
2000
0000
0000
0000
0000
0000
0000
0000
3004
0003
0400
0300
0040
0030
4000
3000
0000
0000
0040
0030
0000
0000
4000
3000
0400
0300
4000
3000
0400
0300
0040
0030
,
0004
0000
0000
0000
0000
0000
0003
0000
0000
0000
0000
0000
0000
0000
0000
0000
0000
0000
0000
0000
0000
0000
0000
0000
0020
0000
0000
0000
0000
0000
0000
0000
0030
0000
0000
0000
0000
0000
0000
0000
0000
0000
0000
0000
0000
0000
0000
0000
0001
0000
0000
0000
0000
0000
0000
0000
0000
0000
0000
0000
0000
0000
0000
0000
0000
0000
0000
0000
0000
0000
0000
0000
2000
0000
0000
0000
0000
0000
0000
0000
3000
0000
0000
0000
0000
0000
0000
0000
0000
0000
0000
0000
0000
0000
0000
0000
0010
0000
0000
0000
0000
0000
0000
0000
0000
0000
0000
0000
0000
0000
0000
0000
0000
0000
0000
0000
0000
0000
0000
0000
0200
0000
0000
0000
0000
0000
0000
0000
0300
0000
0000
0000
0000
0000
0000
0000
0000
0000
0000
0000
0000
0000
0000
0000
0001
0000
0000
0000
0000
0000
0000
0000
0000
0000
0000
0000
0000
0000
0000
0000
0000
0000
0000
0000
0000
0000
0000
0000
0200
0000
0000
0000
0000
0000
0000
0000
0300
0000
0000
0000
0000
0000
0000
0000
0000
0000
0000
0000
0000
0000
0000
0000
,
0010
0000
0000
2000
3000
0000
0001
0000
0000
0020
0030
0000
0002
0000
0000
2003
3000
0000
0001
0000
0000
0200
0300
0000
,
0002
0000
0000
2003
3000
0000
0001
0000
0000
0020
0030
0000
0002
0000
0000
2003
3000
0000
0020
0000
0000
0230
0300
0000
,
0002
0000
0000
0000
0000
0000
0000
0000
0000
0000
0000
0000
0000
0000
0000
0000
0000
0000
0000
0000
0000
0000
0000
0000
0203
0000
0000
0000
0000
0000
0000
0000
0300
0000
0000
0000
0000
0000
0000
0000
0000
0000
0000
0000
0000
0000
0000
0000
0004
0000
0000
0000
0000
0000
0003
0000
0000
0000
0000
0000
0400
0000
0000
0000
0000
0000
0300
0000
0000
0000
0000
0000
0040
0000
0000
0000
0000
0000
0030
0000
0000
0000
0000
0000
4000
0000
0000
0000
0000
0000
3000
0000
0000
0000
0000
0000
0000
0000
0000
0000
0000
0000
0000
0000
0000
0000
0000
0000
0040
0000
0000
0000
0000
0000
0030
0000
0000
0000
0000
0000
0000
0000
0000
0000
0000
0000
0000
0000
0000
0000
0000
0000
4000
0000
0000
0000
0000
0000
3000
0000
0000
0000
0000
0000
0400
0000
0000
0000
0000
0000
0300
0000
0000
0000
0000
0000
4000
0000
0000
0000
0000
0000
3000
0000
0000
0000
0000
0000
0400
0000
0000
0000
0000
0000
0300
0000
0000
0000
0000
0000
0040
0000
0000
0000
0000
0000
0030
0000
0000
0000
0000
0000
,
0004
0000
0000
0000
0000
0000
0003
0000
0000
0000
0000
0000
0000
0000
0000
0000
0000
0000
0000
0000
0000
0000
0000
0000
0020
0000
0000
0000
0000
0000
0000
0000
0030
0000
0000
0000
0000
0000
0000
0000
0000
0000
0000
0000
0000
0000
0000
0000
0001
0000
0000
0000
0000
0000
0000
0000
0000
0000
0000
0000
0000
0000
0000
0000
0000
0000
0000
0000
0000
0000
0000
0000
0200
0000
0000
0000
0000
0000
0000
0000
0300
0000
0000
0000
0000
0000
0000
0000
0000
0000
0000
0000
0000
0000
0000
0000
0010
0000
0000
0000
0000
0000
0000
0000
0000
0000
0000
0000
0000
0000
0000
0000
0000
0000
0000
0000
0000
0000
0000
0000
2000
0000
0000
0000
0000
0000
0000
0000
3000
0000
0000
0000
0000
0000
0000
0000
0000
0000
0000
0000
0000
0000
0000
0000
0010
0000
0000
0000
0000
0000
0000
0000
0000
0000
0000
0000
0000
0000
0000
0000
0000
0000
0000
0000
0000
0000
0000
0000
0200
0000
0000
0000
0000
0000
0000
0000
0300
0000
0000
0000
0000
0000
0000
0000
0000
0000
0000
0000
0000
0000
0000
0000
,
0001
0000
0000
2000
3000
0000
0100
0000
0000
0020
0030
0000
0002
0000
0000
0203
0300
0000
0001
0000
0000
2000
3000
0000
,
0002
0000
0000
0023
0030
0000
0001
0000
0000
2000
3000
0000
0020
0000
0000
0230
0300
0000
0020
0000
0000
0230
0300
0000
,
0002
0000
0000
2003
3000
0000
1MM1
0000
0000
0000
0000
0000
0000
0000
0000
0000
0000
0000
1MM1
0000
0000
0000
0000
0000
,
0000
0000
0000
0000
0001
0010
0100
1000
0010
0100
0001
1000
0001
0000
0000
0000
,
1001
0000
0000
0000
1000
0100
0010
0100
0010
0001
1000
0010
0100
0001
0100
0010
,
1000
0001
0010
0001
1000
0001
0100
0010
1000
0100
0010
0001
1000
0010
1000
0100
,
1000
0001
0100
0010
1000
0010
0100
0001
1000
0100
0010
0100
0010
0001
1000
0010
,
1000
0100
1000
0001
0100
0001
1000
0100
0010
0001
1000
0100
0010
0001
1000
0001
,
1000
0100
0010
0001
1000
0010
0100
0001
0100
0010
1000
0010
1000
0001
0010
0001
,
0100
0001
1000
0100
1000
0010
0100
0001
1000
0100
1000
0100
0010
0001
1000
0100
,
1000
0001
0010
0001
1000
0100
0010
0100
1000
0001
0100
0001
1000
0100
1000
0001
,
0400
0000
0000
0000
0000
0000
0300
0000
0000
0000
0000
0000
0040
0000
0000
0000
0000
0000
0030
0000
0000
0000
0000
0000
0400
0000
0000
0000
0000
0000
0300
0000
0000
0000
0000
0000
0004
0000
0000
0000
0000
0000
0003
0000
0000
0000
0000
0000
4000
0000
0000
0000
0000
0000
3000
0000
0000
0000
0000
0000
0400
0000
0000
0000
0000
0000
0300
0000
0000
0000
0000
0000
0040
0000
0000
0000
0000
0000
0030
0000
0000
0000
0000
0000
0004
0000
0000
0000
0000
0000
0003
0000
0000
0000
0000
0000
1000
0000
0000
0000
0000
0000
0000
0000
0000
0000
0010
0000
0000
0000
0000
0000
0000
0000
0000
0100
0000
0000
0000
0000
0000
0000
0000
0000
0000
0010
0000
0000
0000
0000
0000
0000
0000
0000
1000
0000
0000
0000
0000
0000
0000
0000
0000
0000
0001
0000
0000
0000
0000
0000
0000
0000
0000
0000
0010
0000
0000
0000
0000
0000
0000
0000
0000
0100
0000
0000
0000
0000
0000
0000
0000
0000
0000
0010
0000
0000
0000
0000
0000
0000
0000
0000
0001
0000
0000
0000
0000
0000
0000
0000
0000
0000
,
1000
0001
0010
0100
1000
0010
0100
0010
1000
0001
0010
0001
1000
0010
1000
0100
,
1000
0001
0100
0001
1000
0010
1000
0001
0010
0100
1000
0010
0100
0001
0100
0001
,
1000
0100
0010
0001
1000
0010
1000
0100
1000
0001
0100
0001
1000
0100
0010
0100
,
1000
0010
0100
0001
0100
0010
1000
0001
1000
0100
0010
0100
1000
0001
0010
0100
,
1000
0010
1000
0001
0100
0010
1000
0100
0010
0100
0010
0001
1000
0010
1000
0001
,
0100
0001
1000
0100
0010
0100
1000
0001
0100
0001
1000
0010
1000
0001
0010
0100
,
1000
0001
0010
0100
1000
0010
0100
0001
0100
0010
1000
0100
1000
0001
0010
0001
,
1000
0010
1000
0100
1000
0001
0100
0001
1000
0100
0010
0100
1000
0010
1000
0001
,
0100
0001
1000
0100
0010
0001
0100
0010
1000
0001
0010
0001
0100
0001
1000
0100
,
1000
0010
0100
0001
0100
0010
1000
0001
0010
0001
1000
0100
1000
0001
0100
0001
,
1000
0010
1000
0001
1000
0001
0010
0100
0010
0100
1000
0010
0100
0001
0100
0010
,
1000
0001
0010
0100
1000
0001
0100
0001
0010
0001
1000
0010
1000
0001
0100
0001
,
1000
0100
0010
0001
1000
0010
0100
0001
0100
0010
1000
0100
1000
0001
0010
0001
,
1000
0010
1000
0100
1000
0001
0100
0001
1000
0100
0010
0100
1000
0001
0100
0010
,
1000
0010
0100
0001
1000
0100
1000
0001
0100
0001
0010
0001
1000
0010
0100
0010
,
1000
0100
0010
0001
1000
0010
1000
0100
1000
0001
0100
0001
0010
0001
1000
0010
,
1000
0001
0010
0100
1000
0001
0100
0001
1000
0100
1000
0001
1000
0010
0100
0001
,
1000
0100
1000
0010
2000
3001
0100
0001
,
1001
1000
0100
0010
0002
0013
0001
1000
,
1001
0001
0100
0010
2000
3010
1000
0001
,
1001
0000
0000
0000
1000
0000
0000
0000
0010
0000
0000
0000
1000
0000
0000
0000
0002
0003
0020
0030
0002
0003
0000
0000
0200
0300
0020
0030
2000
3000
0000
0000
,
0002
0013
0100
1000
0020
0130
0001
1000
,
1001
0001
0010
0100
2000
3001
0100
0001
,
0101
0100
0010
1000
0020
0130
0001
1000
,
1001
0000
0000
0000
0001
0000
0000
0000
0010
0000
0000
0000
0001
0000
0000
0000
2000
3000
0200
0300
0020
0030
0000
0000
0002
0003
0200
0300
0002
0003
0000
0000
,
2000
3100
0010
0001
2000
3010
0100
0001
,
0011
0010
0001
1000
0020
0130
0001
1000
,
1100
0100
1000
0001
2000
3010
0100
0001
,
1001
0000
0000
0000
1000
0000
0000
0000
0100
0000
0000
0000
1000
0000
0000
0000
0002
0003
2000
3000
0002
0003
0000
0000
0200
0300
0020
0030
0200
0300
0000
0000
,
0002
0103
0010
1000
0200
0310
0001
1000
,
1001
0001
0100
0001
2000
3100
1000
0001
,
1001
1000
0010
1000
0200
1300
0010
1000
,
1001
0000
0000
0000
0001
0000
0000
0000
1000
0000
0000
0000
0001
0000
0000
0000
2000
3000
0002
0003
2000
3000
0000
0000
0200
0300
0020
0030
0200
0300
0000
0000
,
2000
3001
0100
0001
0020
0031
0100
0001
,
1001
1000
0100
0010
0001
0100
0010
1000
,
0001
0100
0010
1000
0001
0010
0001
1000
0001
0100
0001
0100
0010
1000
0001
0010
,
0001
1000
0001
0100
0001
0100
0010
1000
0100
0010
0001
0100
0010
1000
0100
0010
,
0001
0100
0010
1000
0010
0100
0001
0010
0001
1000
0100
1000
0010
0100
0001
1000
,
0001
0010
0001
0100
0010
1000
0001
1000
0100
0010
0001
0100
0010
1000
0100
0010
,
0001
1000
0010
0100
0001
0100
0010
1000
0001
0010
0100
1000
0001
0100
0001
1000
,
0010
1000
0001
0010
0001
1000
0100
1000
0010
0100
0001
0010
0100
1000
0001
0100
,
0001
1000
0100
0010
0001
0100
0010
1000
0010
1000
0001
0010
0001
1000
0001
0100
,
0010
1000
0100
1000
0010
0100
0001
0100
0010
1000
0001
0010
0001
1000
0100
1000
,
0001
0100
0001
0010
0001
1000
0100
1000
0001
0100
0010
0100
0001
1000
0010
1000
,
0001
0010
0100
1000
0001
1000
0100
0010
0001
1000
0010
0100
0001
0100
0010
1000
,
0001
0010
0001
0100
0001
1000
0100
1000
0001
0100
0010
0100
0001
1000
0010
0100
,
0001
0010
0100
1000
0001
1000
0100
0010
0001
1000
0010
0100
0001
0100
0010
1000
,
0001
0010
0100
1000
0001
0100
0001
1000
0001
0010
0100
1000
0001
0100
0001
1000
,
0001
0100
0010
1000
0001
1000
0100
1000
0001
1000
0010
0100
0001
1000
0001
0010
,
0001
0100
0010
0100
0001
1000
0001
0010
0001
0100
0010
0100
0001
0010
0001
1000
,
0010
1000
0100
0010
0100
1000
0001
1000
0010
1000
0001
0010
0100
0010
0001
1000
,
0001
0100
0010
0100
0010
1000
0001
1000
0001
0010
0100
1000
0001
1000
0100
0010
,
0001
0100
0010
1000
0001
0000
0200
0000
0302
0000
2003
0000
0000
0000
3000
0000
,
0001
0100
0010
1000
0010
0100
0001
0010
0001
0100
0010
1000
0001
1000
0100
0010
,
0001
0100
0010
1000
0010
1000
0001
0010
0001
1000
0100
1000
0001
0100
0010
1000
,
0010
0100
0001
1000
0100
0010
0100
1000
0001
0100
0010
1000
0010
1000
0001
0010
,
0001
1000
0010
1000
0001
0010
0100
0010
0001
0100
0010
0100
0001
1000
0010
1000
,
0001
0010
0100
1000
0100
1000
0001
0010
0001
0100
0010
1000
0010
0100
0001
1000
,
0100
1000
0010
1000
0001
0010
0001
0100
0010
1000
0001
1000
0010
0100
0001
1000
,
0001
1000
0100
0010
0001
0100
0001
1000
0100
1000
0001
0100
0010
1000
0010
0100
,
0001
0010
0100
1000
0001
0100
0001
1000
0100
0010
0100
1000
0001
0100
0010
1000
,
0001
0010
0100
0010
0100
1000
0001
0100
0001
1000
0010
1000
0001
0010
0100
1000
,
0001
0100
0010
1000
0010
0100
0001
1000
0100
1000
0001
0010
0001
0100
0010
1000
,
0001
0100
0001
1000
0100
0010
0100
0010
0001
1000
0010
0100
0010
1000
0100
1000
,
0001
0010
0001
1000
0010
0100
0001
0100
0010
1000
0100
0010
0001
1000
0001
0100
,
0010
1000
0010
1000
0001
0100
0010
0100
0001
1000
0010
1000
0001
0010
0100
1000
,
0001
1000
0100
0010
0001
0010
0100
0010
0001
1000
0010
0100
0001
1000
0010
1000
,
0001
0100
0010
0100
0001
0100
0010
1000
0001
0100
0010
1000
0001
0010
0100
1000
,
0001
0100
0001
0010
0001
1000
0100
1000
0001
0010
0100
0010
0001
0010
0100
1000
,
0001
0100
0001
0010
0001
1000
0100
0010
0100
0010
0001
1000
0010
0100
0001
1000
,
0001
0010
0100
1000
0001
1000
0100
0010
0001
0100
0001
0010
0001
1000
0100
1000
,
0001
0100
0010
1000
0010
1000
0001
0100
0001
1000
0010
0100
0001
0100
0010
1000
,
0001
1000
0001
0010
0001
0100
0010
1000
0010
0100
0001
1000
0100
1000
0001
0010
,
0001
0000
0000
1000
0000
0000
0010
0000
0000
0100
0000
0000
0020
0000
0030
1000
0000
0000
0001
0000
0000
0010
0000
0000
0100
0000
0000
1000
0000
0000
0001
0000
0000
0100
0000
0000
0002
0000
0003
1000
0000
0000
0001
0000
0000
0010
0000
0000
,
0100
0000
0000
1000
0000
0000
0001
0000
0000
1000
0000
0000
0020
0000
0030
1000
0000
0000
0001
0000
0000
0010
0000
0000
0002
0000
0003
0100
0000
0000
0010
0000
0000
1000
0000
0000
0002
0000
0003
0010
0000
0000
0001
0000
0000
0100
0000
0000
,
0010
1000
0010
0100
0001
1000
0100
0010
0001
1000
0010
1000
0001
0100
0001
1000
,
0100
0010
0100
0010
0001
1000
0010
1000
0001
0100
0001
1000
0100
0010
0100
1000
,
0001
0000
0000
0100
0000
0000
0010
0000
0000
1000
0000
0000
0020
0000
0030
1000
0000
0000
0001
0000
0000
0010
0000
0000
0100
0000
0000
1000
0000
0000
0001
0000
0000
0100
0000
0000
0002
0000
0003
1000
0000
0000
0001
0000
0000
0010
0000
0000
,
0100
0000
0000
1000
0000
0000
0001
0000
0000
1000
0000
0000
0020
0000
0030
1000
0000
0000
0001
0000
0000
0010
0000
0000
0002
0000
0003
0100
0000
0000
0010
0000
0000
1000
0000
0000
0002
0000
0003
0010
0000
0000
0001
0000
0000
1000
0000
0000
,
0001
0100
0010
1000
0001
1000
0100
0010
0001
0100
0010
0100
0001
0010
0100
0010
,
0002
0000
0000
0000
1003
0100
1000
0001
1000
0100
0010
0001
1000
0001
0100
0001
,
1000
0001
0100
0010
1000
0100
0010
0001
1000
0010
0100
0001
0100
0010
1000
0001
,
1000
0010
0100
0001
1000
0100
1000
0001
0010
0001
0100
0001
1000
0100
0010
0001
,
0100
0010
1000
0010
1000
0001
0010
0100
1000
0001
0010
0100
1000
0001
0100
0010
,
1000
0010
0100
0001
1000
0100
1000
0001
0010
0001
0100
0010
1000
0001
1000
0100
,
0010
0001
1000
0010
1000
0001
0100
0001
1000
0001
0010
0100
1000
0001
0100
0010
,
1000
0010
1000
0001
0010
0100
0010
0001
1000
0010
1000
0001
0100
0001
1000
0100
,
0010
0100
0010
0001
1000
0010
0100
0001
0100
0010
1000
0001
0010
0001
1000
0100
,
1000
0010
0100
0001
1000
0100
1000
0001
1000
0010
0100
0001
1000
0100
1000
0001
,
1000
0010
0100
0001
1000
0001
0010
0100
1000
0001
0100
0010
1000
0001
0100
0010
,
1000
0100
1000
0010
1000
0001
0010
0001
0100
0010
1000
0100
0010
0001
1000
0010
,
1000
0001
0010
0001
1000
0010
1000
0100
1000
0001
0100
0010
1000
0001
0010
0100
,
1000
0010
0100
0001
0100
0010
1000
0100
1000
0001
0010
0001
1000
0010
1000
0100
,
1000
0001
0100
0001
1000
0100
0010
0100
1000
0001
0100
0001
0010
0001
1000
0010
,
1000
0001
0010
0001
1000
0010
0100
0001
0100
0010
1000
0001
0010
0001
1000
0100
,
1000
0001
0100
0010
1000
0010
1000
0001
0010
0100
1000
0010
0100
0001
0010
0100
,
1000
0001
0100
0010
1000
0100
0010
0001
0100
0010
1000
0100
0010
0001
1000
0010
,
1000
0001
0010
0001
1000
0010
0100
0001
0100
0010
1000
0001
0010
0001
1000
0100
,
1000
0001
0100
0010
0100
0001
1000
0100
0010
0100
0010
0001
1000
0100
1000
0001
,
0010
0001
0100
0001
1000
0100
0010
0001
1000
0001
0100
0010
1000
0001
0010
0001
,
0100
0001
1000
0100
1000
0001
0100
0010
1000
0001
0100
0010
0100
0010
1000
0001
,
1000
0100
0010
0100
1000
0010
1000
0001
0010
0100
1000
0001
0100
0001
0010
0001
,
1000
0010
1000
0001
0010
0100
1000
0001
0100
0010
1000
0010
0100
0001
1000
0100
,
0010
0001
1000
0010
1000
0001
0100
0001
1000
0100
0010
0100
0010
0001
1000
0010
,
0100
0010
1000
0001
0010
0100
0010
0001
1000
0010
0100
0001
0100
0010
1000
0001
,
0010
0001
1000
0100
1000
0010
0100
0001
0100
0001
1000
0100
1000
0001
0100
0001
,
1000
0100
0010
0001
1000
0010
1000
0100
1000
0001
0100
0001
1000
0010
0100
0010
,
1000
0100
0010
0001
1000
0001
0010
0100
1000
0001
0100
0001
0010
0001
1000
0100
,
1000
0010
1000
0001
0010
0100
1000
0001
0100
0010
1000
0001
1000
0100
0010
0001
,
0100
0010
1000
0010
1000
0001
0100
0001
1000
0010
0100
0001
1000
0100
0010
0001
,
1000
0001
0010
0100
1000
0001
0010
0001
1000
0100
0010
0001
0100
0010
0100
0010
,
1000
0001
0100
0010
1000
0010
0100
0001
1000
0010
0100
0001
1000
0100
1000
0010
,
1000
0001
0100
0001
1000
0100
0010
0001
1000
0001
0010
0100
1000
0001
0010
0001
,
1000
0010
0100
0001
0100
0010
1000
0001
1000
0001
0010
0100
1000
0001
0010
0001
,
1000
0010
0100
0010
0100
0001
1000
0010
1000
0001
0010
0001
1000
0010
0100
0010
,
1000
0100
0010
0001
1000
0001
0010
0100
1000
0001
0010
0001
1000
0100
0010
0100
,
1000
0001
0100
0010
1000
0010
0100
0001
0010
0100
1000
0001
0010
0100
1000
0001
,
0100
0001
1000
0100
1000
0001
0100
0010
0100
0001
1000
0100
0010
0100
0010
0001
,
1000
0010
0100
0001
1000
0010
0100
0001
1000
0100
0010
0100
1000
0001
0100
0001
,
1000
0100
1000
0010
0100
0001
0100
0010
1000
0100
0010
0001
1000
0100
0010
0001
,
0100
0010
1000
0010
1000
0001
0010
0001
1000
0010
1000
0001
0010
0100
0010
0001
,
1000
0010
1000
0001
0010
0001
0100
0010
1000
0001
0010
0001
0100
0010
1000
0010
,
0100
0001
0010
0100
1000
0001
0100
0001
1000
0001
0010
0100
1000
0001
1000
0010
,
0100
0001
1000
0100
1000
0001
1000
0010
0100
0001
0100
0010
1000
0100
0010
0001
,
1000
0100
0010
0001
1000
0010
0100
0010
1000
0001
0010
0001
1000
0010
1000
0001
,
0010
0100
0010
0001
1000
0010
0100
0001
1000
0010
0100
0001
1000
0100
1000
0001
,
0100
0001
1000
0100
0010
0100
0010
0001
1000
0010
0100
0001
0100
0010
1000
0001
,
0010
0001
1000
0010
1000
0001
0010
0100
1000
0001
0010
0100
1000
0001
0100
0001
,
1000
0100
1000
0001
0100
0010
0100
0001
1000
0100
1000
0001
0100
0001
1000
0100
,
0010
0100
1000
0001
0100
0010
1000
0001
0100
0010
1000
0001
1000
0100
0010
0100
,
0010
0001
1000
0001
0100
0010
1000
0010
0100
0001
1000
0100
1000
0001
0100
0001
,
2000
0000
0000
0000
,
3000
0000
0000
0000
;
