#TITLE:Infiltration;
#SUBTITLE:;
#ARTIST:ParagonX9;
#TITLETRANSLIT:;
#SUBTITLETRANSLIT:;
#ARTISTTRANSLIT:;
#CREDIT:;
#BANNER:../Banner.png;
#BACKGROUND:../BG.png;
#LYRICSPATH:;
#CDTITLE:../CDTitleKIRBY.png;
#MUSIC:Infiltration.ogg;
#OFFSET:-0.043;
#SAMPLESTART:40.051;
#SAMPLELENGTH:12.000;
#SELECTABLE:YES;
#BPMS:0.000=149.970;
#STOPS:;
#BGCHANGES:;
// cache tags:
#FIRSTBEAT:1.000;
#LASTBEAT:368.000;
#SONGFILENAME:Songs/Index Fusion - Part 2/Infiltration - [Kirby5464]/Infiltration.sm;
#HASMUSIC:1;
#HASBANNER:1;
#MUSICLENGTH:147.226;
// end cache tags

//---------------dance-single - Kirby5464 - Oni (17.----------------
#NOTES:
     dance-single:
     Kirby5464 - Oni (17.:
     Challenge:
     17:
     1.000,1.000,0.000,0.075,1.000,1661.000,0.000,11.000,3.000,0.000:

0000
0000
0000
0000
1000
0000
0100
0010
0001
0000
1000
0000
0010
0000
0100
0000
,
0010
1000
0001
0000
0100
0000
0001
1000
0000
0000
0100
0000
0000
0010
0000
0000
,
0001
0000
0100
0000
0010
0000
1000
0010
0000
0000
0100
0000
0000
0000
0001
0000
,
0010
0001
1000
0000
0100
0000
0010
0001
0000
0000
1000
0000
0000
0000
0100
0000
,
1000
0000
0001
0000
0100
0001
1000
0001
0010
0100
1000
0001
1000
0010
0100
0001
,
0010
0100
1000
0001
0010
0001
1000
0010
1000
0100
1000
0001
0010
0001
1000
0100
,
0010
0001
1000
0100
1000
0001
0100
0010
1000
0010
0100
0001
1000
0100
1000
0010
,
2000
3000
0000
0000
0100
0001
1000
0010
0100
0010
1000
0001
0010
0001
1000
0100
,
0010
0000
0000
1000
0000
0000
0010
0100
0001
1000
0100
0010
0001
1000
0001
0100
0010
1000
0001
1000
0100
0010
0001
0100
,
0001
1000
0001
0010
0100
1000
0010
1000
0001
0100
0001
1000
0001
1000
0100
1000
0010
0100
0001
1000
0001
0010
0100
1000
,
0001
0100
0001
0010
0100
1000
0001
0100
0010
1000
0001
1000
0001
0010
0001
1000
0010
1000
0100
1000
0001
0100
0010
1000
,
0001
0100
0001
0010
0001
1000
0100
1000
0010
0100
0001
1000
0001
1000
0010
1000
0100
0010
0001
1000
0001
0100
0010
1000
,
0001
0100
0001
0010
0001
1000
0010
0100
0010
1000
0001
1000
0001
0100
0001
0010
0100
1000
0010
0100
0001
1000
0001
0100
,
0010
1000
0010
0100
0001
1000
0100
0010
0001
1000
0010
1000
0100
0010
0001
1000
0010
0100
0001
1000
0001
0010
0100
1000
,
0010
0100
0001
1000
0100
1000
0010
0100
0001
0010
0001
1000
0100
0010
0001
1000
0100
1000
0001
0100
0001
1000
0010
0100
,
0001
0000
0010
0000
0001
0000
1000
0000
0100
0000
0010
0000
0100
0000
0000
1000
0000
0000
0010
0000
0000
0100
0000
0000
0001
0000
0000
0010
0000
0000
0001
0000
0000
1000
0000
0000
0001
0000
0000
0100
0000
0000
0010
0000
0000
1000
0000
0000
,
0100
0000
0000
0010
0000
0000
0001
0000
0000
1000
0000
0000
0010
0000
0100
0000
0001
0000
0010
0000
0100
0000
1000
0000
0001
0000
0100
0000
0010
0000
1000
0000
0100
0000
1000
0000
0010
0000
0100
0000
0001
0000
0010
0000
0100
0000
1000
0000
,
0001
0100
0010
1000
0100
1000
0001
0100
0010
1000
0001
0100
0001
0010
0001
1000
0100
0010
0001
1000
0010
0100
0001
0010
,
0001
1000
0100
1000
0010
0100
0001
1000
0001
0010
0100
1000
0001
0100
0001
1000
0100
1000
0010
0100
0001
0010
0100
1000
,
0001
0100
0010
1000
0100
1000
0010
0100
0001
0010
0001
1000
0100
0010
0001
1000
0010
1000
0001
0010
0001
1000
0100
0010
,
0001
1000
0010
0100
0010
1000
0100
1000
0001
0100
0010
1000
0100
1000
0001
0010
0001
1000
0100
0010
0001
1000
0010
0100
,
0001
0010
0001
1000
0100
0010
0100
1000
0010
0100
0001
1000
0001
0010
0001
1000
0100
0010
0100
1000
0010
0100
0001
0010
,
0001
1000
0100
0010
0100
1000
0010
0100
0001
1000
0001
0010
0001
1000
0100
0010
0001
1000
0010
1000
0001
1000
0001
0010
,
0100
0000
1000
0000
0001
0000
1000
0000
0001
0000
0100
0000
0010
0000
0000
0100
0000
0000
0001
0000
0000
1000
0000
0000
0001
0000
0000
1000
0000
0000
0001
0000
0000
0010
0000
0000
0001
0000
0000
0010
0000
0000
0100
0000
0000
1000
0000
0000
,
0100
0000
0000
1000
0000
0000
0001
0000
0000
0100
0000
0000
0001
0000
1000
0000
0010
0000
0100
0000
0001
0000
1000
0000
0100
0000
1000
0000
0001
0000
0010
0000
0100
0000
0010
0000
0001
0000
1000
0000
0001
0000
0100
0000
0010
0000
1000
0000
,
0001
1000
0100
0010
0001
0100
0001
1000
0001
0010
0100
1000
0010
1000
0001
0100
0001
1000
0001
1000
0100
1000
0010
0100
,
0001
1000
0001
0010
0100
1000
0001
0100
0001
0010
0100
1000
0001
0100
0010
1000
0001
1000
0001
0010
0001
1000
0010
1000
,
0100
1000
0001
0100
0010
1000
0001
0100
0001
0010
0001
1000
0100
1000
0010
0100
0001
1000
0001
1000
0010
1000
0100
0010
,
0001
1000
0001
0100
0010
1000
0001
0100
0001
0010
0001
1000
0010
0100
0010
1000
0001
1000
0001
0100
0001
0010
0100
1000
,
0010
0100
0001
1000
0001
0100
0010
1000
0010
0100
0001
1000
0100
0010
0001
1000
0010
1000
0100
0010
0001
1000
0010
0100
,
0001
1000
0001
0010
0100
1000
0010
0100
0001
1000
0100
1000
0010
0100
0001
0010
0001
1000
0100
0010
0001
1000
0100
1000
,
0001
0000
0100
0000
0001
0000
1000
0000
0010
0000
0100
0000
0010
0000
0000
1000
0000
0000
0001
0000
0000
0100
0000
0000
0001
0000
0000
1000
0000
0000
0010
0000
0000
0100
0000
0000
0001
0000
0000
1000
0000
0000
0001
0000
0000
0010
0000
0000
,
0100
1000
0001
0100
0010
1000
0100
1000
0010
0100
0001
0010
0100
1000
0001
0100
0010
1000
0100
1000
0001
0100
0010
1000
,
0001
0100
0001
0010
0001
1000
0100
0010
0001
1000
0010
0100
0001
0010
0001
1000
0100
1000
0010
0100
0001
1000
0001
0010
,
0100
1000
0001
0100
0001
1000
0100
1000
0010
0100
0001
0010
0100
1000
0001
0100
0010
1000
0100
1000
0010
0100
0001
0010
,
0001
1000
0100
0010
0001
1000
0010
1000
0001
0010
0001
1000
0100
0010
0001
1000
0010
0100
0010
1000
0100
1000
0001
0100
,
0010
1000
0100
1000
0001
0010
0001
1000
0100
0010
0001
1000
0010
0100
0001
0010
0001
1000
0100
0010
0100
1000
0010
0100
,
0001
1000
0001
0010
0001
1000
0100
0010
0100
1000
0010
0100
0001
0010
0001
1000
0100
0010
0100
1000
0010
0100
0001
1000
,
0001
0010
0001
1000
0100
0010
0001
1000
0010
1000
0001
1000
0001
0010
0100
1000
0001
1000
0001
0100
0010
1000
0010
1000
,
0010
0000
1000
0000
0001
0000
0010
0000
0100
0000
1000
0000
0200
0000
0000
0300
0000
0000
0000
0000
0000
0000
0000
0000
0000
0000
0000
0000
0000
0000
0000
0000
0000
0000
0000
0000
1000
0000
0000
0010
0000
0000
1000
0000
0000
0000
0000
0000
,
0002
0000
0000
0000
1003
0001
0100
0010
0100
0001
1000
0010
1000
0001
0010
0001
,
1000
0010
1000
0100
0010
0100
1000
0001
1000
0001
0100
0010
0100
0001
1000
0010
,
1000
0001
0010
0100
1000
0100
1000
0001
0010
0001
1000
0010
1000
0001
1000
0100
,
0010
0001
1000
0010
0100
0001
0100
0001
1000
0100
0010
0001
1000
0100
1000
0001
,
1000
0001
0100
0010
0100
0001
1000
0100
1000
0001
0100
0010
1000
0001
1000
0100
,
0010
0001
1000
0001
0100
0010
0100
0001
1000
0010
1000
0001
1000
0100
0010
0001
,
0010
0100
1000
0001
1000
0001
0100
0010
0100
0001
1000
0010
1000
0001
0100
0010
,
1000
0001
0010
0100
0010
0001
0000
0000
1000
0100
0000
0000
1000
0001
0000
0000
,
0100
0001
M00M
0000
1000
0100
1000
0001
0010
0001
1000
0100
0010
0001
1000
0100
,
1000
0001
0100
0010
1000
0010
0100
0001
1000
0100
1000
0001
0100
0001
1000
0010
,
0100
0010
1000
0001
0010
0100
1000
0100
0010
0001
1000
0010
0100
0001
1000
0001
,
0010
0100
0010
0001
1000
0100
1000
0001
0100
0001
1000
0100
0010
0001
0010
0100
,
1000
0001
1000
0001
0100
0010
1000
0010
1000
0001
0100
0010
1000
0001
1000
0001
,
0010
0100
1000
0001
1000
0100
0010
0100
1000
0001
1000
0010
0100
0001
1000
0010
,
0100
0001
1000
0001
0010
0100
1000
0100
0010
0001
1000
0001
0100
0010
0100
0001
,
1000
0001
1000
0100
0010
0001
0100
0001
1000
0100
1000
0010
1000
0001
0010
0001
,
0100
0001
1000
0100
0020
0000
0000
0000
0000
0000
0000
0000
0000
0000
0000
0000
,
0000
0000
0000
0000
,
0000
2030
0000
0000
,
0000
0000
0000
0000
,
0000
0000
3001
0010
0001
1000
0010
1000
0100
0010
0100
1000
0001
1000
0001
0100
,
0010
0100
0001
1000
0010
1000
0001
0010
0100
1000
0100
1000
0001
0010
0001
1000
,
0010
1000
0001
1000
0100
0010
0001
1000
0010
0100
0001
0100
0001
1000
0100
0010
,
0001
1000
0100
1000
0001
0000
0000
0000
0000
0000
0000
0000
0000
0000
0000
0000
,
0020
0000
0000
0230
0000
0000
0301
1000
0001
0100
0010
1000
0001
1000
0100
0010
0001
0100
0001
1000
0001
0010
0100
1000
,
0010
1000
0001
0100
0001
1000
0001
1000
0100
1000
0010
0100
0001
1000
0001
0010
0100
1000
0001
0100
0001
0010
0100
1000
,
0001
0100
0010
1000
0001
1000
0001
0010
0001
1000
0010
1000
0100
1000
0001
0100
0010
1000
0001
0100
0001
0010
0001
1000
,
0100
1000
0010
0100
0001
1000
0001
1000
0010
1000
0100
0010
0001
1000
0001
0100
0010
1000
0001
0100
0001
0010
0001
1000
,
0010
0100
0010
1000
0001
1000
0001
0100
0001
0010
0100
1000
0010
0100
0001
1000
0001
0100
0010
1000
0010
0100
0001
1000
,
0100
0010
0001
1000
0010
1000
0100
0010
0001
1000
0010
0100
0001
1000
0001
0010
0100
1000
0010
0100
0001
1000
0100
1000
,
0010
0100
0001
0010
0001
1000
0100
0010
0001
1000
0100
1000
0001
0100
0001
1000
0010
0100
0001
0010
0001
1000
0100
0010
,
0001
0000
1000
0000
0001
0000
0100
0000
0010
0000
0100
0000
0001
0000
0000
1000
0000
0000
0001
0000
0000
0100
0000
0000
0010
0000
0000
1000
0000
0000
0100
0000
0000
0010
0000
0000
0100
0000
0000
1000
0000
0000
0001
0000
0000
0100
0000
0000
,
0010
0000
0000
1000
0000
0000
0100
0000
0000
1000
0000
0000
0001
0000
0100
0000
0001
0000
1000
0000
0100
0000
0010
0000
0001
0000
0100
0000
0010
0000
1000
0000
0010
0000
0100
0000
0001
0000
0010
0000
0001
0000
1000
0000
0100
0000
0010
0000
,
0001
1000
0010
0100
0001
0010
0001
1000
0100
1000
0010
0100
0001
1000
0001
0010
0100
1000
0001
0100
0001
1000
0100
1000
,
0010
0100
0001
0010
0100
1000
0001
0100
0010
1000
0100
1000
0010
0100
0001
0010
0001
1000
0100
0010
0001
1000
0010
1000
,
0001
0010
0001
1000
0100
0010
0001
1000
0010
0100
0010
1000
0100
1000
0001
0100
0010
1000
0100
1000
0001
0010
0001
1000
,
0100
0010
0001
1000
0010
0100
0001
0010
0001
1000
0100
0010
0100
1000
0010
0100
0001
1000
0001
0010
0001
1000
0100
0010
,
0100
1000
0010
0100
0001
0010
0001
1000
0100
0010
0100
1000
0010
0100
0001
1000
0001
0010
0001
1000
0100
0010
0001
1000
,
0010
1000
0001
1000
0001
0010
0100
1000
0001
1000
0010
0100
0001
1000
0001
0010
0100
1000
0010
0100
0001
1000
0001
0100
,
0010
0000
1000
0000
0010
0000
0100
0000
0001
0000
1000
0000
0002
0000
0000
0003
0000
0000
0000
0000
0000
0000
0000
0000
0000
0000
0000
0000
0000
0000
0000
0000
0000
0000
0000
0000
0000
0000
0000
0000
0000
0000
0000
0000
0000
0000
0000
0000
,
0002
0000
0000
0203
0000
0000
0310
1000
0010
0100
0001
1000
0100
0010
0001
1000
0010
1000
0100
0010
0001
1000
0010
0100
,
0001
1000
0001
0010
0100
1000
0010
1000
0001
0100
0001
1000
0001
1000
0100
1000
0010
0100
0001
1000
0001
0010
0100
1000
,
0001
0100
0001
0010
0100
1000
0001
0100
0010
1000
0001
1000
0001
0010
0001
1000
0010
1000
0100
1000
0001
0100
0010
1000
,
0001
0100
0001
0010
0001
1000
0100
1000
0010
0100
0001
1000
0001
1000
0010
1000
0100
0010
0001
1000
0001
0100
0010
1000
,
0001
0100
0001
0010
0001
1000
0010
0100
0010
1000
0001
1000
0001
0100
0001
0010
0100
1000
0010
0100
0001
1000
0001
0100
,
0010
1000
0010
0100
0001
1000
0100
0010
0001
1000
0010
1000
0100
0010
0001
1000
0010
0100
0001
1000
0001
0010
0100
1000
,
0010
0100
0001
1000
0100
1000
0010
0100
0001
0010
0001
1000
0100
0010
0001
1000
0100
1000
0001
0100
0001
1000
0010
0100
,
0001
0000
0010
0000
0100
0000
1000
0000
0100
0000
0010
0000
0001
0000
0000
1000
0000
0000
0001
0000
0000
0010
0000
0000
0100
0000
0000
1000
0000
0000
0001
0000
0000
0100
0000
0000
0001
0000
0000
1000
0000
0000
0100
0000
0000
1000
0000
0000
,
0010
0100
0001
0010
0200
0000
0000
0000
0000
0000
0000
0000
0000
0000
0000
0000
,
0000
0000
0000
0000
,
0300
0000
0000
0000
,
0000
0000
0000
0000
,
0M00
0000
0000
0000
;
