#TITLE:COLD Dandy;
#SUBTITLE:;
#ARTIST:Frozen Ray feat. m1dy;
#TITLETRANSLIT:;
#SUBTITLETRANSLIT:;
#ARTISTTRANSLIT:;
#CREDIT:;
#BANNER:colddandy-bann.PNG;
#BACKGROUND:colddandy-bg.PNG;
#LYRICSPATH:;
#CDTITLE:FR!.png;
#MUSIC:Cold Dandy.mp3;
#OFFSET:-0.152;
#SAMPLESTART:16.667;
#SAMPLELENGTH:11.980;
#SELECTABLE:YES;
#BPMS:0.000=360.000,408.000=360.000,484.000=559.997,516.000=279.998,540.000=559.997;
#STOPS:;
#BGCHANGES:;
// cache tags:
#FIRSTBEAT:1.000;
#LASTBEAT:574.021;
#SONGFILENAME:Songs/new cc/Cold Dandy/colddandy.sm;
#HASMUSIC:1;
#HASBANNER:1;
#MUSICLENGTH:96.791;
// end cache tags

//---------------dance-single - ----------------
#NOTES:
     dance-single:
     :
     Hard:
     12:
     1.000,1.000,1.000,0.207,0.108,776.000,134.000,20.000,0.000,2.000:
0000
0000
0010
0000
0000
1000
0000
0000
,
0000
0001
1000
0000
0000
0000
0010
0000
,
0000
0001
0100
0000
0000
0100
1000
0000
,
0000
0100
1000
0000
0000
0001
1000
0000
,
0010
0010
0000
0010
0000
0001
0010
0000
,
0010
0000
0100
0001
0000
1000
0000
1000
,
0000
1000
1000
0000
0100
0000
1000
0000
,
0001
2000
0020
0000
0000
0000
0000
3000
,
0002
0000
0000
0000
0000
0003
0030
0100
,
0000
0010
0000
0100
0000
0010
0000
0010
,
1000
1000
0010
1000
,
1000
0000
0000
0100
0100
0000
0000
0010
,
0000
0010
0100
0100
0000
0001
0000
0100
,
0000
1000
0001
1000
0001
1000
0000
0000
,
0010
0000
1000
0000
0100
0100
0001
0010
,
0001
0000
0000
0010
0001
0000
0000
0010
,
1000
0001
0010
0000
0000
0010
0010
0000
,
0000
0001
1000
0001
0100
0001
0000
0000
,
1000
0001
0000
0000
1000
0000
0100
0001
,
1100
0000
0000
0100
0000
1000
0000
0001
,
0000
0001
0001
0000
0010
0020
0000
0000
,
0200
0000
0030
0000
0000
0310
0100
0001
,
0000
0001
0100
0001
0100
0001
0000
0010
,
0000
0100
0000
1100
0001
0100
0001
1000
,
0100
0010
0000
0001
0100
1000
0100
0010
,
0001
0001
0100
0001
0100
1000
0010
0100
,
0100
0010
0100
0101
0000
1000
0100
0100
,
0010
0001
0010
0010
0010
1000
0001
0010
,
0010
0010
0010
0001
0010
0010
1000
0000
,
1001
0000
1000
0010
0010
0100
0010
0010
,
0010
0100
0010
0100
0100
0010
1000
1000
,
0000
0110
0000
0001
0001
0010
0001
0001
,
0100
0001
0001
1000
1000
0000
1100
0000
,
0110
0000
0000
0000
0000
0000
0010
0001
,
0010
0001
0100
0001
0100
0000
1001
0000
,
0100
1000
1000
0001
0000
1000
0010
0000
,
0001
0001
1000
0001
1000
0001
0001
0000
,
0100
1010
0000
0011
0000
0110
0000
0001
,
0001
0100
1000
0100
0001
0001
0100
0000
,
1000
1100
0000
0001
1000
1000
0001
0010
,
0100
0000
0101
0000
0101
0000
0001
0010
,
0100
0100
1000
0100
0000
0010
0001
0010
,
0001
0000
1000
1000
0000
1000
0001
0010
,
0010
0010
0100
0000
0110
0000
0000
0000
,
1000
0001
0100
0001
0010
0000
0010
0001
,
0101
0000
1010
0000
1010
0000
0010
0010
,
0010
0000
0000
0010
0100
0001
0100
0010
,
0000
0000
1000
0011
0000
0001
1000
0100
,
1000
0010
0001
0010
0001
1000
0010
1000
,
0100
0010
1000
1000
1000
0001
0000
1000
,
0010
0000
1000
0100
0000
1100
0100
1000
,
0000
1100
0000
1010
0000
0110
0000
0001
,
0100
0100
1000
0001
0000
0011
0000
0100
,
0010
0000
0000
1010
0000
0100
1000
0100
,
0000
1010
0000
0010
0010
0010
0100
0100
,
0000
0001
1000
0100
0010
0001
0100
0100
,
0000
0000
0000
0001
1100
0000
0001
0000
,
1001
0000
0010
0100
0000
1010
0000
1001
,
0000
0110
0000
0010
0100
0000
1001
0000
,
1010
0000
1000
0100
0001
0010
0000
0010
,
0100
0100
0010
0100
0001
1000
0101
0000
,
1000
1000
0100
0010
0000
1100
0000
0010
,
0001
1100
0000
0001
0001
0011
0001
1000
,
0000
0110
0000
1001
0000
1001
0000
1000
,
0100
0010
0100
0001
0000
0011
1000
0100
,
0000
0000
1000
1000
0100
0100
0001
0100
,
0010
0100
0000
1000
0010
0000
0000
0010
,
1010
0100
0001
1000
0001
1000
1000
0000
,
0011
0100
0100
0100
0100
1000
0001
0000
,
1100
0101
0000
0010
0100
1000
1000
0100
,
0001
0010
0010
0100
0001
0010
0101
0000
,
0010
0010
0001
0001
1010
0010
1000
0000
,
0011
0000
0101
0000
0011
1000
0000
1001
,
0010
0010
1000
0010
1000
0100
0010
0001
,
0000
0001
0100
0010
0000
1000
0000
0001
,
0001
0000
0110
0000
0000
0111
0001
0001
,
0100
0010
0000
1001
1000
1000
0001
1000
,
1000
1000
1000
0010
0010
1000
0100
1001
,
0000
1100
0000
0010
0001
0000
1100
0000
,
1001
0001
0100
0001
0001
0001
0001
0001
,
0001
0001
1000
0100
0010
0100
1000
0010
,
0001
1000
1000
0001
0100
0100
0000
1001
,
0000
1010
0000
1010
0000
0101
0000
0110
,
0000
0010
1000
0001
0000
1000
0000
0000
,
1000
0001
0100
0010
1000
0000
0001
0000
,
0001
0000
0010
1000
0000
0100
0100
0100
,
1000
0011
0100
0000
0000
0100
0000
0011
,
0000
1001
0000
0100
1000
0100
0001
0000
,
0010
1000
0100
0010
0000
1100
0000
0101
,
0000
1100
0000
0000
0001
0001
0100
0001
,
0000
0101
0000
0110
0000
0010
0001
0000
,
0010
0000
0002
0000
0000
0100
0003
1000
,
0000
1000
0100
0000
1000
0000
0001
0000
,
1000
0000
0001
0000
1000
1000
0000
0000
,
0100
0100
0000
0010
0000
0001
0000
0100
,
0000
0200
0000
0000
0010
0300
0001
0010
,
0010
0000
1000
0020
0000
0000
1000
0000
,
0030
0000
0000
1010
0000
0100
0000
0000
,
0100
0000
0010
0000
0100
0000
0010
2000
,
0000
0000
0000
0000
3001
0001
0000
0100
,
0100
0002
0000
0013
,
1000
0010
1000
1100
0100
0000
0022
0000
,
0000
0000
0000
0033
1100
0000
1010
0000
,
0001
0000
0001
0000
1000
0001
0010
0000
,
1010
0000
0100
0010
0000
0001
0001
0000
,
1100
0001
0000
1010
0000
0011
0000
0000
,
0001
1000
0010
0010
0100
1000
0100
0000
,
0110
0000
0000
0110
0000
0101
0001
0001
,
0000
1100
0000
0001
0000
0001
0010
0100
,
0001
0001
0010
1000
0001
0000
0000
0001
,
1000
0000
0100
0001
0010
1000
0010
1000
,
0001
0010
0100
0010
1000
0100
0100
0010
,
0100
1100
0000
1100
0000
1100
0000
0110
,
0001
0010
0001
0010
0010
0100
0100
1000
,
0100
0001
1000
0100
1000
0001
0010
0001
,
0100
1000
0001
0001
0100
0001
0001
0001
,
0100
0010
1000
0010
1000
1000
0011
0000
,
0010
0001
0100
1000
0110
0000
1001
0000
,
1100
0000
0110
0000
0011
0000
0010
0001
,
0100
0000
0101
0010
0000
1100
0100
0010
,
0010
1000
0010
0000
0011
0000
1001
0000
,
0000
0000
0001
1000
0001
0001
0000
1010
,
0001
1000
0000
0101
0001
0100
0010
0010
,
0100
0110
0000
0011
0000
0101
0000
0110
,
0000
0001
0100
0001
0001
0100
1010
0000
,
0010
0110
0001
0100
0001
0001
0000
1100
,
0000
1000
0101
0000
0100
1001
0000
0001
,
0010
0010
1000
0100
0010
0001
0010
0100
,
0010
0011
0000
0011
0000
1000
0001
0100
,
1000
0001
0010
0000
0110
0000
1010
0000
1100
0100
0000
0100
0011
0001
0010
0001
,
0010
0011
0000
0011
0000
0010
0001
1100
0000
0120
0000
0000
1100
0030
1000
0001
,
0001
0000
0110
0000
1100
0000
1010
0000
0101
0000
1010
0000
0001
0011
0000
0100
,
0100
1010
0000
0000
0110
1000
0000
0001
0001
0010
0100
0000
0001
0110
0001
2000
,
0000
0200
0000
0000
0000
0000
0000
3300
0000
0000
0000
0000
0000
0000
0000
0000
,
0000
0022
0000
0000
0000
0000
0000
0000
0000
0000
0000
0000
0030
0003
0000
0000
,
0010
0010
0010
0010
,
0010
0011
0100
0100
,
1001
0100
0001
0110
,
0100
1100
0010
0000
,
0001
0020
0000
0002
,
0000
0000
0000
0000
,
0000
0000
0000
0000
,
0000
0000
0000
0000
,
0030
0000
0000
0000
0000
0000
0000
0000
0000
0000
0000
0000
0000
0000
0000
0000
0000
0000
0000
0000
0000
0000
0000
0000
0000
0000
0000
0000
0000
0000
0000
0000
0000
0000
0000
0000
0000
0000
0000
0000
0000
0000
0000
0000
0000
0000
0000
0000
2000
0000
0000
0000
0000
0000
0000
0000
0000
0000
0000
0000
0000
0000
0000
0000
0000
0000
0000
0000
0000
0000
0000
0000
0000
0000
0000
0000
0000
0000
0000
0000
0000
0000
0000
0000
0000
0000
0000
0000
0000
0000
0000
0000
0000
0000
0000
0000
0000
3003
0000
0000
0000
0000
0000
0000
0000
0000
0000
0000
0000
0000
0000
0000
0000
0000
0000
0000
0000
0000
0000
0000
0000
0000
0000
0000
0000
0000
0000
0000
0000
0000
0000
0000
0000
0000
0000
0000
0000
0000
0000
0000
0000
0000
0000
0000
0000
0000
0000
0000
0000
0000
0000
0000
0000
0000
0000
0000
0000
0000
0000
0000
0000
0000
0000
0000
0000
0000
0000
0000
0000
0000
0000
0000
0000
0000
0000
0000
0000
0000
0000
0000
0000
0000
0000
0000
0000
0000
0000
0000
0000
0000
0000
0000
;
