#TITLE:RAY;
#SUBTITLE:;
#ARTIST:MILK;
#TITLETRANSLIT:;
#SUBTITLETRANSLIT:;
#ARTISTTRANSLIT:;
#CREDIT:;
#BANNER:ray.png;
#BACKGROUND:ray-bg.png;
#LYRICSPATH:;
#CDTITLE:!HSTTitle.png;
#MUSIC:ray.mp3;
#OFFSET:0.020;
#SAMPLESTART:29.676;
#SAMPLELENGTH:12.000;
#SELECTABLE:YES;
#BPMS:0.000=146.000,32.250=73.000,34.250=146.000,62.250=73.000,64.250=146.000,92.250=73.000,110.000=146.000;
#STOPS:142.500=1.340
;
#BGCHANGES:;
// cache tags:
#FIRSTBEAT:4.000;
#LASTBEAT:240.000;
#SONGFILENAME:Songs/Keyboard Collaboration II/HST - RAY/ray.sm;
#HASMUSIC:1;
#HASBANNER:1;
#MUSICLENGTH:113.509;
// end cache tags

//---------------dance-single - ----------------
#NOTES:
     dance-single:
     :
     Hard:
     13:
     1.000,1.000,1.000,0.097,1.000,738.000,137.000,11.000,0.000,0.000:  // measure 1
0000
0000
0000
0000
,  // measure 2
1001
0000
0000
0001
0010
0000
0001
0000
0001
0000
0000
0010
0001
0000
0010
0000
,  // measure 3
0010
0000
0000
0100
0010
0000
0100
0000
0100
0000
0000
0010
0100
0000
0010
0000
,  // measure 4
0010
0000
0000
0001
1000
0000
0010
0000
0010
0000
0000
1000
0001
0000
0010
0000
,  // measure 5
0010
0000
0000
0100
1000
0000
0100
0000
0100
0000
0000
1000
0100
0000
1000
0000
,  // measure 6
1000
0000
0000
0010
1000
0000
0010
0000
0010
0000
0000
1000
0010
0000
1000
0000
,  // measure 7
1000
0000
0000
0001
0010
0000
0001
0000
0001
0000
0000
0010
0001
0000
0010
0000
,  // measure 8
0010
0000
0000
0001
1000
0000
0001
0000
0001
0000
0000
1000
0001
0000
1000
0000
,  // measure 9
0000
0000
2002
0000
0000
0000
0000
0000
3003
0000
0000
0000
0000
0000
0001
0010
0001
1000
0001
0000
0000
0000
0100
0000
0011
0000
0000
0000
0100
0000
0000
0000
,  // measure 10
1010
0000
0000
0010
1100
0000
0010
0000
0101
0000
0000
0001
0110
0000
1000
0000
,  // measure 11
0110
0000
0000
1000
0110
0000
0001
0000
0110
0000
0000
1000
0101
0000
0001
0000
,  // measure 12
1100
0000
0000
0001
1100
0000
1000
0000
0101
0000
0000
0010
1100
0000
0010
0000
,  // measure 13
0101
0000
0000
1000
0110
0000
0001
0000
0110
0000
0000
1000
0110
0000
0001
0000
,  // measure 14
0110
0000
0000
1000
0101
0000
0001
0000
1100
0000
0000
0001
1100
0000
1000
0000
,  // measure 15
0101
0000
0000
0010
1001
0000
0100
0000
1001
0000
0000
0100
1001
0000
0010
0000
,  // measure 16
1001
0000
0000
0000
0000
0000
0010
0000
1100
0000
0000
0000
0010
0000
0000
0000
0101
0000
2001
0000
0001
0001
0000
0001
0000
0001
0000
0000
0001
0001
0000
0001
,  // measure 17
0000
3001
0000
0000
0000
0000
0100
0000
1001
0000
0000
0000
1010
0000
0000
0000
0101
0000
0000
0000
0000
0000
0010
0000
1100
0000
0000
0000
1001
0000
0000
0000
,  // measure 18
0101
0000
0000
0100
1010
0000
1001
0000
0011
0000
0000
1000
0110
0000
0011
0000
,  // measure 19
0110
0000
0000
0001
0110
0000
1010
0000
0110
0000
0000
0010
1100
0000
1001
0000
,  // measure 20
0101
0000
0000
0100
1010
0000
1001
0000
0011
0000
0000
0010
1001
0000
1010
0000
,  // measure 21
0011
0000
0000
0100
1001
0000
0011
0000
1100
0000
0000
0010
1100
0000
0110
0000
,  // measure 22
0101
0000
0000
0010
0101
0000
0110
0000
1100
0000
0000
1000
0110
0000
0011
0000
,  // measure 23
0110
0000
0000
0001
0110
0000
1100
0000
0110
0000
0000
0100
0011
0000
1001
0000
,  // measure 24
1010
0000
2001
0000
0001
0001
0000
0001
0000
0001
0000
0000
0001
0001
0000
0001
0000
3001
1000
0100
1000
0010
0100
0001
0010
0000
0001
0010
0001
1000
0100
0010
,  // measure 25
0001
0000
1000
0010
0100
0010
0100
0001
0010
0000
0001
0010
0001
1000
0010
0100
0001
0100
0010
1000
0010
0100
0001
0010
0100
0000
1000
0100
1000
0010
0100
0001
,  // measure 26
0010
0000
0001
1000
0010
1000
0001
0010
0001
0000
1000
0100
1000
0001
1000
0100
1000
0001
1000
0010
1000
0100
1000
0010
0100
0000
0010
0100
0001
0010
0100
1000
,  // measure 27
0010
0000
0100
0010
1000
0010
0100
0001
0010
0000
0001
0010
0001
1000
0010
0100
0001
0010
0001
1000
0010
0100
0001
0010
0100
0000
1000
0100
1000
0010
0100
0001
,  // measure 28
0010
0000
0100
1000
0010
0100
0001
0010
0100
0000
1000
0010
1000
0001
1000
0100
1000
0000
0000
0000
1000
0000
0100
0000
1000
0000
0010
0000
0100
0000
0001
0000
,  // measure 29
0010
0000
0010
0001
0010
0100
1000
0010
0100
0000
0100
0010
1000
0010
0100
0001
,  // measure 30
0010
0000
0010
0001
1000
0010
0100
0001
0010
0001
1000
0010
0100
0001
0010
0001
,  // measure 31
0010
0000
0010
0001
1000
0010
0100
0001
0010
0000
0010
0001
1000
0010
0100
0001
,  // measure 32
1000
0000
1000
0010
0100
0001
1000
0010
0100
0001
0100
0010
1000
0001
0010
0100
,  // measure 33
0000
0100
1000
0100
1000
0010
0100
0001
0010
0000
0010
0001
1000
0010
0100
0001
,  // measure 34
0010
0000
0010
0001
0010
0100
1000
0010
0100
0010
1000
0100
0010
0001
1000
0001
,  // measure 35
0100
0001
0010
0001
1000
0001
0010
0001
1000
0010
1000
0100
1000
0100
0010
0001
,  // measure 36
0010
0001
1000
0010
0100
0001
0010
0100
1000
0100
0220
0330
0000
0010
0001
0010
,  // measure 37
0100
1000
0010
0000
0010
1000
0010
1000
0100
0010
0001
0000
0001
0010
0001
1000
,  // measure 38
0010
0100
0001
0000
0001
1000
0010
0100
0001
0010
0100
1000
0100
1000
0010
0100
,  // measure 39
0001
0010
0100
0000
0100
1000
0100
1000
0010
0100
0010
1000
0000
0001
0010
0001
,  // measure 40
1000
0010
0100
0001
0000
0001
0010
0001
1000
0001
0100
0001
0100
0010
1000
0100
,  // measure 41
1000
0100
0010
0000
0010
0001
0010
0001
1000
0010
0100
0010
0000
0010
1000
0100
,  // measure 42
0010
0001
1000
0000
1000
0001
1000
0010
0100
0001
0100
0001
0100
0010
0100
0010
,  // measure 43
1000
0001
0010
0000
0010
0001
0010
0001
1000
0010
1000
0001
0000
1000
0100
1000
,  // measure 44
0001
0100
0001
1000
0000
0001
1000
0001
1000
0001
1000
0001
0000
0001
0010
1100
,  // measure 45
0000
1000
0010
0101
0000
0001
1000
0110
0000
1000
0001
0110
0000
0010
0001
1100
,  // measure 46
0000
0010
1000
0101
0000
0001
1000
0110
0000
0100
0010
1001
0000
0010
0100
1001
,  // measure 47
0000
0001
0010
1100
0000
1000
0010
0101
0000
0001
0010
1100
0000
1000
0010
0101
,  // measure 48
0000
0001
1000
0110
0000
1000
0001
0110
0000
0001
0010
1100
0000
1000
0010
0100
,  // measure 49
0010
1000
0010
0100
0001
0010
0100
1000
0010
0100
0010
1000
0100
0010
0001
0010
,  // measure 50
0100
1000
0010
0100
0001
0010
0100
1000
0001
1000
0010
0100
0001
0010
0100
1000
,  // measure 51
0010
0000
0100
0000
0001
0000
0010
0000
0100
0000
1000
0000
0010
0000
0100
0000
0001
0000
0010
0000
0100
0000
1000
0000
0000
0000
1000
0100
0010
0001
1000
0010
,  // measure 52
0100
0001
0010
0100
1000
0010
0100
0001
0010
0100
1000
0010
0100
0001
0010
0100
1000
0010
0100
0001
0010
0100
1000
0010
0100
0001
0100
0000
0000
0000
0100
0000
,  // measure 53
1001
0000
0011
0000
1100
0000
0000
0010
1100
0000
1001
0000
0101
0000
0000
0001
,  // measure 54
0110
0000
1100
0000
0110
0000
0000
1000
0110
0000
0011
0000
0110
0000
0000
1000
,  // measure 55
0101
0000
1001
0000
1100
0000
0000
0010
1100
0000
1001
0000
0101
0000
0000
0010
,  // measure 56
1001
0000
0110
0000
1001
0000
0000
0001
0110
0000
1100
0000
0110
0000
0000
0010
,  // measure 57
1100
0000
1001
0000
0101
0000
0000
0001
0110
0000
1100
0000
0110
0000
0000
0010
,  // measure 58
1001
0000
0110
0000
1001
0000
0000
0100
1010
0000
1001
0000
0011
0000
0000
0100
,  // measure 59
1001
0000
0101
0000
1100
0000
0000
0100
1001
0000
1100
0000
0101
0102
0000
0103
,  // measure 60
0000
0120
0000
0130
0000
0102
0000
0103
0010
1000
0010
0100
0001
0202
0000
0000
,  // measure 61
0303
0000
0000
0000
;
