#TITLE:Chlorophyll;
#SUBTITLE:;
#ARTIST:Venetian Snares;
#TITLETRANSLIT:;
#SUBTITLETRANSLIT:;
#ARTISTTRANSLIT:;
#CREDIT:;
#BANNER:chlorobanner.PNG;
#BACKGROUND:chloro-bg.PNG;
#LYRICSPATH:;
#CDTITLE:;
#MUSIC:11 - venetian snares - chlorophyll.mp3;
#OFFSET:-2.057;
#SAMPLESTART:76.682;
#SAMPLELENGTH:22.320;
#SELECTABLE:YES;
#BPMS:0.000=164.000;
#STOPS:;
#BGCHANGES:;
// cache tags:
#FIRSTBEAT:0.000;
#LASTBEAT:404.000;
#SONGFILENAME:Songs/Essential Sim Collection/(Tailsman) Chlorophyll/chloro.sm;
#HASMUSIC:1;
#HASBANNER:1;
#MUSICLENGTH:153.683;
// end cache tags

//---------------dance-single - ----------------
#NOTES:
     dance-single:
     :
     Hard:
     12:
     1.000,1.000,0.605,0.722,1.000,910.000,93.000,111.000,0.000,0.000:
2000
0000
3020
0000
,
0000
0000
0000
0000
,
2030
0000
0000
0000
3002
0000
0000
0203
,
0000
0000
0300
0000
,
0000
0020
0000
2030
,
0000
3000
0000
0000
,
0000
0002
0000
0023
,
0000
0230
0000
0000
0000
0000
0300
0000
,
0000
0000
2000
0000
,
3002
0000
0003
0000
,
0000
0000
0020
0000
,
0230
0000
0000
0302
0000
0000
0003
0000
,
0000
0000
0000
0020
,
0000
0000
0230
0000
0000
2300
0000
0000
,
3000
0000
0000
2000
,
0000
0000
3200
0000
0000
0320
0000
0000
,
0030
0000
0000
0000
,
1010
0000
0100
0000
1000
0100
0010
0100
0001
0000
0100
0000
1010
0000
0000
0000
,
0100
0000
0000
0000
1000
0010
0100
0001
1010
0000
0000
0000
0000
0000
0000
0000
,
1000
0100
1000
0000
0001
0010
0001
0000
0000
0000
0000
0000
0100
0000
0000
0000
0020
0000
0000
0000
0002
0000
0000
0000
0033
0000
0000
0000
1000
0000
0100
0000
,
1000
0000
0000
0000
0100
0000
0010
0000
0000
0000
0000
0000
1000
0000
0000
0010
0000
0000
0000
0000
0000
0100
0000
0000
0000
0000
0000
0000
0000
0000
0000
0000
0000
0000
0000
0000
0010
0000
0000
0001
0000
0000
1000
0000
0000
0000
0000
0000
,
0001
0000
0000
0000
0100
0000
1000
0000
0020
0000
0000
0000
0000
0000
0000
0000
0030
0000
0000
0000
1000
0000
0100
0000
1000
0000
0000
0000
0001
0010
0100
0000
,
1000
0000
0001
0000
1000
0000
0100
0000
0010
0100
1000
0000
0010
0000
0001
0000
0010
0000
0100
0000
0020
0000
0000
0000
0000
0000
0000
0000
0000
0000
0000
0000
,
0030
0000
0000
0000
0000
0000
0000
0000
0010
1000
0010
0000
0100
0001
0100
0000
0010
0000
1000
0000
0100
0000
0000
0000
0020
0000
0000
0000
0000
0000
0000
0000
,
0031
0100
0001
0100
0010
1000
0010
1000
0010
0100
1001
0100
0010
0001
1000
0001
,
1000
0110
1000
0100
0010
0000
0100
0001
0010
0100
0010
0000
1000
0000
0010
0000
,
0001
0010
0100
1000
0100
0000
0000
0000
0200
0000
0300
0000
0200
0000
0300
0000
,
1001
0000
0000
0000
0010
0000
0000
0000
1001
0000
0000
0000
0000
0000
0000
0000
0100
0010
0001
0000
0100
0010
0001
0000
0010
0000
1000
0000
0010
0000
1000
0000
,
0200
0000
0310
0000
0002
0023
0032
0003
2000
3000
0000
0000
0110
0000
0000
0000
,
0101
0010
1000
0010
0200
1300
0010
0100
2000
3100
0010
0001
0020
0130
1000
0010
,
0002
0000
0013
0000
0100
0000
1000
0000
0010
0000
0000
0000
0010
0000
0000
0000
0010
0100
1000
0000
0000
0000
0010
0100
1000
0000
0000
0000
0010
0000
0000
0000
,
1100
0000
0000
0010
0000
0000
0100
0000
0000
0010
0000
0000
1001
0000
0000
0000
0000
0000
1001
0000
0000
0000
0000
0000
1100
0000
0000
0010
0000
0000
1100
0000
0000
0010
0000
0000
1100
0000
0001
0000
0010
0000
0100
0000
0001
0000
0010
0000
,
1000
0000
0000
0000
0000
0000
0000
0000
0120
0000
0000
0000
2030
0000
0000
0000
3001
0010
0001
0000
0020
0000
0000
0000
0130
0000
0000
0000
1001
0000
0010
0000
,
0100
0020
2030
3100
0010
0100
0010
0001
0020
0130
1000
0010
1100
0000
0000
0000
,
1100
0000
0000
0000
0000
0000
1010
0100
1010
0000
0000
0000
1000
0100
0010
1000
,
0101
0000
0010
0000
0001
0000
0000
0000
0000
0000
0000
0000
1100
0000
0010
0001
0010
0000
0000
0000
0000
0000
0000
0000
0000
0000
0000
0000
0000
0000
0000
0000
,
1000
0100
0010
0000
1000
0100
0010
0000
1000
0100
0010
0000
0001
0100
0001
0100
0001
0000
0001
0000
1010
0000
0000
0000
0110
0000
0000
0000
0001
0000
0001
0000
,
1010
0000
0100
0000
0011
0000
0000
0000
1100
0010
0100
0010
1001
0000
0000
0000
,
1001
0000
0000
0000
0000
0000
1000
0100
0010
0000
0001
0000
1010
0000
0001
0000
1010
0000
0001
0000
0100
0000
0010
0000
0001
0000
1000
0000
0010
0000
0100
0000
,
0001
0000
1000
0100
0010
0100
0001
1000
0010
0100
0002
0100
1000
0000
0000
0000
,
0003
0000
0000
0000
0000
0000
0000
0000
1000
0100
0010
0000
0001
0000
0010
0000
0000
0000
0000
0000
0010
0000
0000
0000
0200
0000
0000
0000
0300
0000
0000
0000
,
1010
0000
0001
0010
1001
0100
0010
0100
1010
0100
0001
0010
0102
0000
0003
0000
,
0010
0000
0000
0000
2000
0000
3100
0000
0101
0000
0000
0000
0000
0000
0010
0100
,
1002
0000
0000
0000
0000
0000
0000
0000
0103
0000
0010
0000
0200
0000
0000
0000
0310
0000
0001
0000
0100
0000
0000
0000
0000
0000
0000
0000
0100
0000
0010
0100
,
1000
0000
0000
0000
0000
0000
0000
0000
0000
0000
0000
0000
0000
0000
0000
0000
0100
0010
0001
0000
0100
0010
0001
0000
1010
0000
0000
0000
0100
0000
0010
0000
,
0001
0100
0010
0000
1000
0000
1000
0100
0020
0000
0000
0030
0020
0000
0000
0030
,
1001
0000
0100
0000
0011
0000
0100
0000
1010
0000
0000
0000
0000
0000
0000
0000
0100
0000
0000
0000
0000
0000
1000
0100
0012
0000
0000
0000
0003
0000
0000
0000
,
0000
0000
0000
0000
0100
0000
0010
0000
1100
0000
0010
0000
0100
0000
1000
0000
0110
0000
0001
0000
0010
0000
0100
0000
2000
0000
3000
0000
0010
0100
0010
0001
,
0100
0100
1010
0000
0200
0000
0310
0000
0020
0000
0130
0000
2000
0000
3100
0000
,
2000
0000
3200
0000
0320
0000
0032
0000
0013
0100
1000
0000
0010
0100
1000
0000
0100
0000
0010
0000
0001
0000
0010
0000
2000
0000
0000
0000
0000
0000
0000
0000
,
0000
0000
0000
0000
0000
0000
3100
0010
,
0001
0000
0000
0010
0100
0001
1000
0010
0200
0000
0000
0000
0310
0001
1000
0100
,
0010
0000
1001
0000
0100
0010
0001
0010
0200
0000
0000
0000
1300
0100
0010
0001
,
1010
0100
1000
0010
0001
1000
0010
0100
0002
0000
0000
0000
0013
0100
1000
0100
,
0010
0000
0001
0010
0100
0000
1000
0000
0010
0100
1000
0001
0100
0010
0100
1000
,
0010
0000
0000
0000
1000
0100
0010
0001
2000
0000
0000
0000
3100
0000
0000
0000
0010
0000
0100
0000
0001
0000
0010
0000
2000
0000
0000
0000
0000
0000
0000
0000
,
3200
0000
0300
0000
1001
0000
0010
0000
1000
0100
0010
0001
0020
0000
0030
0000
,
1100
0001
1000
0010
0101
0010
0100
1000
0110
0001
1000
0100
1020
0000
0000
0000
,
1030
0001
0010
0100
1000
0000
0110
1000
0100
0010
1100
0001
1000
0100
0010
0001
,
1100
0000
1100
0000
0010
0001
0010
0100
2000
0000
0000
0000
3100
0010
0001
0010
,
2000
0000
0000
0000
3010
0100
1000
0100
0010
0001
1000
0100
1010
0100
0001
0100
,
0020
0000
0000
0000
0031
0100
0010
0100
1000
0100
0010
0001
1000
0100
0010
0001
,
1000
0000
0100
0000
0010
0001
0010
0100
1000
0100
0010
0000
1000
0010
0100
0010
,
2000
0000
0000
3000
2000
0000
0000
3000
1001
0000
0001
0100
0001
0100
0010
1000
,
0100
0010
1000
0100
0011
0000
0000
0000
0110
0000
0000
0000
1100
0000
0000
0000
,
1000
0100
0010
0000
0010
0000
0000
0000
0010
0100
1000
0100
0010
0001
1000
0010
,
0100
0001
1000
0010
0200
0000
0000
0000
0000
0000
0000
0000
0000
0000
0000
0000
,
0000
0000
0000
0000
0000
0000
0000
0000
0010
0000
0000
0000
0000
0000
0000
0000
0010
0000
0000
0000
0000
0000
0000
0000
0310
0000
0000
0000
0001
0010
0100
1000
,
0002
0000
0000
0000
0000
0000
0000
0000
0003
0000
0000
0000
0000
0000
0010
0100
1000
0000
0000
0000
0000
0000
0000
0000
0000
0000
0000
0000
0000
0000
1000
0100
,
0010
0000
0001
0000
0010
0000
0000
0000
0000
0000
0000
0000
0010
0000
0001
0010
0100
0000
0000
0000
0000
0000
0000
0000
0100
0000
0000
0000
0000
0000
0000
0000
,
1001
0100
0010
0000
1001
0100
0010
0000
1001
0100
0010
0000
0000
0000
0000
0000
0100
0000
0010
0000
1001
0000
0000
0000
0010
0000
0000
0000
1000
0000
0100
0000
,
0020
0000
0000
0000
0030
0000
0000
0000
1000
0001
1000
0100
0010
0000
0000
0000
,
1000
0000
0000
0000
0000
0000
1000
0100
0020
0000
0000
0000
0000
0000
0000
0000
0030
0000
0000
0000
0100
0000
0010
0000
0001
0000
1000
0000
0100
0000
0010
0000
,
1000
0001
0010
0100
0010
0100
1000
0100
0010
1000
0200
0010
0001
0000
0000
0000
,
0300
0000
0000
0000
0000
0000
0000
0000
0010
0100
0010
0000
1000
0000
0100
0000
1000
0000
0001
0000
0010
0000
0000
0000
0200
0000
0000
0000
0300
0000
0000
0000
,
1010
0100
0010
0000
1010
0000
0000
0000
0010
1000
0100
0001
0010
0000
0000
0000
,
0001
1000
0010
0100
2001
3100
0012
1003
0100
0000
0000
0000
0000
0000
0010
0100
,
2000
0000
3020
0030
0101
0000
0101
0000
,
1000
0000
0000
0000
0000
0000
0000
0000
1010
0000
0000
0000
0000
0000
0000
0000
0100
0010
0001
0000
0100
0010
0001
0000
0010
0000
1000
0000
0100
0000
0001
0000
,
0020
0000
0000
0000
2030
3002
0023
0030
0020
0030
0000
0000
1100
0000
0000
0000
,
0001
1000
0010
0100
1000
0001
0010
0100
1000
0100
0010
1000
0200
0000
0000
0000
,
0000
0000
0000
0000
0310
0000
1000
0000
0001
0000
0010
0000
1000
0000
0100
0000
1000
0000
0010
0000
0100
0000
0001
0000
2000
0000
0000
0000
3100
0010
0001
0010
,
0100
0010
1000
0001
0200
0000
0310
0000
0002
0000
0013
0000
0100
0000
1000
0000
,
2000
0000
3200
0000
0320
0000
0030
0000
0001
0010
0100
0000
0001
0010
0100
0000
0010
0000
1000
0000
0100
0000
0010
0000
0200
0000
0000
0000
0000
0000
0000
0000
,
0000
0000
0000
0000
,
0301
0000
0000
0010
0100
0001
1000
0010
2000
0000
0000
0000
3100
0010
0001
1000
,
0100
0000
1010
0000
0100
0001
0010
0001
0020
0000
0000
0000
0130
1000
0100
0010
,
0101
0010
1000
0010
0100
0001
0010
0100
2000
0000
0000
0000
3010
0100
0001
0010
,
1000
0000
1000
0010
0100
0000
0010
0000
0001
0100
0010
0001
0100
1000
0010
0100
,
0010
0000
0000
0000
0001
0010
0100
1000
0002
0000
0000
0000
0103
0000
0000
0000
0010
0000
0100
0000
1000
0000
0100
0000
0020
0000
0000
0000
0000
0000
0000
0000
,
0032
0000
0003
0000
1100
0000
0010
0000
1000
0001
0010
0100
0020
0000
0030
0000
,
1100
0010
0001
0100
1010
0001
0010
1000
0011
0100
0001
0010
1002
0000
0000
0000
,
0103
1000
0010
0100
1000
0000
0011
0100
1000
0100
1010
0001
0010
0100
1000
0001
,
0110
0000
0110
0000
1000
0001
0010
0100
0020
0000
0000
0000
0130
0010
1000
0010
,
2000
0000
0000
0000
3010
0100
1000
0100
0010
0001
1000
0100
1010
0100
0001
0100
,
0020
0000
0000
0000
0031
0100
0001
0010
0100
1000
0010
0100
1000
0001
0010
0100
,
1000
0000
0100
0000
0010
0001
0010
0100
1000
0000
0000
0100
0001
0000
0000
0110
,
0000
0000
0000
0000
0000
0000
0000
0000
0001
0000
0100
0000
0010
0000
1000
0000
0002
0000
0000
0000
1003
0100
0010
0001
1000
0000
0100
0000
0001
0000
1000
0000
,
0100
0010
1000
0100
1001
0000
0000
0000
0101
0000
0000
0000
1010
0000
0000
0000
,
1000
0100
0010
0000
0101
0000
0000
0000
0101
0010
0001
0100
1000
0010
0100
1000
,
0010
0001
1000
0010
2002
0000
0000
0000
0000
0000
0000
0000
0000
0000
0000
0000
,
3003
0000
0000
0000
;
