#TITLE:V;
#SUBTITLE:;
#ARTIST:dj TAKA;
#TITLETRANSLIT:;
#SUBTITLETRANSLIT:;
#ARTISTTRANSLIT:;
#CREDIT:;
#BANNER:v.png;
#BACKGROUND:v-bg.png;
#LYRICSPATH:;
#CDTITLE:;
#MUSIC:V.mp3;
#OFFSET:1.850;
#SAMPLESTART:60.940;
#SAMPLELENGTH:12.000;
#SELECTABLE:YES;
#BPMS:0.000=150.000;
#STOPS:;
#BGCHANGES:;
// cache tags:
#FIRSTBEAT:5.000;
#LASTBEAT:313.000;
#SONGFILENAME:Songs/IzzySM Keyboard Mega Pack/V/V.sm;
#HASMUSIC:1;
#HASBANNER:1;
#MUSICLENGTH:128.295;
// end cache tags

//---------------dance-single - ----------------
#NOTES:
     dance-single:
     :
     Easy:
     5:
     0.477,0.549,0.249,0.086,0.000,385.000,32.000,11.000,0.000,0.000:  // measure 1
0000
0000
0000
0000
,  // measure 2
0000
0000
1000
0001
1000
0001
1000
0001
,  // measure 3
1000
1001
0100
0100
,  // measure 4
0100
0100
0100
0100
,  // measure 5
0100
1001
0010
0010
,  // measure 6
0010
0010
0010
0010
,  // measure 7
0010
1001
0100
1001
,  // measure 8
0010
1001
0100
1001
,  // measure 9
0010
0100
0001
0000
0001
0000
1000
0000
,  // measure 10
1000
0010
0100
0010
,  // measure 11
0100
0000
0001
0100
0001
0000
0001
0100
,  // measure 12
0001
0000
0001
0100
0001
0000
0001
0100
,  // measure 13
0001
0000
1000
0100
1000
0000
1000
0100
,  // measure 14
1000
0000
1000
0100
1000
0000
1000
0100
,  // measure 15
1000
1001
1001
1001
,  // measure 16
1001
0110
0110
1010
,  // measure 17
1010
0101
0101
0101
,  // measure 18
0101
0000
1000
0001
1000
0001
1000
0001
,  // measure 19
1000
0001
2000
0000
0000
0000
0000
0000
,  // measure 20
0000
3002
0000
0000
,  // measure 21
0000
1003
1000
0001
,  // measure 22
0001
1001
0001
1000
,  // measure 23
0001
0000
0010
0100
,  // measure 24
0010
0020
0000
0000
,  // measure 25
0000
0230
0000
0000
,  // measure 26
0000
0310
0010
0100
,  // measure 27
0100
1001
1000
0001
,  // measure 28
1000
0000
0010
0100
,  // measure 29
0010
2000
0000
0000
,  // measure 30
0000
3002
0000
0000
,  // measure 31
0000
1003
1000
0001
,  // measure 32
0001
1001
1001
1001
,  // measure 33
1001
0110
0110
0110
,  // measure 34
0110
1100
0011
1100
,  // measure 35
0011
2000
0000
0001
,  // measure 36
0001
3002
0000
0100
,  // measure 37
0100
0203
0000
0010
,  // measure 38
0010
0320
0000
0100
,  // measure 39
0100
0000
0031
1000
0001
1000
0001
1000
,  // measure 40
0001
1000
0010
0000
0010
0000
0010
0000
,  // measure 41
0010
0000
1000
0001
1000
0001
1000
0001
,  // measure 42
1000
0001
0100
0000
0100
0000
0100
0000
,  // measure 43
0100
0000
0001
1000
0001
1000
0001
1000
,  // measure 44
0001
1000
0010
0000
0010
0000
0010
0000
,  // measure 45
0010
0000
1000
0001
1000
0001
1000
0001
,  // measure 46
1000
0001
0100
0000
0100
0000
0100
0000
,  // measure 47
0100
0000
1000
0100
0010
0001
0010
0001
,  // measure 48
0010
0000
0001
0010
0100
1000
0100
1000
,  // measure 49
0100
0000
1000
0100
0010
0001
0010
0001
,  // measure 50
0010
0000
0001
0010
0100
1000
0100
1000
,  // measure 51
0100
0000
1000
0100
0001
0100
1000
0100
,  // measure 52
1000
0000
0001
0100
1000
0100
0001
0100
,  // measure 53
0001
0000
1000
0100
0001
0100
1000
0100
,  // measure 54
1000
0000
0001
0100
1000
0100
0001
0100
,  // measure 55
0001
0000
1000
0010
0001
0010
0001
0010
,  // measure 56
1000
0000
0001
0010
1000
0010
1000
0010
,  // measure 57
0001
0000
1000
0010
0001
0010
0001
0010
,  // measure 58
1000
0000
0001
0010
1000
0010
1000
0010
,  // measure 59
0001
0000
1000
0100
0001
0010
1000
0001
,  // measure 60
1000
0000
0001
0100
1000
0010
0001
1000
,  // measure 61
0001
0000
1000
0100
0001
0010
1000
0001
,  // measure 62
1000
0000
0001
0100
1000
0010
0001
1000
,  // measure 63
0001
1000
1000
1000
,  // measure 64
1000
0000
0001
1000
0001
1000
0010
0100
,  // measure 65
0010
0100
0001
0000
0001
0000
0001
0000
,  // measure 66
0001
0000
1000
0001
1000
0001
0100
0010
,  // measure 67
0100
0010
1000
0000
1000
0000
1000
0000
,  // measure 68
1000
0000
0001
1000
0001
1000
0010
0100
,  // measure 69
0010
0100
0001
0000
0001
0000
0001
0000
,  // measure 70
0001
0000
1000
0100
0010
0001
0010
0100
,  // measure 71
1000
0001
1000
0000
1000
0000
1000
0001
,  // measure 72
1000
0001
1000
0000
1000
0000
1000
0001
,  // measure 73
1000
0001
1000
0000
1000
0000
1000
0001
,  // measure 74
1000
0001
0100
0000
0100
0000
0100
0010
,  // measure 75
0100
0010
0100
0000
0100
0000
0100
0010
,  // measure 76
0100
0010
0100
0000
0100
0000
0100
0010
,  // measure 77
0100
0010
0200
0000
0000
0000
0000
0000
,  // measure 78
0000
0000
0000
0000
,  // measure 79
0000
0300
0000
0000
;

//---------------dance-single - ----------------
#NOTES:
     dance-single:
     :
     Medium:
     8:
     0.689,0.785,0.647,0.062,0.109,528.000,83.000,8.000,0.000,0.000:  // measure 1
0000
0000
0000
0000
,  // measure 2
0000
0000
1000
0001
1000
0001
1000
0001
,  // measure 3
1000
0001
1001
0010
1000
0100
0000
0010
,  // measure 4
0001
0100
0000
0010
1000
0001
0000
0010
,  // measure 5
0001
1000
1001
0010
0001
0100
0000
0010
,  // measure 6
1000
0100
0000
0001
1000
0100
0000
1000
,  // measure 7
0001
0100
1001
0010
1000
0010
1000
0010
,  // measure 8
1000
0010
1000
0001
0010
0001
0010
0001
,  // measure 9
0010
0001
0100
1000
0100
0001
0100
1000
,  // measure 10
0100
0001
0100
1000
0100
0001
1000
0001
,  // measure 11
1000
0001
1001
1000
0100
1000
0100
0001
,  // measure 12
0100
0010
0100
1000
0100
0010
0100
0001
,  // measure 13
0100
1000
1001
0001
0100
0001
0100
1000
,  // measure 14
0100
0010
0100
0001
0100
0010
0100
1000
,  // measure 15
0100
0001
1001
0010
1000
0100
0001
0100
,  // measure 16
1000
0010
1001
0010
0001
0100
1000
0100
,  // measure 17
0001
0010
1001
0010
0100
0010
1001
0100
,  // measure 18
0010
0100
1001
1001
0110
0110
1100
1100
,  // measure 19
0101
0101
0020
0000
0000
0000
2030
0000
,  // measure 20
0000
0001
0001
0001
,  // measure 21
3001
0000
0010
0100
1000
0001
0100
0010
,  // measure 22
0001
1000
1001
0000
1100
0000
1001
0000
,  // measure 23
0101
1001
1010
1001
,  // measure 24
0011
0020
0000
0032
,  // measure 25
0000
1000
1000
1000
,  // measure 26
1003
0000
0010
0100
0001
1000
0100
0010
,  // measure 27
1000
0001
1001
0000
1100
0000
1001
0000
,  // measure 28
0101
1001
1010
1001
,  // measure 29
0011
0200
0000
2300
,  // measure 30
0000
0001
0100
0001
,  // measure 31
3100
0000
0010
0100
1000
0001
0100
0010
,  // measure 32
0001
1000
1001
1000
1100
0000
1001
0001
,  // measure 33
0101
0000
1001
1000
1010
0000
1001
0001
,  // measure 34
0011
0000
0010
1000
0100
0001
0010
1000
,  // measure 35
0100
0001
1001
0000
0010
0000
1000
0000
,  // measure 36
0001
1001
0100
0001
,  // measure 37
1000
1001
0010
1000
,  // measure 38
0100
1001
0010
0001
,  // measure 39
0100
0000
1001
0010
0100
0010
0100
0010
,  // measure 40
0100
0000
0010
0000
0110
0000
1000
0100
1000
0000
0100
1000
0100
0000
1000
0000
,  // measure 41
0100
1000
1001
0000
0110
0000
1001
0000
,  // measure 42
0110
0000
0000
0000
1001
0000
0001
0010
0001
0000
0010
0001
0010
0000
0001
0000
,  // measure 43
0010
0001
0110
0000
1001
0000
0110
0000
,  // measure 44
1001
0000
0000
0000
0110
0000
0001
0100
0001
0000
0100
0001
0100
0000
0001
0000
,  // measure 45
0100
0001
1001
0000
0110
0000
1001
0000
,  // measure 46
0110
0000
0000
0000
1001
0000
0010
1000
0010
0000
1000
0010
1000
0000
0010
0000
,  // measure 47
1000
0010
0110
0000
1001
0000
0110
0000
,  // measure 48
1001
0000
1000
0100
0010
0001
1000
0100
,  // measure 49
0010
0001
1000
0100
0010
0001
1000
0100
,  // measure 50
0010
0001
0001
0001
0010
0001
0010
0001
,  // measure 51
0010
0001
0001
0010
0100
1000
0001
0010
,  // measure 52
0100
1000
1000
0100
0010
0001
1000
0100
,  // measure 53
0010
0001
0001
0100
1000
0100
0001
0100
,  // measure 54
1000
0100
0001
0100
0001
0100
0001
0100
,  // measure 55
1000
0100
1000
0100
0010
0001
1000
0100
,  // measure 56
0010
0001
1000
0000
1000
0001
1000
0001
,  // measure 57
0010
0001
1000
0001
0010
0001
1000
0100
,  // measure 58
1000
0001
1000
0100
1000
0001
1000
0100
,  // measure 59
1000
0010
1000
0100
1000
0100
1000
0100
,  // measure 60
0010
0001
1000
0100
1000
0100
1000
0100
,  // measure 61
0010
0001
0010
0001
0010
0100
0010
1000
,  // measure 62
0010
0100
0010
0100
0010
0100
0010
0100
,  // measure 63
0010
0000
0100
0000
0110
0000
0100
1000
0100
0000
1000
0100
1000
0000
0100
0000
,  // measure 64
1000
0100
1001
0000
0110
0000
1001
0000
,  // measure 65
0110
0000
0000
0000
1001
0000
0010
0001
0010
0000
0001
0010
0001
0000
0010
0000
,  // measure 66
0001
0010
0110
0000
1001
0000
0110
0000
,  // measure 67
1001
0000
0000
0000
0110
0000
0100
0001
0100
0000
0001
0100
0001
0000
0100
0000
,  // measure 68
0001
0100
1001
0000
0110
0000
1001
0000
,  // measure 69
0110
0000
0000
0000
1001
0000
1000
0010
1000
0000
0010
1000
0010
0000
1000
0000
,  // measure 70
0010
1000
0001
1000
0001
1000
0001
1000
,  // measure 71
0001
0000
1000
0000
0100
0000
1000
0100
1000
0000
0100
1000
0100
0000
1000
0000
,  // measure 72
0100
0000
1000
0000
0001
0000
0010
0001
0010
0000
0001
0010
0001
0000
0010
0000
,  // measure 73
0001
0000
0010
0000
0001
0000
0100
0001
0100
0000
0001
0100
0001
0000
0100
0000
,  // measure 74
0001
0000
0100
0000
0010
0000
1000
0010
1000
0000
0010
1000
0010
0000
1000
0000
,  // measure 75
0010
0000
1000
0000
0010
0000
0100
0010
0100
0000
0010
0100
0010
0000
0100
0000
,  // measure 76
0010
0000
0100
0000
0001
0000
1000
0001
1000
0000
0001
1000
0001
0000
1000
0000
,  // measure 77
0001
1000
2002
0000
0000
0000
0000
0000
,  // measure 78
0000
0000
3003
0000
;

//---------------dance-single - ----------------
#NOTES:
     dance-single:
     :
     Hard:
     10:
     1.000,1.000,1.000,0.016,1.000,881.000,154.000,2.000,0.000,0.000:  // measure 1
0000
0000
0000
0000
,  // measure 2
0000
0000
0000
0000
0001
1000
0001
1000
0001
1000
0001
1000
0010
0100
0010
0100
,  // measure 3
0010
0100
0010
0000
1001
0000
0010
0000
0100
0000
0010
0000
1000
0001
0010
0100
,  // measure 4
1000
0000
0001
1000
0110
0000
0001
0000
1000
0000
0001
0000
0100
0010
1000
0001
,  // measure 5
0100
0000
0010
0100
1001
0000
0100
0000
0010
0000
0100
0000
0001
1000
0100
0010
,  // measure 6
0001
0000
1000
0001
0110
0000
1000
0000
0001
0000
1000
0000
0010
0100
0001
1000
,  // measure 7
0010
0000
0110
0000
1001
0000
0000
1000
0001
0000
0000
1000
0001
0000
0000
1000
,  // measure 8
0001
0000
0000
0100
0010
0000
0000
0100
0010
0000
0000
0100
0010
0000
0000
1000
,  // measure 9
0001
0100
0010
1000
0001
0000
0000
0001
1000
0000
0000
1000
0001
0000
0000
0001
,  // measure 10
1000
0000
0000
1000
0010
0000
0000
0010
0100
0000
0000
0100
0010
0000
0000
0010
,  // measure 11
0100
0000
0000
0100
0001
1000
0001
0000
1000
0001
1000
0000
0100
0010
0100
0000
,  // measure 12
0010
0100
0010
0000
0100
1000
0100
0000
1000
0100
1000
0000
0001
0010
0001
0000
,  // measure 13
0010
0001
0010
0000
0001
0100
0010
0000
1000
0100
0010
0000
0001
0100
0010
0000
,  // measure 14
1000
0100
0010
0000
0001
0100
1000
0000
1000
0100
0001
0000
0001
0010
1000
0000
,  // measure 15
1000
0010
0001
0000
1000
0001
0100
0000
0001
1000
0100
0000
1000
0001
0010
0000
,  // measure 16
0001
1000
0010
0000
1000
0100
1000
0000
0001
0100
0001
0000
1000
0010
1000
0000
,  // measure 17
0001
0100
0001
0000
1001
0100
0010
0000
0001
1000
0001
0000
0110
0001
1000
0000
,  // measure 18
0010
0100
0010
0000
0001
1000
0001
1000
0010
0100
0010
0100
0001
0010
0100
1000
,  // measure 19
0010
0100
0001
0100
0001
1000
0000
0100
0000
0010
0000
0001
0000
1000
0000
0100
,  // measure 20
0000
0010
0000
0001
0000
1000
0100
0010
0001
1000
0100
0010
0001
0100
0010
1000
,  // measure 21
0001
0100
0010
1000
0001
0100
0001
1000
0001
0010
0001
1000
0001
0100
0010
1000
,  // measure 22
0100
0010
0001
0000
1001
0000
0010
0000
0100
0000
0010
0000
1000
0001
0010
0100
,  // measure 23
1000
0000
0001
1000
0110
0000
0001
0000
1000
0000
0001
0000
0100
0010
1000
0001
,  // measure 24
0100
0000
1001
0000
0000
0001
0000
0010
0000
0100
0000
1000
0000
0001
0000
0010
,  // measure 25
0000
0100
0000
1000
0000
0001
0010
0100
1000
0001
0010
0100
1000
0010
0100
0001
,  // measure 26
1000
0010
0100
0001
1000
0010
1000
0001
1000
0100
1000
0001
1000
0010
0100
0001
,  // measure 27
0010
0100
1000
0000
1001
0000
0100
0000
0010
0000
0100
0000
0001
1000
0100
0010
,  // measure 28
0001
0000
1000
0001
0110
0000
1000
0000
0001
0000
1000
0000
0010
0100
0001
1000
,  // measure 29
0010
0000
0110
0000
0000
0010
0000
0100
0000
0001
0000
1000
0000
0010
0000
0100
,  // measure 30
0000
0001
0000
1000
0000
0010
0100
0001
1000
0010
0100
0001
1000
0001
0010
0100
,  // measure 31
1000
0001
0010
0100
1000
0001
1000
0001
0100
0001
0010
0001
0100
0001
1000
0010
,  // measure 32
0100
0001
1000
0000
1001
0000
0000
0000
1001
0000
0000
0000
0110
0000
0000
0000
,  // measure 33
1001
1100
0011
0101
,  // measure 34
1010
0000
0000
0000
1000
0001
1000
0001
1000
0001
1000
0001
0100
0010
0100
0010
,  // measure 35
0100
0010
0100
0000
1001
0000
0010
0000
1100
0000
0010
0000
1000
0001
0010
0000
,  // measure 36
1100
0000
0001
1000
0110
0000
0001
0000
1010
0000
0001
0000
0100
0010
1000
0000
,  // measure 37
0101
0000
0010
0100
1001
0000
0100
0000
0011
0000
0100
0000
0001
1000
0100
0000
,  // measure 38
0011
0000
1000
0001
0110
0000
1000
0000
0101
0000
1000
0000
0010
0100
0001
0000
,  // measure 39
1010
1100
0110
0011
0110
1100
1001
0011
,  // measure 40
1001
0000
1100
0000
1001
0000
0010
0100
0010
0100
0010
0100
0010
0000
0110
0000
,  // measure 41
0110
0110
1010
0101
1010
0101
0011
1100
,  // measure 42
0011
0000
1100
0000
0110
0000
0001
1000
0001
1000
0001
1000
0001
0000
1001
0000
,  // measure 43
1001
1001
0101
1010
0101
1010
1100
0011
,  // measure 44
1100
0000
0011
0000
0101
0000
0010
1000
0010
1000
0010
1000
0010
0000
1010
0000
,  // measure 45
1010
1010
0101
1001
1100
1001
0011
1001
,  // measure 46
1010
0000
1001
0000
1010
0000
0100
0001
0100
0001
0100
0001
0100
0000
0101
0000
,  // measure 47
0101
0101
1010
1001
0011
1001
1100
1001
,  // measure 48
0101
0000
1001
0000
1000
0100
0010
0001
0010
0001
0100
0001
1000
0100
0010
0001
,  // measure 49
0010
0001
0100
0001
1000
0010
0100
0001
0010
0001
0100
0001
1000
0010
0100
0001
,  // measure 50
0010
0001
0100
0001
1000
0000
0001
1000
0010
0100
0001
1000
0010
0100
0001
1000
,  // measure 51
0010
0100
0010
0100
0001
0010
0100
1000
0001
0010
0100
1000
0001
0010
0100
1000
,  // measure 52
0001
0010
0100
1000
0010
1000
0100
0010
0001
1000
0100
0010
0001
1000
0100
0010
,  // measure 53
0001
1000
0100
0010
0001
0000
0001
0000
1000
0001
1000
0001
1000
0100
0010
0001
,  // measure 54
0100
0010
1000
0100
0010
0001
0100
0010
1000
0100
0010
0001
0100
0010
1000
0100
,  // measure 55
0010
0001
0100
0010
0100
0001
0010
0100
1000
0001
0010
0100
1000
0010
0100
0001
,  // measure 56
0010
0100
1000
0010
0100
0000
0000
0001
1000
0001
1000
0010
0100
0001
1000
0010
,  // measure 57
0100
0001
0100
1000
0100
0001
1000
0010
0001
0010
1000
0010
0100
0001
0010
1000
,  // measure 58
0010
0001
1000
0100
0001
0100
1000
0010
0100
0001
0010
0100
1000
0001
0100
0010
,  // measure 59
1000
0001
0100
0010
1000
0100
1000
0100
1000
0100
1000
0100
0010
0001
1000
0100
,  // measure 60
0010
0001
1000
0100
1000
0100
1000
0100
1000
0100
1000
0100
0010
0001
1000
0100
,  // measure 61
0010
0001
1000
0100
0010
0001
0010
0001
0010
0100
0010
0100
1000
0100
1000
0100
,  // measure 62
1000
0001
1000
0001
1000
0010
1000
0010
1000
0010
1000
0010
0100
0001
0100
0001
,  // measure 63
0100
0001
0100
0001
1000
0000
0100
0010
0100
0010
0100
0010
0100
0000
0110
0000
,  // measure 64
0110
0110
0101
1010
0101
1010
1100
0011
,  // measure 65
1100
0000
0011
0000
0110
0000
1000
0001
1000
0001
1000
0001
1000
0000
1001
0000
,  // measure 66
1001
1001
1010
0101
1010
0101
0011
1100
,  // measure 67
0011
0000
1100
0000
1010
0000
0100
0001
0100
0001
0100
0001
0100
0000
0101
0000
,  // measure 68
0101
0101
1010
1001
0011
1001
1100
1001
,  // measure 69
0101
0000
1001
0000
0101
0000
0010
1000
0010
1000
0010
1000
0010
0000
1010
0000
,  // measure 70
1010
0000
1010
0000
1000
0100
0010
0001
0010
0100
1000
0100
0010
0001
0010
0100
,  // measure 71
1000
0100
0010
0001
1000
0000
0010
0100
0010
0100
0010
0100
0010
0000
1001
0000
,  // measure 72
0110
0000
1001
0000
0110
0000
0001
1000
0001
1000
0001
1000
0001
0000
1001
0000
,  // measure 73
1001
0000
1001
0000
0101
0000
0010
1000
0010
1000
0010
1000
0010
0000
0101
0000
,  // measure 74
1010
0000
0101
0000
1010
0000
0100
0001
0100
0001
0100
0001
0100
0000
0101
0000
,  // measure 75
0101
0000
0101
0000
1001
0000
0010
0100
0010
0100
0010
0100
0010
0000
1001
0000
,  // measure 76
0110
0000
1001
0000
0110
0000
0001
1000
0001
1000
0001
1000
0001
0000
0110
0000
,  // measure 77
1001
0110
2002
0000
0000
0000
0000
0000
,  // measure 78
0000
0000
0000
3003
;
