#TITLE:Noiseman;
#SUBTITLE:;
#ARTIST:Zutsuu;
#TITLETRANSLIT:;
#SUBTITLETRANSLIT:;
#ARTISTTRANSLIT:;
#CREDIT:;
#BANNER:noiseman bn.png;
#BACKGROUND:noiseman bg.png;
#LYRICSPATH:;
#CDTITLE:;
#MUSIC:Noiseman.ogg;
#OFFSET:-20.265;
#SAMPLESTART:222.379;
#SAMPLELENGTH:20.210;
#SELECTABLE:YES;
#DISPLAYBPM:190.000;
#BPMS:0.000=190.000;
#STOPS:;
#BGCHANGES:;
// cache tags:
#FIRSTBEAT:0.250;
#LASTBEAT:832.000;
#SONGFILENAME:Songs/SHARPNELSTREAMZ v2/Noiseman/Noiseman.sm;
#HASMUSIC:1;
#HASBANNER:1;
#MUSICLENGTH:298.109;
// end cache tags

//---------------dance-single - 16- (TYLR)----------------
#NOTES:
     dance-single:
     16- (TYLR):
     Challenge:
     16:
     1.000,1.000,0.312,0.476,1.000,2319.000,93.000,142.000,176.000,0.000:
4000
3000
0000
1000
0100
0000
0000
0000
0010
0000
0000
0000
0001
0000
0000
0000
,
4000
3000
0000
1000
0100
0000
0000
0000
0010
0000
0000
0000
0001
0000
0000
0000
,
4000
3000
0000
1000
0100
0000
0000
0000
0010
0000
0000
0000
0001
0000
0000
0000
,
0400
0300
0000
0100
0010
0000
0000
0000
1000
0000
0000
0000
0001
0000
0000
0000
,
4000
3000
0000
1000
0100
0000
0000
0000
0010
0000
0000
0000
0001
0000
0000
0000
,
4000
3000
0000
1000
0100
0000
0000
0000
0010
0000
0000
0000
0001
0000
0000
0000
,
4000
3000
0000
1000
0100
0000
0000
0000
0010
0000
0000
0000
0001
0000
0000
0000
,
0400
0300
0000
0100
0010
0000
0000
0000
1000
0000
0000
0000
0001
0000
0001
0000
,
0040
0030
0000
0000
1100
0000
0000
0001
0010
0000
1100
0000
0000
0001
0100
0000
,
0400
0300
0000
0000
1010
0000
0000
0001
0100
0000
1010
0000
0000
0001
1000
0000
,
4000
3000
0000
0000
0110
0000
0000
0001
1000
0000
0110
0000
0000
1000
0001
0000
,
0004
0003
0000
0000
0110
0000
0000
1000
0001
0000
0110
0000
0000
0001
1000
0000
,
0400
0300
0000
0000
1010
0000
0000
0001
0100
0000
1010
0000
0000
0001
0010
0000
,
0040
0030
0000
0000
1100
0000
0000
0001
0010
0000
1100
0000
0000
0001
1000
0000
,
4000
0000
0000
3010
0000
0000
0000
0000
0000
0010
0000
0000
0100
0000
0000
0001
0000
0000
0100
0000
0001
0000
0100
0000
0001
0000
0000
0000
0000
0000
1000
0000
0000
0001
0000
0000
0000
0000
0000
0001
0000
0000
0010
0000
0000
0001
0000
0000
,
2M00
0000
0000
0000
3020
0000
0000
0000
1030
0000
0004
0000
0000
0100
0000
0000
,
1003
0000
0010
1000
0001
0010
0001
1000
0100
0010
0100
1000
0001
1000
0100
0010
,
0001
1000
0010
1000
0001
0010
0001
1000
0001
0100
0010
1000
0001
1000
0010
0100
,
0001
1000
0010
1000
0001
0010
0001
1000
0010
0100
0010
1000
0001
0010
0100
1000
,
0010
0100
0001
1000
0010
0100
0001
1000
0001
0010
0100
1000
0001
1000
0100
0010
,
0001
1000
0100
1000
0001
0100
0001
1000
0010
0100
0010
1000
0001
1000
0010
0100
,
0001
1000
0100
1000
0001
0100
0001
1000
0001
0010
0100
1000
0001
1000
0100
0010
,
0001
1000
0100
1000
0001
0100
0001
1000
0100
0010
0100
1000
0001
0100
0010
1000
,
0100
0010
0001
1000
0100
0010
0001
1000
0001
0100
0010
1000
0001
1000
0010
0100
,
0001
1000
0100
1000
0001
0100
0001
1000
0010
0100
0010
1000
0001
1000
0010
0100
,
0001
1000
0100
1000
0001
0100
0001
1000
0001
0010
0100
1000
0001
1000
0100
0010
,
0001
1000
0100
1000
0001
0100
0001
1000
0100
0010
0100
1000
0001
0100
0010
1000
,
0100
0010
0001
1000
0100
0010
0001
1000
0001
0100
0010
1000
0001
1000
0010
0100
,
0001
1000
0010
1000
0001
0010
0001
1000
0100
0010
0100
1000
0001
1000
0100
0010
,
0001
1000
0010
1000
0001
0010
0001
1000
0001
0100
0010
1000
0001
1000
0010
0100
,
M001
0100
M010
0100
M001
0010
M001
0010
M100
0010
M001
0100
M001
0100
M001
0010
,
M100
0010
M001
0100
M010
0100
M001
0010
M001
0010
M100
0010
M001
0100
M010
0100
,
M001
0010
0100
1000
0001
0100
0001
1000
0010
0100
0010
1000
0001
1000
0010
0100
,
0001
1000
0100
1000
0001
0100
0001
1000
0001
0010
0100
1000
0001
1000
0100
0010
,
0001
1000
0100
1000
0001
0100
0001
1000
0100
0010
0100
1000
0001
0100
0010
1000
,
0100
0010
0001
1000
0100
0010
0001
1000
0001
0100
0010
1000
0001
1000
0010
0100
,
0001
1000
0010
1000
0001
0010
0001
1000
0100
0010
0100
1000
0001
1000
0100
0010
,
0001
1000
0010
1000
0001
0010
0001
1000
0001
0100
0010
1000
0001
1000
0010
0100
,
0001
1000
0010
1000
0001
0010
0001
1000
0010
0100
0010
1000
0001
0010
0100
1000
,
0010
0100
0001
1000
0010
0100
0001
1000
0001
0010
0100
1000
0001
1000
0100
0010
,
0001
0100
0001
0100
0001
0010
0001
1000
0100
0010
0100
1000
0001
1000
0100
0010
,
0001
1000
0010
1000
0001
0010
0001
1000
0001
0100
0010
1000
0001
1000
0010
0100
,
0001
1000
0010
1000
0001
0010
0001
1000
0010
0100
0010
1000
0001
0010
0100
1000
,
0010
0100
0001
1000
0010
0100
0001
1000
0001
0010
0100
1000
0001
1000
0100
0010
,
0001
1000
0100
1000
0001
0100
0001
1000
0010
0100
0010
1000
0001
1000
0010
0100
,
0001
1000
0100
1000
0001
0100
0001
1000
0001
0010
0100
1000
0001
1000
0100
0010
,
0001
10M0
0100
10M0
0001
01M0
0001
10M0
0100
10M0
0001
01M0
0001
10M0
0100
1000
,
0010
1M00
0001
0M10
0001
1M00
0010
1M00
0001
0M10
0001
1M00
0010
1M00
0001
0010
,
0100
1000
0001
0010
0001
0100
0010
1000
0001
1000
0010
0100
0001
1000
0100
0010
,
0100
1000
0010
0100
0001
0010
0100
1000
0001
1000
0100
0010
0001
1000
0010
0100
,
0010
1000
0100
0010
0001
0100
0010
1000
0001
1000
0010
0100
0001
0010
0100
1000
,
0010
1000
0100
0010
0001
1000
0010
1000
0001
0010
0001
1000
0010
0100
0001
1000
,
0100
1000
0010
0100
0001
0010
0100
1000
0001
1000
0100
0010
0001
1000
0010
0100
,
0010
1000
0100
0010
0001
0100
0010
1000
0001
1000
0010
0100
0001
1000
0100
0010
,
0100
1000
0010
0100
0001
0010
0100
1000
0001
1000
0100
0010
0001
0100
0010
1000
,
0100
1000
0010
0100
0001
1000
0100
1000
0001
0100
0001
1000
0100
0010
0001
1000
,
0010
1000
0100
0010
0001
0100
0010
1000
0001
1000
0010
0100
0001
1000
0100
0010
,
0100
1000
0010
0100
0001
0010
0100
1000
0001
1000
0100
0010
0001
1000
0010
0100
,
0010
1000
0100
0010
0001
0100
0010
1000
0001
1000
0010
0100
0001
0010
0100
1000
,
0010
1000
0100
0010
0001
1000
0010
1000
0001
0010
0001
1000
0010
0100
0001
1000
,
0100
1000
0010
0100
0001
0100
0010
1000
0100
0010
0001
0010
0100
1000
0001
0100
,
0010
1000
0100
0010
0001
0010
0100
1000
0010
0100
0001
0100
0010
1000
0001
0010
,
0100
1000
0010
0100
0001
0010
0100
0010
0001
0100
0010
1000
0100
1000
0010
0100
,
0001
0010
0001
0100
0010
1000
0001
0010
0100
0010
0001
1000
0010
1000
0001
0100
,
0001
0010
0100
1000
0001
0100
0001
1000
0010
0100
0010
1000
0001
1000
0010
0100
,
0001
1000
0100
1000
0001
0100
0001
1000
0001
0010
0100
1000
0001
1000
0100
0010
,
0001
1000
0100
1000
0001
0100
0001
1000
0100
0010
0100
1000
0001
0100
0010
1000
,
0100
0010
0001
1000
0100
0010
0001
1000
0001
0100
0010
1000
0001
1000
0010
0100
,
0001
0010
0001
0010
0100
1000
0001
1000
0100
0010
0100
1000
0001
0100
0010
0100
,
0001
1000
0010
1000
0001
0010
0001
1000
0001
0100
0010
1000
0001
1000
0010
0100
,
0001
1000
0010
1000
0001
0010
0001
1000
0010
0100
0010
1000
0001
0010
0100
1000
,
0010
0100
0001
1000
0010
0100
0001
1000
0001
0010
0100
1000
0001
1000
0100
0010
,
0002
0003
0000
0100
0000
0000
0010
0000
0000
1000
0000
0000
0001
0000
0000
0010
0000
0000
0001
0000
0000
1000
0000
0000
0200
0300
0000
0010
0000
0000
0100
0000
0000
1000
0000
0000
0001
0000
0000
1000
0000
0000
0100
0000
0000
0010
0000
0000
,
0002
0003
0000
1000
0000
0000
0010
0000
0000
1000
0000
0000
0001
0000
0000
0010
0000
0000
0001
0000
0000
1000
0000
0000
0002
0003
0000
0100
0000
0000
0010
0000
0000
1000
0000
0000
0001
0000
0000
1000
0000
0000
0010
0000
0000
0100
0000
0000
,
0002
0003
0000
1000
0000
0000
0010
0000
0000
1000
0000
0000
0001
0000
0000
0010
0000
0000
0001
0000
0000
1000
0000
0000
0020
0030
0000
0100
0000
0000
0010
0000
0000
1000
0000
0000
0001
0000
0000
0010
0000
0000
0100
0000
0000
1000
0000
0000
,
0020
0030
0000
0100
0000
0000
0001
0000
0000
1000
0000
0000
0010
0000
0000
0100
0000
0000
0001
0000
0000
1000
0000
0000
0002
0003
0000
0010
0000
0000
0100
0000
0000
1000
0000
0000
0001
0000
0000
1000
0000
0000
0100
0000
0000
0010
0000
0000
,
0002
0003
0000
1000
0000
0000
0100
0000
0000
1000
0000
0000
0002
0003
0000
0100
0000
0000
0001
0000
0000
1000
0000
0000
0020
0030
0000
0100
0000
0000
0010
0000
0000
1000
0000
0000
0002
0003
0000
1000
0000
0000
0010
0000
0000
0100
0000
0000
,
0002
0003
0000
1000
0000
0000
0100
0000
0000
1000
0000
0000
0002
0003
0000
0100
0000
0000
0001
0000
0000
1000
0000
0000
0002
0003
0000
0010
0000
0000
0100
0000
0000
1000
0000
0000
0002
0003
0000
1000
0000
0000
0100
0000
0000
0010
0000
0000
,
0001
0000
0000
0000
1000
0000
0000
0000
0020
0030
0000
0000
1000
0000
0000
0000
0002
0000
0003
0000
0010
0000
0000
0000
0200
0300
0000
0000
0010
0000
0000
0000
0002
0000
0003
0000
1000
0000
0000
0000
0020
0030
0000
0000
1000
0000
0000
0000
0002
0000
0003
0000
0010
0000
0000
0000
0200
0300
0000
0000
1000
0000
0000
0000
,
0010
0000
0000
0000
0100
0000
0000
0000
0002
0003
0000
0000
0010
0000
0000
0000
0200
0000
0300
0000
0010
0000
0000
0000
0002
0003
0000
0000
1000
0000
0000
0000
0020
0000
0030
0000
1000
0000
0000
0000
0002
0003
0000
0000
0100
0000
0000
0000
0020
0000
0030
0000
1000
0000
0000
0000
0020
0030
0000
0000
0100
0000
0000
0000
,
0001
0010
0100
2000
0000
0000
0000
0000
,
3001
0100
0010
2000
0000
0000
0000
0000
,
3001
0010
0100
0000
1000
0000
0010
0100
,
0002
0000
0013
0001
,
1000
0010
0100
0002
0000
0000
0000
0000
,
1003
0100
0010
0002
0000
0000
0000
0000
,
1003
0100
0010
0000
0001
0000
0100
0010
,
2000
0000
3100
1000
,
00M4
0003
0010
0000
0100
0000
2000
0000
0000
0000
0000
0000
0000
0000
0000
0000
,
30M4
0003
0100
0000
0010
0000
2000
0000
0000
0000
0000
0000
0000
0000
0000
0000
,
30M4
0003
0010
0000
0100
0000
0000
0000
1000
0000
0000
0000
0010
0000
0100
0000
,
M002
0000
0023
0032
,
40M3
3000
0010
0000
0100
0000
0002
0000
0000
0000
0000
0000
0000
0000
0000
0000
,
40M3
3000
0100
0000
0010
0000
0002
0000
0000
0000
0000
0000
0000
0000
0000
0000
,
40M3
3000
0010
0000
0100
0000
0000
0000
0001
0000
0000
0000
0010
0000
0100
0000
,
200M
0000
3001
0010
,
M004
0003
0100
0001
1000
0100
1000
0001
0010
0100
0010
0001
1000
0001
0010
0100
,
4000
3001
0100
0001
1000
0100
1000
0001
1000
0010
0100
0001
1000
0001
0100
0010
,
4000
3001
0100
0001
1000
0100
1000
0001
0100
0010
0100
0001
1000
0100
0010
0001
,
0400
0310
1000
0001
0100
0010
1000
0001
1000
0100
0010
0001
1000
0001
0010
0100
,
4000
3001
0010
0001
1000
0010
1000
0001
0100
0010
0100
0001
1000
0001
0100
0010
,
4000
3001
0010
0001
1000
0010
1000
0001
1000
0100
0010
0001
1000
0001
0010
0100
,
4000
3001
0010
0001
1000
0010
1000
0001
0010
0100
0010
0001
1000
0010
0100
0001
,
0040
0130
1000
0001
0010
0100
1000
0001
1000
0010
0100
0001
1000
0001
0100
0010
,
4000
3001
0010
0001
1000
0010
1000
0001
0100
0010
0100
0001
1000
0001
0100
0010
,
4000
3001
0010
0001
1000
0010
1000
0001
1000
0100
0010
0001
1000
0001
0010
0100
,
4000
3001
0010
0001
1000
0010
1000
0001
0010
0100
0010
0001
1000
0010
0100
0001
,
0040
0130
1000
0001
0010
0100
1000
0001
1000
0010
0100
0001
1000
0001
0100
0010
,
4000
3001
0100
0001
1000
0100
1000
0001
0010
0100
0010
0001
1000
0001
0010
0100
,
4000
3001
0100
0001
1000
0100
1000
0001
1000
0010
0100
0001
1000
0001
0100
0010
,
4000
3001
0100
0001
1000
0100
1000
0001
0100
0010
0100
0001
1000
0100
0010
0001
,
0400
0310
1000
0001
0100
0010
1000
0001
1000
0100
0010
0001
1000
0001
0010
0100
,
2000
3002
0203
0320
0000
0000
0000
0000
,
2030
3200
0320
0032
0000
0000
0000
0000
,
2003
0000
3020
0000
0230
0000
0001
0300
2000
0000
0001
3000
0020
0000
0032
0000
,
0203
0000
0320
0230
,
0302
0023
0230
2300
0000
0000
0000
0000
,
3002
0203
0320
2030
0000
0000
0000
0000
,
3002
0000
0023
0000
0230
0000
1000
0300
0002
0000
1000
0003
0020
0000
2030
0000
,
3200
0000
0000
0000
0000
0000
0000
0000
0000
0000
0000
0000
0000
0000
0000
0000
0320
0000
0000
0000
0000
0000
0000
0000
0230
0000
0000
0000
0000
0000
0000
0300
,
110M
000M
100M
000M
101M
000M
001M
000M
,
011M
0000
000M
0000
010M
0000
000M
0000
011M
0000
000M
0000
001M
0000
000M
00M0
,
110M
00M0
000M
00M0
1000
00M0
0000
00M0
1001
00M0
0000
00M0
0001
00M0
0000
00M0
,
0101
00M0
0000
00M0
0100
00M0
0000
00M0
0101
00M0
0000
00M0
0001
00M0
0M00
00M0
,
1M01
0M00
1M10
0M00
0M11
0M00
1M10
0M00
,
1M01
0000
0M00
0000
0M11
0000
0M00
0000
1M10
0000
0M00
0000
0M11
0000
0M00
M000
,
0M11
M000
0001
M000
0100
M000
0010
M000
0100
M000
0001
M000
0010
M000
0100
M000
,
011M
M000
0010
M000
0011
M000
0001
M000
0101
M000
0100
M000
0110
M000
0010
0000
,
1001
1000
0100
0020
0001
0000
0001
0000
,
0031
0100
0010
2000
0001
0000
0001
0000
,
3001
0010
0100
1000
0001
1000
0010
0100
,
0002
0000
0000
0000
1000
0000
0000
0003
0210
0000
0000
0300
2002
0000
0000
3003
,
0001
1000
0010
0200
0001
0000
0001
0000
,
0301
0010
0100
2000
0001
0000
0001
0000
,
3001
0100
0010
1000
0001
1000
0100
0010
,
0002
0000
0000
0000
1000
0000
0000
0003
0120
0000
0000
0030
2002
0000
0000
3003
,
0001
0001
0001
0020
0100
0000
0100
0000
,
0130
1000
0010
0200
0001
0000
0001
0000
,
0301
1000
0100
0010
0001
1000
0010
0100
,
0002
0000
0000
0000
1000
0000
0000
0003
0210
0000
0000
0300
2002
0000
0000
3003
,
0001
1000
0010
0200
0001
0000
0001
0000
,
0301
0010
0100
2000
0001
0000
0001
0000
,
3001
0100
0010
1000
0001
1000
0100
0010
,
0001
0000
0000
0000
1010
0000
0000
0001
0100
0000
1010
0000
0010
0100
0000
0000
,
0101
0000
0001
0000
0011
0000
0020
0000
0130
0000
0011
0000
0010
0100
0000
0000
,
1000
0000
0001
0000
0101
0000
0200
0000
0310
0000
0101
0000
1000
0001
0000
0000
,
0100
0000
0010
0000
1010
0000
1000
0000
0100
0000
1001
0000
1000
0010
0000
0000
,
0200
0000
0000
0000
0000
0000
0000
0000
0001
0000
0000
0000
0300
0000
0000
0000
1001
0000
0000
0000
0000
0000
0000
0000
1000
0000
0000
0000
0000
0000
0000
0000
0200
0000
0000
0000
0000
0000
0000
0300
0011
0000
0000
0000
0000
0000
0000
0000
0002
0000
0000
0000
0000
0000
0000
0000
0000
0000
0000
0000
0000
0000
0000
0000
,
1003
0000
0001
0000
0101
0000
0200
0000
0310
0000
0101
0000
1000
0001
0000
0000
,
0100
0000
0010
0000
1010
0000
2000
0000
3001
0000
0011
0000
0010
0100
0000
0000
,
1000
0000
0001
0000
0011
0000
0010
0000
0001
0000
0101
0000
0100
0010
0000
0000
,
2000
3001
0011
0010
0100
1001
0001
0001
,
0001
0000
0100
0000
0110
0000
0020
0000
1030
0000
1001
0000
0001
0010
0000
0000
,
0100
0000
1000
0000
1001
0000
0002
0000
0103
0000
1001
0000
0001
0010
0000
0000
,
0100
0000
1000
0000
1001
0000
0001
0000
0100
0000
1001
0000
0001
0100
0000
0000
,
0020
0000
0000
0000
0000
0000
0000
0000
1000
0000
0000
0000
0030
0000
0000
0000
1001
0000
0000
0000
0000
0000
0000
0000
0001
0000
0000
0000
0000
0000
0000
0000
0020
0000
0000
0000
0000
0000
0000
0030
1100
0000
0000
0000
0000
0000
0000
0000
2000
0000
0000
0000
0000
0000
0000
0000
0000
0000
0000
0000
0000
0000
0000
0000
,
3001
0000
0010
0000
0110
0000
0200
0000
1300
0000
1001
0000
0001
0100
0000
0000
,
0010
0000
1000
0000
1001
0000
0002
0000
0013
0000
1100
0000
1000
0001
0000
0000
,
0010
0000
0000
0010
0000
0000
0001
0000
0000
0001
0000
0000
0100
0000
0000
0100
0000
0000
0010
0000
1000
0000
0010
0000
,
0100
0001
1000
0001
0100
0000
0000
0000
1020
0000
0000
0000
0230
0000
0000
0000
,
0301
0000
0010
0001
1000
0100
1000
0001
0010
0100
0010
0001
1000
0001
0010
0100
,
1000
0001
0100
0001
1000
0100
1000
0001
1000
0010
0100
0001
1000
0001
0100
0010
,
1000
0001
0100
0001
1000
0100
1000
0001
0100
0010
0100
0001
1000
0100
0010
0001
,
0100
0010
1000
0001
0100
0010
1000
0001
1000
0100
0010
0001
1000
0001
0010
0100
,
1000
0001
0010
0001
1000
0010
1000
0001
0100
0010
0100
0001
1000
0001
0100
0010
,
1000
0001
0010
0001
1000
0010
1000
0001
1000
0100
0010
0001
1000
0001
0010
0100
,
1000
0001
0010
0001
1000
0010
1000
0001
0010
0100
0010
0001
1000
0010
0100
0001
,
0010
0100
1000
0001
0010
0100
1000
0001
1000
0010
0100
0001
1000
0001
1000
0001
,
1000
0001
0010
0001
1000
0010
1000
0001
0100
0010
0100
0001
1000
0001
0100
0010
,
1000
0001
0010
0001
1000
0010
1000
0001
1000
0100
0010
0001
1000
0001
0010
0100
,
1000
0001
0010
0001
1000
0010
1000
0001
0010
0100
0010
0001
1000
0010
0100
0001
,
0010
0100
1000
0001
0010
0100
1000
0001
1000
0010
0100
0001
1000
0001
0100
0010
,
1000
0001
0100
0001
1000
0100
1000
0001
0010
0100
0010
0001
1000
0001
0010
0100
,
1000
0001
0100
0001
1000
0100
1000
0001
1000
0010
0100
0001
1000
0001
0100
0010
,
1000
0001
0100
0001
1000
0100
1000
0001
0100
0010
0100
0001
1000
0100
0010
0001
,
0100
0010
1000
0001
0100
0010
1000
0001
1000
0100
0010
0001
1000
0001
0010
0100
,
1000
0001
0100
0001
1000
0100
1000
0001
0010
0100
0010
0001
1000
0001
0010
0100
,
1000
0001
0100
0001
1000
0100
1000
0001
1000
0010
0100
0001
1000
0001
0100
0010
,
1000
0001
0100
0001
1000
0100
1000
0001
0100
0010
0100
0001
1000
0100
0010
0001
,
0100
0010
1000
0001
0100
0010
1000
0001
1000
0100
0010
0001
1000
0001
0010
0100
,
1000
0001
0010
0001
1000
0010
1000
0001
0100
0010
0100
0001
1000
0001
0100
0010
,
1000
0001
0010
0001
1000
0010
1000
0001
1000
0100
0010
0001
1000
0001
0010
0100
,
1000
0001
0010
0001
1000
0010
1000
0001
0010
0100
0010
0001
1000
0010
0100
0001
,
0010
0100
1000
0001
0010
0100
1000
0001
1000
0010
0100
0001
1000
0001
0100
0010
,
100M
0100
001M
0100
100M
0100
001M
0100
100M
0010
010M
0010
100M
0010
010M
0010
,
100M
0100
001M
0100
100M
0100
001M
0100
100M
0010
010M
0010
100M
0010
010M
0010
,
100M
0M10
1000
0M10
1000
0M01
1000
0M01
0010
0M01
0010
0M01
1000
0M01
1000
0M01
,
1000
0M10
1000
0M01
0010
0M01
1000
0M10
1000
0M01
0010
0M01
1000
0M10
1000
0M01
,
10M0
0100
10M0
0100
10M0
0001
10M0
0001
01M0
0001
01M0
0001
10M0
0001
10M0
0001
,
10M0
0100
10M0
0100
10M0
0001
10M0
0001
01M0
0001
01M0
0001
10M0
0001
10M0
0001
,
01M0
M001
0010
M001
0100
M010
0100
M001
0010
M100
0010
M001
0100
M010
0100
M001
,
0010
M100
0010
M001
0100
M001
0010
M100
0010
M001
0100
M010
0100
M001
0010
0100
,
4000
0000
0000
0000
3000
0000
0000
0000
0100
0000
0000
0000
0000
0000
0000
0000
0010
0000
0000
0000
0000
0000
0000
0000
0002
0000
0000
0000
0000
0000
0000
0000
1000
0000
0000
0000
0000
0000
0000
0003
0002
0000
0000
0000
0000
0000
0000
0000
1000
0000
0000
0000
0000
0000
0000
0003
0002
0000
0000
0000
0000
0000
0000
0000
,
4003
0000
0000
0000
3000
0000
0000
0000
0010
0000
0000
0000
0000
0000
0000
0000
0100
0000
0000
0000
0000
0000
0000
0000
0002
0000
0000
0000
0000
0000
0000
0000
1000
0000
0000
0000
0000
0000
0000
0003
0002
0000
0000
0000
0000
0000
0000
0000
1000
0000
0000
0000
0000
0000
0000
0003
0002
0000
0000
0000
0000
0000
0000
0000
,
4003
3000
0100
0000
0010
0000
0001
0000
0100
0000
0001
0000
0010
0000
0100
0000
,
4000
3000
0001
0000
0100
0000
0001
0000
0010
0000
0001
0000
1000
0000
0001
0000
,
4000
0000
0000
0000
3000
0000
0000
0000
0010
0000
0000
0000
0000
0000
0000
0000
0100
0000
0000
0000
0000
0000
0000
0000
0002
0000
0000
0000
0000
0000
0000
0000
1000
0000
0000
0000
0000
0000
0000
0003
0002
0000
0000
0000
0000
0000
0000
0000
1000
0000
0000
0000
0000
0000
0000
0003
0002
0000
0000
0000
0000
0000
0000
0000
,
4003
0000
0000
0000
3000
0000
0000
0000
0100
0000
0000
0000
0000
0000
0000
0000
0010
0000
0000
0000
0000
0000
0000
0000
0002
0000
0000
0000
0000
0000
0000
0000
1000
0000
0000
0000
0000
0000
0000
0003
0002
0000
0000
0000
0000
0000
0000
0000
1000
0000
0000
0000
0000
0000
0000
0003
0002
0000
0000
0000
0000
0000
0000
0000
,
4003
0000
0000
3000
0000
0000
1000
0000
0000
0000
0000
0000
0100
0000
0000
0000
0000
0000
0100
0000
0000
0000
0000
0000
0010
0000
0000
0000
0000
0000
0010
0000
0000
0000
0000
0000
0001
0000
0000
0000
0010
0000
0000
0000
0001
0000
0000
0000
,
4000
3000
0001
0000
1000
0000
0001
0000
1000
0000
0000
0000
0001
0000
0000
0000
0010
0000
0000
0000
0001
0000
0000
0000
0100
0000
0000
0000
0001
0000
0000
0000
,
4000
3000
0100
0000
0010
0000
0002
0000
1000
0000
0000
0000
1000
0000
0000
0000
,
4003
3000
0010
0000
0100
0000
0002
0000
1000
0000
0000
0000
1000
0000
0000
0000
,
4003
3000
0100
0000
0010
0000
0000
0000
0001
0000
0000
0000
1000
0000
0010
0000
,
0240
0030
0000
0000
0001
0000
0000
0000
0320
0000
0000
0000
2030
0000
0000
0000
,
3004
0003
0010
0000
0100
0000
2000
0000
0001
0000
0000
0000
0001
0000
0000
0000
,
3004
0003
0100
0000
0010
0000
2000
0000
0001
0000
0000
0000
0001
0000
3000
0000
,
2002
3003
2002
3003
,
1001
0001
0010
0100
2200
0000
0000
0000
,
3300
0000
0000
0000
;
