#TITLE:Tricky Disco;
#SUBTITLE:Squad-E Remix;
#ARTIST:Discotronic;
#TITLETRANSLIT:;
#SUBTITLETRANSLIT:;
#ARTISTTRANSLIT:;
#CREDIT:;
#BANNER:../Banner.png;
#BACKGROUND:../BG.png;
#LYRICSPATH:;
#CDTITLE:../CDTitleBRAEDEN.png;
#MUSIC:Tricky Disco [Squad-E remix] - Discotronic.ogg;
#OFFSET:-0.272;
#SAMPLESTART:66.760;
#SAMPLELENGTH:13.400;
#SELECTABLE:YES;
#DISPLAYBPM:88.000:175.000;
#BPMS:0.000=175.000;
#STOPS:;
#BGCHANGES:;
// cache tags:
#FIRSTBEAT:10.000;
#LASTBEAT:575.000;
#SONGFILENAME:Songs/Index Fusion - Part 2/Tricky Disco squad e - [Braeden]/tricky disco squade.sm;
#HASMUSIC:1;
#HASBANNER:1;
#MUSICLENGTH:198.400;
// end cache tags

//---------------dance-single - ----------------
#NOTES:
     dance-single:
     :
     Challenge:
     15:
     1.000,1.000,0.207,0.111,1.000,1554.000,41.000,22.000,0.000,0.000:

0000
0000
0000
0000
,
0000
0000
0000
0000
,
0000
0000
0000
0000
1001
0001
0100
0100
,
0010
0000
0010
0000
0010
0000
1000
0100
0010
0000
0001
0000
0101
0000
0100
0000
,
0010
0010
1010
0100
0001
0001
1001
1000
,
0010
0000
0010
0000
1010
0000
0100
0001
0100
0000
0010
0000
1010
0000
1000
0000
,
0100
0100
0110
0000
0001
0010
0011
0100
,
1000
0000
0010
0000
0110
0000
0001
0010
0100
0000
1000
0000
1100
0000
0010
0000
,
0001
0001
0101
0010
1000
1000
0101
0010
,
1000
0000
1000
0000
0101
0000
0010
1000
0100
0000
0010
0000
0011
0000
0100
0000
,
1000
1000
0101
0000
1000
0001
1001
1000
,
0010
0000
0010
0000
0110
0000
0100
0001
0100
0000
0010
0000
1010
0000
0100
0000
,
0001
0001
0101
0010
2000
3200
2300
3200
,
0310
0000
0010
0000
0010
0000
0001
1000
0001
0000
0100
0000
0010
0000
0010
0000
,
1000
0000
0100
0000
0010
0000
0001
0100
0010
1000
0100
0010
0001
0010
0100
1000
,
0001
0100
0010
1000
0100
0010
0001
1000
0001
0000
0000
0000
0000
0000
0010
0100
,
0001
0000
0000
1000
0000
0000
0010
0000
0000
0100
0000
0000
0001
0000
0000
0000
0100
0000
0000
0000
0010
0000
1000
0000
,
0010
0000
0100
0000
0001
0000
0010
0100
1000
0100
0010
0001
1000
0000
0100
0000
0000
0000
0010
0000
0000
0000
0001
0000
,
0100
0000
0000
0000
0010
0000
0000
0000
1000
0000
0000
0000
0001
0000
0100
0000
0010
0000
1000
0100
0010
0001
0010
0100
,
1000
0000
0000
0000
,
0000
0000
0000
0000
0000
0000
1000
0000
0010
0000
0000
0100
,
0001
0000
0100
0000
0010
0000
1000
0100
0010
0001
0010
0100
1000
0000
0000
0000
0001
0000
0000
0000
0000
0000
0010
0000
,
0100
0000
0000
0000
0000
0000
0000
0000
1000
0000
0000
0000
0000
0000
0000
0001
0000
0000
0000
0000
0000
0000
0010
0000
0100
0000
0000
0000
0000
0000
0000
0000
1000
0000
0000
0000
0100
0000
0010
0000
0001
0000
0010
0000
0100
0000
1000
0000
,
0004
0000
0003
0000
,
0000
0000
0000
0000
1001
1000
0001
0100
,
0010
1000
0100
0010
0001
0010
0100
1000
,
0001
0100
0010
0100
0001
1000
0100
0010
,
0001
0100
0010
0100
0001
1000
0100
0010
,
0001
0000
0100
0000
0001
1000
0100
0010
0001
0000
0100
0000
0010
0000
0100
0000
,
0001
1000
0100
0010
0100
1000
0001
0100
,
0010
1000
0100
0010
0100
1000
0001
0100
,
0010
0000
0000
1000
0000
0000
0100
0000
0000
0010
0000
0000
0001
0000
0000
0000
0010
0000
0000
0000
0100
0000
1000
0000
,
0100
0010
0001
0100
0110
0010
1000
1000
,
0010
0100
0001
0001
1000
0010
0100
0100
,
0001
1000
0100
0100
0010
0001
0100
0100
,
0010
1000
0100
0100
0010
0001
0100
0100
,
0010
1000
0100
0100
0010
0001
0100
0100
,
0010
1000
0100
0100
0001
1000
0010
0010
,
0100
0000
0001
0000
0100
0010
0100
0010
1000
0000
0001
0000
0100
0000
0100
0000
,
0010
1000
0100
0100
1001
0000
0000
0000
,
0000
0000
0000
0000
0001
0001
0001
0001
,
0100
0000
0010
0000
1000
0000
0001
0100
0010
0000
1000
0000
0100
0000
0100
0000
,
0100
0100
0010
0000
0001
0001
0001
0001
,
0100
0000
0010
0000
1000
0000
0100
0010
0001
0000
0100
0000
0010
0000
1000
0000
,
0100
0010
0001
0100
0010
0010
0010
0010
,
1000
0000
0100
0000
0010
0000
0001
0100
0010
0000
0100
0000
0010
0000
1000
0000
,
0010
0010
0200
0000
0301
0010
0100
0100
,
1000
0000
0001
0000
0100
0000
0010
1000
1010
0000
0000
0000
0000
0000
0000
0000
,
0000
0000
0000
0000
0000
0000
0000
0000
1000
0100
0010
0001
0010
0100
1000
0001
,
0100
0010
0100
0001
1000
0100
0010
0001
0010
0100
1000
0001
0100
0010
0100
0001
,
1000
0100
1000
0001
0010
0100
1000
0001
0100
0010
0100
0001
1000
0100
0010
0100
,
1000
0001
0100
0010
0100
0001
1000
0100
0010
0100
1000
0001
0010
0100
1000
0001
,
0100
0010
1000
0100
1000
0001
0010
0100
1000
0001
0010
0001
0100
0010
1000
0001
,
0010
0001
0100
0010
1000
0001
0010
0100
1000
0001
0100
0010
0100
0001
1000
0100
,
0010
0001
0010
0100
1000
0001
0100
0010
1000
0001
0010
0001
0100
0010
1000
0001
,
0100
0010
0100
0001
1000
0100
0010
0001
0010
0100
1000
0001
0100
0010
0100
0001
,
0010
0100
1000
0001
0100
0010
0100
0001
1000
0100
0010
0001
0010
0100
1000
0001
,
0100
0010
0100
0001
1000
0100
0010
0001
0010
0100
1000
0001
0100
0010
1000
0100
,
0010
0001
0010
0100
1000
0001
0100
0010
0100
0001
1000
0100
0010
0001
0010
0100
,
1000
0001
0100
0010
0100
0001
1000
0100
0010
0001
0010
0100
1000
0001
0100
0010
,
0100
0001
1000
0100
0010
0001
1000
0010
0100
0001
0010
0001
1000
0100
0010
0001
,
1000
0100
0010
0100
1000
0001
0100
0010
0100
0001
1000
0100
0010
0001
0010
0100
,
1000
0001
0100
0010
0100
0001
1000
0100
0010
0001
0010
0100
1000
0001
0100
0010
,
0100
0000
0000
0001
0000
0000
1000
0000
0000
0100
0000
0000
0010
0000
0000
0000
0000
0000
0001
0000
0000
0010
0000
0000
0100
0000
1000
0000
0001
0000
0100
0000
0010
0000
1000
0000
0100
0000
0010
0000
0001
0000
0010
0000
0100
0000
1000
0000
,
0001
0000
0100
0000
0010
0000
1000
0000
0000
0000
0000
0000
0001
0000
0010
0000
0100
0000
1000
0000
0001
0000
0100
0000
0010
0000
0000
1000
0000
0000
0010
0000
0000
0100
0000
0000
0001
0000
0000
1000
0000
0000
0100
0000
0000
1000
0000
0000
,
0000
0010
0100
0001
0000
0100
0000
0010
1000
0100
1000
0001
0000
0100
0010
1000
,
0000
0100
0000
0010
0000
0001
0100
0010
1000
0100
0010
0001
0000
0100
0010
0100
,
0000
0001
1000
0001
0000
0100
0000
0010
1000
0001
0100
0010
0000
1000
0000
0001
,
0100
0010
0000
1000
0000
0001
0000
0000
1000
0100
0010
0001
0010
0100
1000
0001
,
0100
0010
0100
0001
1000
0100
0010
0100
1000
0001
0100
0010
1000
0001
0010
0100
,
1000
0001
0100
0010
1000
0100
0010
0001
1000
0100
0010
0100
1000
0001
0100
0010
,
0100
0001
1000
0100
0010
0100
1000
0001
0100
0010
1000
0001
0010
0100
1000
0001
,
0100
0010
1000
0100
0010
0001
0010
0000
0001
1000
0100
1000
0000
0010
0100
0001
,
0000
0100
0010
1000
0000
0100
0000
0010
0100
1000
0010
0100
0000
0001
0000
0010
,
0001
0100
0000
0010
0000
1000
0000
0000
0001
0100
0010
0100
0000
0001
1000
0001
,
0000
0100
0010
1000
0000
0001
0000
0010
0100
1000
0010
0100
0000
0010
0000
1000
,
0000
0001
1000
0100
0000
0010
0000
0001
1000
0100
0010
0001
0010
0100
1000
0001
,
0100
0010
0100
0001
1000
0100
0010
0100
1000
0001
0100
0010
1000
0100
0010
0001
,
0010
0100
1000
0001
0100
0010
1000
0100
0010
0100
1000
0001
0010
0100
1000
0001
,
0100
0010
0100
0001
1000
0100
0010
0001
1001
0000
0000
0000
0000
0000
0000
0000
,
0000
0000
0000
0000
2000
3100
0020
0031
,
0200
0310
2000
3100
0010
0010
0001
0001
,
0100
0010
1010
1000
0002
0103
0020
1030
,
0200
0310
0002
0103
0010
0010
1000
1000
,
0001
0100
0010
0010
0010
1000
0020
0130
,
0002
0103
0020
1030
0100
0100
0010
0010
,
0001
1000
1001
0001
0200
0310
2000
3100
,
0020
0031
0200
0310
1000
1000
0001
0001
,
0100
0000
0010
0000
1000
0000
0000
0000
0001
1000
0001
0100
0010
1000
0100
0010
,
0001
0010
0100
1000
0001
0100
0010
1000
0100
0010
0001
0010
0100
1000
0001
0100
,
0010
1000
0100
0010
0100
1000
0001
0100
0010
1000
0100
0010
0001
0010
0100
1000
,
0001
0100
0010
0100
0001
1000
0100
0010
0100
1000
0001
0100
0010
1000
0100
0010
,
0100
1000
0001
0010
0100
1000
0001
0100
0010
1000
0100
0010
0001
0010
0100
1000
,
0001
0100
0010
0100
0001
1000
0010
0100
0001
1000
0100
0010
0100
1000
0001
0010
,
0100
1000
0001
0100
0010
1000
0100
0010
0100
1000
0001
0100
0010
1000
0100
0010
,
0001
0010
0100
1000
0001
0100
0010
1000
1001
0000
0000
0000
0000
0000
0000
0000
,
0000
0000
0000
0000
1001
1000
1000
1000
,
0010
0000
0010
0000
0010
0000
0100
0001
0100
0000
0010
0000
1000
0000
1000
0000
,
1000
0010
0100
0001
1001
1000
1000
0010
,
0100
0000
0100
0000
0100
0000
0001
1000
0001
0000
0100
0000
0110
0000
0010
0000
,
1000
1000
0100
0010
1001
0001
0100
0010
,
1000
0000
1000
0000
0010
0000
0100
0001
0100
0000
0010
0000
1000
0000
0010
0000
,
0110
0100
0001
0000
1000
1000
0010
0010
,
0100
0000
0001
0000
0100
0000
0010
1000
0010
0000
0100
0000
0001
0000
0100
0000
,
0010
0000
1000
0000
0100
0000
0010
0001
1001
0000
0100
0000
0010
0000
1000
0000
,
0100
0000
0010
0000
0001
0000
0100
0010
0100
0000
0010
0000
1000
0000
0100
0000
,
0010
0000
0100
0000
1000
0000
0010
0100
0010
0000
0100
0000
0001
0000
0100
0000
,
0010
0000
1000
0000
0100
0000
0010
0001
0010
0000
0001
0000
0100
0000
0010
0000
,
1000
0000
0001
0000
0010
0000
0100
0010
0001
0000
0001
0000
0100
0000
0100
0000
,
0010
0010
1000
1000
0100
0100
0010
0001
,
0100
0000
0010
0000
1000
0001
1000
0010
0100
0001
0100
0001
1000
0010
1000
0010
,
0100
0001
0100
0010
1000
0100
0010
0100
1000
0000
0000
0000
0010
0000
0000
0000
,
0100
0000
0000
0000
0001
0000
0000
0000
0001
1000
0100
1000
0001
0100
0010
1000
,
0100
0010
0001
0010
0100
1000
0001
0100
0010
1000
0010
1000
0001
0100
0010
1000
,
0100
0010
0100
0010
0100
1000
0001
0100
0010
1000
0100
0010
0001
0100
0010
1000
,
0100
0010
0100
0010
0001
0100
0010
1000
0001
0010
0100
1000
0001
0100
0010
1000
,
0100
0010
0100
0010
0001
0100
0010
0100
0001
1000
0100
1000
0001
0100
0010
0100
,
0001
1000
0100
0010
0001
0010
0100
1000
0001
0100
0010
0100
0001
1000
0100
1000
,
0001
0010
0100
1000
0001
0100
0010
0100
0001
1000
0100
0010
0001
0010
0100
1000
,
0001
0100
0010
0100
0001
0100
0010
1000
0001
0010
0100
1000
0001
0000
0010
0000
,
0100
0000
1000
0000
0100
0000
0010
0000
0001
0100
0010
1000
0100
0010
0001
0010
,
0100
1000
0001
0100
0010
1000
0100
0010
0001
0100
0010
0100
0001
1000
0100
1000
,
0001
0010
0100
1000
0001
0010
0001
0100
0010
0100
0001
0100
0010
0100
0001
1000
,
0010
0100
0010
1000
0010
0100
0001
0010
0001
1000
0100
0010
0001
0010
0100
1000
,
0001
0100
0010
1000
0001
0010
0100
1000
0001
0100
0010
1000
0100
0010
0001
0010
,
0100
1000
0001
0100
0010
0100
0001
1000
0010
0100
0001
0010
0001
1000
0100
0010
,
0100
1000
0001
0100
0010
1000
0100
0010
0100
1000
0001
0100
0010
1000
0001
0010
,
0100
1000
0001
0100
0010
1000
0100
0010
0001
0000
0000
1000
0100
0000
0000
0010
,
0001
0000
0000
0000
0000
0000
0000
0000
0000
0100
0000
0000
0010
0000
1000
0000
0001
0000
0100
0000
0010
0000
1000
0000
0001
0000
0000
0100
0000
0000
0010
0000
0000
1000
0000
0000
0000
0000
0000
0001
0000
0000
0100
0000
0000
0010
0000
0000
,
0000
1000
0100
0010
0000
0001
0000
0100
0010
1000
0001
0100
0000
0010
0000
1000
,
0000
0001
0100
0010
0000
1000
0000
0000
0001
0100
0010
1000
0000
0100
0010
0100
,
0000
0010
0001
0100
0000
0010
0000
1000
0001
0100
0010
1000
0000
0001
0100
0010
,
0000
1000
0010
0100
0000
0001
0000
0100
0010
0000
0010
0000
1100
0000
0001
0000
,
0100
0000
0100
0000
0011
0000
1000
0010
0100
0000
0001
0000
0101
0000
0010
0000
,
1000
0010
1010
0000
0101
0001
0100
0100
,
1010
0000
1000
0000
0100
0000
0010
0001
0010
0000
0100
0000
1100
0000
0010
0000
,
0001
0000
0001
0000
1000
0000
1000
0000
0001
0100
0010
1000
0000
0100
0010
0100
,
0000
1000
0001
0100
0000
0010
0000
1000
0001
0100
0010
1000
0000
0010
0000
0100
,
0000
0001
0100
0001
0000
0100
0000
0000
0010
1000
0100
1000
0000
0001
0100
0010
,
0000
1000
0100
0010
0000
0001
0000
0010
0000
0100
1000
0100
0000
0010
0000
0001
,
0000
0100
0010
0100
0000
0001
0000
0100
0010
0000
1000
0010
1000
0000
0001
0100
,
0001
0000
1000
0010
0100
0000
0001
0100
0010
0000
1000
0100
0010
0000
0001
0100
,
0001
0000
1000
0010
0100
0000
0001
0100
0001
0100
0010
1000
0001
0000
0000
0000
,
1000
0100
0010
0001
1000
0010
0100
0000
0000
0000
0000
0000
2002
0000
0000
0000
0000
0000
3003
0000
0000
0000
0000
0000
;
