#TITLE:Re-Sublimity;
#SUBTITLE:- Kannazuki no Miko Opening;
#ARTIST:KOTOKO;
#TITLETRANSLIT:;
#SUBTITLETRANSLIT:;
#ARTISTTRANSLIT:;
#CREDIT:;
#BANNER:KannadukiOP-logo.jpg;
#BACKGROUND:KannadukiOP-bg1.jpg;
#LYRICSPATH:;
#CDTITLE:cdtitle02.png;
#MUSIC:resublimity.mp3;
#OFFSET:1.580;
#SAMPLESTART:42.864;
#SAMPLELENGTH:12.000;
#SELECTABLE:YES;
#BPMS:0.000=135.000;
#STOPS:;
#BGCHANGES:;
// cache tags:
#FIRSTBEAT:4.000;
#LASTBEAT:228.000;
#SONGFILENAME:Songs/Otaku's Dream 1st Anime Mix/Tweety3187 - Re-Sublimity (Kannazuki no Miko OP)/Trance.sm;
#HASMUSIC:1;
#HASBANNER:1;
#MUSICLENGTH:104.960;
// end cache tags

//---------------dance-single - ----------------
#NOTES:
     dance-single:
     :
     Challenge:
     12:
     1.000,1.000,1.000,0.353,1.000,833.000,278.000,37.000,0.000,0.000:
0000
0000
0000
0000
,
1000
0010
0001
0100
0010
1000
0001
0010
,
0100
0001
0010
0010
1000
0100
0001
1000
,
1000
0100
0010
1000
0001
0100
0010
1000
,
0100
0000
0010
0000
0001
0000
0100
0000
1000
0010
0001
0010
0100
1000
0001
0100
,
0010
0100
0001
1000
0010
0001
0100
0010
,
1001
0000
0011
0000
0011
0000
0110
0000
1010
0000
0011
0011
0000
0110
0110
0000
,
1010
0001
0010
0100
1001
0010
0100
0010
1100
0001
0010
1000
0011
0100
1000
0010
,
0101
0010
0100
0001
1100
0010
0100
1000
0101
0010
1100
1100
0001
0110
0110
0001
,
1010
0100
1000
0010
0101
0010
0100
1000
0011
0100
0001
1000
0110
0001
0010
0100
,
1001
0010
0100
1000
0011
0100
1000
0010
0101
0010
1100
0011
0100
1010
1010
0001
,
0110
0001
1000
0010
0101
0010
0100
0001
1100
0010
0100
0001
0011
1000
0010
0001
,
1100
0010
0100
0010
1001
0100
0010
0001
1100
0010
0101
0110
1000
0011
1100
0010
,
0101
0010
1000
0001
0011
0100
1000
0010
1100
0001
0100
0010
1001
0100
0010
1000
,
0101
0010
0100
1000
0110
0001
0010
0100
1001
0110
0101
1010
0101
0011
1001
0110
,
0001
0010
0100
1000
0100
0010
0001
0010
0100
0010
0001
0010
0100
1000
0010
1000
,
0010
0001
0100
0010
0100
0010
0001
1000
0010
0100
0001
0010
0100
0010
1000
0100
,
0010
0100
0010
0001
0010
0100
0010
0001
1000
0001
0100
0010
0100
0001
0100
0010
,
1000
0001
1000
0010
1000
0100
1000
0010
0001
0100
0010
0001
0100
1000
0100
0001
,
0100
1000
0100
0001
0100
1000
0100
0010
0001
0010
0100
0001
1000
0010
1000
0100
,
1000
0001
0010
0100
0010
0001
1000
0100
0010
0001
1000
0100
0010
0001
0100
0010
,
0001
0010
0100
1000
0100
0010
1000
0001
0100
0010
1000
0100
1000
0001
0010
0001
,
1100
0000
0000
0000
0010
0001
0010
0001
0010
0000
0100
1000
0100
1000
0100
0000
2010
0000
0100
0000
3010
0000
0001
0000
0120
0000
0001
0000
1030
0000
0100
0000
,
0011
0000
0100
1010
0000
0110
0000
0011
1010
0100
0011
1000
0101
0010
1010
0100
,
1001
1001
0100
0011
0000
0110
0000
1010
1010
0001
0110
1000
0110
1000
0012
0100
,
1000
0100
1000
0100
1003
0100
1010
2010
0001
0010
0001
0010
0001
0010
3001
0010
,
1001
0000
0011
1000
0110
0001
0110
0001
2001
0010
0010
3010
0201
1000
1000
1300
,
0011
0000
0110
1010
0100
0011
0000
0101
1010
0001
0110
1000
0101
0010
1100
0001
,
0110
0110
0000
1001
0000
0011
1000
0110
1010
0001
0110
1000
0011
1000
0201
1000
,
0001
1000
0001
1000
0001
1300
0011
0012
1000
0100
0010
1000
0100
0010
1000
0100
,
0010
1000
0100
0010
1003
0010
0001
1000
0110
1000
0011
0001
1100
0001
0110
0010
,
1001
0100
0011
0100
1010
0110
0001
2010
0001
0000
3010
0001
0110
1000
0001
0010
,
1100
0000
0011
1000
1000
0110
0000
1010
0110
0001
1100
0001
0110
1000
0011
0100
,
1001
0010
0101
0010
1100
1100
0001
0210
0001
0000
0310
0001
1010
0100
1000
0100
,
0011
0000
2010
0100
3001
0000
0011
0100
1001
0010
1100
0001
1010
0100
0011
0100
,
1001
0010
0101
0010
1100
1100
0001
0120
1000
1000
1000
1030
0110
0110
0000
0000
,
1010
0100
0011
1000
0011
0110
1000
0011
0100
0000
1010
0001
1010
0001
1010
0001
,
0210
1000
0001
1300
0012
0100
1000
0103
2010
0001
0100
3001
0120
0100
1000
0130
,
1001
0110
0000
1001
0110
0000
1001
0110
1002
1000
1000
1000
0100
0100
0100
0103
,
1010
0001
0110
1000
0011
0100
0011
0011
1000
1000
0110
0100
1001
0010
1010
0101
,
0010
0010
1100
0001
0110
0001
1010
0110
0001
0001
1010
0100
0011
0100
1010
0011
,
0100
1010
2010
0100
0001
0010
0100
3010
0101
0010
1100
0001
0110
0001
1010
0102
,
0010
1000
0100
0013
1200
0010
0001
1300
0012
0100
1003
2010
0100
3001
0110
0001
,
1020
0100
0001
0130
1001
0010
1100
0001
0110
1000
0101
0010
1100
0001
0110
0210
,
1000
0001
1000
0001
1300
0010
0101
0011
1001
0100
0010
0101
1000
0001
1100
0001
,
0100
0001
0110
1000
0102
1000
0100
0010
1000
0100
0010
1003
0101
0010
1100
0011
,
0201
1000
0001
1300
0120
0001
0100
0130
2010
0001
3001
0120
1000
0130
0011
0100
,
1100
0010
1001
0100
1010
0001
1010
1010
0100
0100
1001
0001
0110
1000
1100
0011
,
1000
1000
0101
0010
1001
0010
1100
1001
0010
0010
1100
0001
1010
0001
1100
2010
,
0100
0010
0001
0010
0100
3010
1001
0100
0011
0000
1100
0010
0101
1000
0110
0001
,
2010
0100
0010
3001
0210
0001
0010
0301
1001
1010
0000
0110
0011
0000
0110
1001
,
0120
0001
1000
0001
1030
0010
0101
0010
1010
0001
0100
1000
0110
1000
0021
0100
,
1030
0001
0210
0001
0310
0001
1010
0001
1100
0010
1100
1000
0011
1000
0102
0010
,
0103
1000
0110
0010
2001
0100
0010
0001
0100
0010
0001
0100
0001
0010
0100
3001
,
0110
0001
1000
0100
0011
0100
0001
0100
1010
1010
1010
1010
0110
0110
0110
0110
,
1001
0100
0010
0001
1000
0100
0010
0100
1000
0100
0010
0100
0001
0010
0100
0010
,
1001
0100
0011
0100
1010
0110
1000
0011
1100
0010
0101
1000
0110
0011
1100
0110
,
1001
0000
0000
0000
;

//---------------dance-single - ----------------
#NOTES:
     dance-single:
     :
     Medium:
     5:
     0.393,0.434,0.543,0.295,0.000,201.000,57.000,31.000,0.000,0.000:
0000
0000
0000
0000
,
2000
0000
0000
0000
,
0000
0000
0000
0000
,
3002
0000
0000
0000
,
0000
0000
0000
0000
,
2003
0000
0000
0000
,
0000
0000
0000
0000
0000
0000
0000
3000
,
0010
0001
0100
0010
,
1000
0100
1100
0011
,
0110
1000
0100
0010
,
1000
0001
0110
1001
,
0110
1000
0001
0100
,
0010
1000
0011
1010
,
1100
1000
0001
0010
,
0100
0001
0010
0100
,
1020
1000
1000
1000
,
1000
1000
1000
1030
,
2001
0001
0001
0001
,
0001
0001
0001
3001
,
0210
0010
0010
0010
,
0010
0010
0010
0310
,
0102
0100
0100
0103
,
1001
0110
0201
0301
,
1000
0001
0010
0100
,
1000
0001
0010
0100
,
2001
0000
0001
3000
2010
0000
0010
3000
,
0100
0100
0022
0033
,
1000
1000
0100
0010
,
1000
0001
0100
0010
,
2100
0000
0100
3000
0210
0000
0010
0300
,
0001
0001
1010
0101
,
0110
0100
0001
0001
,
1000
1000
0010
0010
,
0100
0100
0001
0001
,
0010
0010
1000
1000
,
0100
0100
1000
1000
,
0010
0010
0100
0100
,
2000
0000
0000
0000
3020
0000
0000
0000
0230
0000
0000
0000
0302
0000
0000
0003
,
0220
0000
0000
0330
2002
0000
0000
3003
,
1001
0100
0011
0100
,
1001
0100
0011
0001
,
1010
0100
1001
0010
,
0101
1000
0011
0100
,
1100
0001
1001
0100
,
1001
0010
0011
0100
,
1001
0010
1100
0001
,
0020
0000
0000
0000
2030
0000
0000
0000
3200
0000
0000
0000
0320
0000
0000
0030
,
1100
0001
0110
1000
,
0110
0010
1001
0100
,
0021
0031
0110
1000
,
0110
1001
0110
1001
,
1001
0010
0100
0001
,
1010
0100
0001
1000
,
0010
0100
0001
0010
,
1200
1000
1000
1300
,
2001
0001
0001
3001
,
0201
0301
0120
0130
,
1001
0000
0000
0000
;

//---------------dance-single - ----------------
#NOTES:
     dance-single:
     :
     Easy:
     3:
     0.218,0.353,0.067,0.210,0.000,131.000,7.000,22.000,0.000,0.000:
0000
0000
0000
0000
,
0000
0000
0000
0000
,
0000
0000
0000
0000
,
0000
0000
0000
0000
,
0000
0000
0000
0000
,
0000
0000
0000
0000
,
0000
0000
0000
0000
,
1000
0000
0010
0000
,
0100
0000
0001
0000
,
0010
0000
0001
0000
,
0010
0000
0100
0000
,
1000
0000
0100
0000
,
1000
0000
0001
0000
,
0100
0000
0010
0000
,
0100
0000
0001
0000
,
0200
0000
0000
0000
,
0000
0000
0000
0000
,
0302
0000
0000
0000
,
0000
0000
0000
0000
,
2003
0000
0000
0000
,
0000
0000
0000
0000
,
3020
0000
0000
0000
,
0000
0000
0000
0000
,
0130
0001
1000
0010
,
0100
0001
0010
0100
,
2002
0000
0000
0000
,
0000
0003
0010
3010
,
0001
0100
0010
1000
,
0001
0010
0001
0010
,
0220
0000
0000
0000
,
0000
0030
0001
0301
,
1000
0010
1000
0000
,
1000
0001
1000
0001
,
0100
0001
0100
0001
,
0100
0010
0100
0010
,
0001
1000
0001
1000
,
0001
0100
0001
0100
,
0010
0010
0100
0100
,
2002
0000
0000
3003
2002
0000
0000
3003
,
0001
1000
0010
0100
,
0001
0010
0100
0010
,
0100
0010
1000
0001
,
0200
0000
0302
0000
,
1003
0010
0100
0001
,
0010
0100
1000
0001
,
0010
0100
0001
0010
,
2000
0000
3200
0000
,
0310
0001
1000
0100
,
1000
0100
0001
0010
,
0220
0000
0000
0330
2002
0000
0000
3003
,
1000
1000
0001
0001
,
1000
0010
0100
0001
,
0010
0100
1000
0001
,
2002
0000
0000
0000
,
0000
0000
0000
3003
,
0001
0001
0001
0001
,
1000
1000
1000
1000
,
0010
0000
0000
0000
;

//---------------dance-single - Copied from----------------
#NOTES:
     dance-single:
     Copied from:
     Hard:
     10:
     1.000,1.000,1.000,0.429,1.000,717.000,186.000,45.000,0.000,0.000:
0000
0000
0000
0000
,
0100
1000
0010
0001
1000
0100
0010
1000
,
0001
0010
1000
1000
0100
0001
0010
0100
,
0100
0001
1000
0100
0010
0001
1000
0100
,
0001
0000
1000
0000
0010
0000
0001
0000
0100
1000
0010
1000
0001
0100
0010
0001
,
1000
0001
0010
0100
1000
0010
0001
1000
,
0100
0000
0010
0000
0010
0000
0001
0000
0100
0000
0010
0010
0000
0001
0001
0000
,
1100
0001
1000
0010
1000
0001
0100
0010
1000
0001
0010
0100
1000
0001
0010
0100
,
1001
0010
0100
1000
0001
0010
0100
0001
1000
0001
0100
0001
0010
0001
0100
0001
,
1010
0001
1000
0100
0010
0001
1000
0010
1000
0001
0100
0001
0010
1000
0001
0100
,
1010
0001
0010
0100
1000
0001
0100
0010
1000
0001
0010
1000
0001
0100
0001
1000
,
0110
0001
1000
0010
0100
0001
1000
0010
0001
1000
0100
0010
0001
0010
0001
0010
,
1100
0001
0010
0001
0100
1000
0001
0100
0001
1000
0010
0001
0100
0010
0100
0010
,
1001
0010
0100
0010
1000
0001
0010
0100
0001
1000
0010
0100
0001
1000
0010
0100
,
0011
1000
0001
0010
1000
0010
1000
0010
0001
0010
0001
1000
0100
0001
0010
1000
,
0101
1000
0001
0100
0001
1000
0010
1000
0001
1000
0010
1000
0001
0100
1000
0100
,
1000
0010
0001
1000
0001
1000
0010
0100
1000
0001
0010
1000
0001
1000
0100
0001
,
1000
0001
1000
0010
1000
0001
1000
0010
0100
0010
0001
1000
0001
0010
0001
1000
,
0100
0010
0100
1000
0100
0001
0100
1000
0010
0001
1000
0010
0001
0100
0001
0010
,
0001
0100
0001
0010
0001
0100
0001
1000
0010
1000
0001
0010
0100
1000
0100
0001
,
0100
0010
1000
0001
1000
0010
0100
0001
1000
0010
0100
0001
1000
0010
0001
1000
,
0010
1000
0001
0100
0001
1000
0100
0010
0001
1000
0100
0001
0100
0010
1000
0010
,
0101
0000
0000
0000
1000
0010
1000
0010
1000
0000
0001
0100
0001
0100
0001
0000
1200
0000
0001
0000
1300
0000
0000
0000
2001
0000
0010
0000
3100
0000
0000
0000
,
1010
0000
0001
1100
0000
1001
0000
1010
1100
0000
1010
0000
0011
0000
1100
0000
,
0110
0110
0000
1010
0000
1001
0000
1100
1100
0000
1001
0000
1001
0000
1020
0001
,
0100
0001
0100
0001
0130
0010
1100
1200
0010
1000
0010
1000
0010
1000
0310
1000
,
0110
0000
1010
0000
1001
0000
1001
0000
0210
0000
1000
0300
0012
0000
0100
0003
,
1010
0000
0001
1100
0000
1010
0000
0011
1100
0000
1001
0000
0011
0000
0101
0000
,
1001
1001
0000
0110
0000
1010
0000
1001
1100
0000
1001
0000
1010
0000
0012
0100
,
0010
0100
0010
0100
0010
0103
1010
1020
0100
0001
1000
0100
0001
1000
0100
0001
,
1000
0100
0001
1000
0130
1000
0010
0100
0001
0100
1000
0010
0100
0010
0001
1000
,
0110
0001
1010
0000
1100
1001
0000
1200
0010
0000
1300
0010
0001
0100
0010
1000
,
0101
0000
1020
0000
0030
1001
0000
1100
1001
0000
0100
0010
0001
0100
1000
0001
,
0110
1000
0011
0000
0101
0101
0000
1002
0010
0000
1003
0010
1000
0001
0100
0001
,
1010
0000
1200
0000
0310
0000
0010
0001
0100
1000
0001
0010
0100
0001
0010
0001
,
0110
0000
0011
0000
0101
0101
0000
2001
0100
0000
0010
3000
1001
1001
0000
0000
,
1100
0000
0001
0000
1010
0000
0000
0000
1010
0000
1001
0000
0000
0000
1010
0000
0001
0000
0000
0000
0200
0000
0000
0000
2300
0000
0000
0000
3020
0000
0000
0030
,
1002
0000
0010
0003
1020
0000
0100
0030
1200
0000
0001
0300
2001
0000
0100
3000
,
0110
0000
0000
0110
0000
0000
0110
0000
0120
0000
1000
0001
0100
0001
1000
0031
,
1100
0000
1001
0100
1010
0000
1010
1010
0000
0000
1001
0001
0110
0000
1100
0011
,
0000
0000
0101
0010
1001
0000
1100
1001
0000
0000
1100
0001
1010
0000
1100
1010
,
0000
1100
1200
0000
0010
1000
0001
1300
0011
0000
0101
0010
1001
0000
1100
0021
,
1000
0100
0001
1030
0102
1000
0010
0103
1020
0001
0130
1200
0001
0310
1001
0010
,
2100
0001
0010
3001
0110
0000
0101
0010
1001
0000
0011
0000
0101
0000
1001
1002
,
0100
0000
0100
0010
0103
0000
0011
1000
0220
0000
0330
0022
0000
0033
0201
0010
,
0301
0000
1010
0100
0021
0000
0001
1000
0100
0001
1000
0130
0011
1000
0101
1000
,
0012
0000
0100
0003
2001
0000
0001
3000
1100
0001
0000
1001
0100
0000
1010
0001
,
1100
0000
0110
0001
1100
0000
1100
1100
0000
0000
0110
1000
0101
0000
0101
1010
,
0000
0000
0011
1000
0110
0000
0101
0110
0000
0000
0101
0010
1100
0000
0101
1200
,
0001
1000
0010
1000
0001
1300
0110
0001
1000
0000
0101
0000
0011
0000
1001
0000
,
1200
0001
1000
0310
1002
0010
1000
0013
0110
1000
0000
1001
0010
0000
1001
0100
,
2001
0000
0100
0010
3100
0000
0011
1000
0210
0000
0301
0000
1001
0000
2010
0001
,
3100
0000
1002
0010
1003
0000
1100
0000
0101
0000
0101
0000
1010
0000
0021
1000
,
0031
0000
1001
0000
0210
0001
1000
0010
0001
1000
0010
0001
0010
1000
0001
0310
,
1001
0010
0100
0001
1010
0001
0010
0001
0100
1000
0010
0100
0001
1000
0001
1000
,
0110
0001
1000
0010
0100
0001
1000
0001
0100
0001
1000
0001
0010
1000
0001
1000
,
0110
0001
0010
0001
0100
1000
0100
0010
0001
1000
0010
0100
0001
0010
0100
0001
,
1010
0000
0000
0000
;
