#TITLE:Painkiller;
#SUBTITLE:v2;
#ARTIST:Judas Priest;
#TITLETRANSLIT:;
#SUBTITLETRANSLIT:;
#ARTISTTRANSLIT:;
#CREDIT:;
#BANNER:Painkiller-ba.png;
#BACKGROUND:Painkiller-bg.png;
#LYRICSPATH:;
#CDTITLE:Mus1c.png;
#MUSIC:Judas Priest - Painkiller.mp3;
#OFFSET:0.000;
#SAMPLESTART:100.000;
#SAMPLELENGTH:12.000;
#SELECTABLE:YES;
#BPMS:0.000=206.021;
#STOPS:;
#BGCHANGES:;
// cache tags:
#FIRSTBEAT:0.667;
#LASTBEAT:1238.000;
#SONGFILENAME:Songs/mongol/Painkiller/Painkiller.sm;
#HASMUSIC:1;
#HASBANNER:1;
#MUSICLENGTH:365.818;
// end cache tags

//---------------dance-single - ----------------
#NOTES:
     dance-single:
     :
     Challenge:
     12:
     1.000,1.000,1.000,0.273,0.935,2490.000,484.000,100.000,0.000,10.000:
0000
0000
0000
0000
0010
1000
0010
1000
0010
1000
0010
1000
0010
1000
0010
1000
,
0100
0010
0100
0010
0100
0010
0100
0010
0100
0010
0100
0010
0100
0010
0100
0001
,
0100
0001
0100
0001
0100
0001
0100
0001
0100
0001
0100
0001
0010
1000
0010
1000
,
0010
1000
0010
1000
0010
1000
0010
1000
0010
1000
0010
0100
0010
0100
0010
0100
,
0010
0100
0010
0100
0010
0100
0010
0100
1000
0001
1000
0001
1000
0001
1000
0001
,
1000
0001
1000
0001
1000
0001
0100
1000
0100
1000
0100
1000
0100
1000
0100
1000
,
0100
1000
0100
1000
0100
0010
0001
0010
0100
1000
0001
0010
0100
1000
0001
0010
,
0100
1000
0011
0000
0010
0000
0010
0000
0010
0000
1010
0000
1000
0000
1000
0000
,
1000
1001
0001
0001
0101
0100
0110
0110
,
0010
0010
0011
0001
0001
1001
1000
1000
,
1000
0000
1001
0000
0001
0010
0100
1000
0100
0010
0101
0000
0010
0000
1100
0000
,
1100
0100
0110
0010
0010
0010
1010
1000
,
1000
1000
1010
0010
0010
0110
0100
0101
,
0101
0001
1001
1000
1000
2000
0000
0000
,
0000
0000
0010
0010
0010
0010
0010
0010
,
0010
3010
0011
0100
0001
1100
1000
0100
,
0011
1000
0010
0110
1000
0001
1001
0100
,
0011
0100
1100
0010
1000
0011
0001
0010
,
1100
0001
0100
1001
0100
1000
0002
0000
,
0000
0000
1103
0001
1010
0001
0100
1001
,
0100
1000
0010
0011
0100
0001
1010
0100
,
0011
0100
1010
0100
0001
0110
1000
0001
,
1001
0100
0001
1010
0100
0001
2020
0000
,
0000
3030
0011
1100
1000
0011
0100
0011
,
0011
1000
0100
0011
0100
0001
0010
0100
,
0001
1010
0100
1001
0100
0010
1100
1001
,
0100
0022
0033
0100
0001
0010
0100
0001
,
1100
0001
1001
0100
0011
0100
0101
0010
,
1100
1100
0001
1010
0100
0001
1010
0100
,
0011
0100
1010
0001
0110
1000
0011
0100
,
0011
2200
0000
0000
3300
0001
0110
1100
,
0001
0110
1000
0110
0001
1000
0011
1100
,
0001
0011
0010
1100
0001
0100
0010
0001
,
0100
0010
1001
0100
1010
0100
1100
0001
,
0011
0101
0010
0110
1000
0001
0100
0010
,
1000
0100
0011
1000
0101
1000
0110
0001
,
1100
0100
1001
0010
1100
0001
0101
1000
,
0110
0200
0000
0000
0000
0000
0000
0000
,
0000
0000
0000
1000
0010
0001
0010
1000
,
0010
0000
0301
0000
1000
0100
1000
0100
1000
0100
1000
0100
1000
0100
1000
0100
,
1000
0100
1000
0100
0001
1000
0001
1000
0001
1000
0001
1000
0001
1000
0001
1000
,
0001
1000
0001
1000
0010
0100
0010
0100
0010
0100
0010
0001
0010
0001
0010
0001
,
0010
0001
0010
0001
0100
0001
0100
0001
0100
0001
0100
0001
0010
1000
0010
1000
,
0010
1000
0010
1000
0001
0010
0100
1000
0001
0010
0100
1000
0001
0010
0100
1000
,
0001
0010
0100
1000
0001
0100
0001
1000
0001
0100
0001
0010
0001
1000
0001
0100
,
0001
0010
1000
0001
1000
0010
1000
0100
1000
0001
1000
0100
0010
0001
1000
0100
,
0010
0001
0100
0010
0100
0010
0100
0010
0100
0010
0100
0010
1001
0000
0100
0000
,
0100
0110
0010
0010
1010
1000
1000
1000
,
1001
0001
0001
0101
0100
0100
1100
1000
,
1100
0100
0101
0001
0001
0011
0010
0010
,
0110
0100
0100
0101
0001
0001
2001
0000
,
3100
0100
0101
0001
0001
1001
1000
1000
,
1100
0100
0100
0110
0010
0010
1010
1000
,
1000
1000
1001
0001
0001
0011
0010
0010
,
1010
1000
1000
1100
0100
0100
1100
0001
,
0100
1000
0011
0100
0010
1100
1000
0010
,
1001
0100
0001
1100
0010
0100
0110
0001
,
0100
0010
1001
0100
1000
0011
0100
0001
,
1010
0001
0100
0101
1000
0100
2002
0000
,
3003
0010
1100
0001
1000
0110
1000
0001
,
0110
0001
0100
1010
0100
1000
0011
0100
,
0001
1000
0110
0001
1000
0101
0010
0001
,
1100
0010
0101
0101
0101
0101
0101
0101
,
0000
0000
0000
0000
1000
0001
1000
0001
1000
0001
1000
0001
1000
0001
1000
0001
,
1000
0001
1000
0001
0100
1000
0100
1000
0100
1000
0100
1000
0100
1000
0100
1000
,
0100
1000
0100
0001
0100
0001
0100
0001
0100
0001
0100
0001
0010
0100
0010
0100
,
0010
0100
0010
0100
1000
0010
1000
0010
1000
0010
1000
0010
0100
1000
0100
1000
,
0100
1000
0001
0010
0100
1000
0001
0010
0100
1000
0001
0010
0100
1000
0001
0010
,
0100
1000
0001
0010
1000
0100
0010
0001
1000
0100
0010
0001
1000
0100
0010
0001
,
1000
0100
0010
0001
1000
0010
1000
0001
1000
0100
1000
0010
0001
0100
0001
1000
,
0001
0100
0001
0010
0100
1000
0100
0010
0100
0001
0100
1000
0010
0100
0010
1000
,
0010
0001
0220
0000
0000
0000
0000
0000
0000
0000
0000
0000
0000
0000
0000
0000
,
0000
0000
0000
0000
,
0000
0000
0000
0000
,
0000
0000
0000
0000
,
0000
0330
1000
1000
1000
1000
1001
0001
,
0001
0001
0011
0010
0010
0010
0110
0100
,
0100
0100
0101
0001
0011
0110
0100
1100
,
1000
0000
1000
0100
0010
0001
1000
0100
0010
0001
1000
0100
0010
0001
1000
0100
,
0010
0001
0010
0000
1001
0000
1000
0000
0100
0000
0011
0000
0010
0000
0001
0000
,
1100
0001
1000
0011
0100
0001
1010
0001
,
0110
0001
1100
0010
0001
0011
0100
1000
,
0110
0010
1001
0100
0001
1010
0100
0001
,
1001
0010
0110
1000
0001
0110
0001
1010
,
0100
1000
0101
0010
1000
0100
0011
0100
,
1001
0001
1010
0100
1000
0110
0001
0010
,
1100
0001
0011
0100
0010
1001
0100
0010
,
1010
0000
0100
0000
0101
1000
0100
0010
0001
1000
0100
1000
0011
1000
0100
0010
,
0100
0010
0100
0010
1001
0100
1000
0100
0010
0001
1000
0100
0011
1000
0001
0010
,
0100
1000
0001
0010
1100
0001
1000
0010
0100
0010
1000
0100
0011
1000
0100
0010
,
0100
1000
0001
0100
0011
1000
0100
0010
0001
1000
0100
0010
1001
0100
0010
0001
,
0100
0001
0100
0001
1010
0001
0100
0001
1000
0001
0100
0001
0110
1000
0100
0010
,
0001
0010
0100
1000
0110
0001
1000
0100
0010
0100
1000
0001
1010
0001
0010
0100
,
1000
0001
0100
1000
0011
0100
1000
0010
0100
1000
0010
0100
0011
1000
0100
0010
,
1000
0001
0010
1000
0110
0001
1000
0001
1000
0000
0110
0000
0000
0000
0011
0000
,
0000
0000
0000
0000
1001
0010
1000
0010
1000
0010
1000
0010
1000
0001
1000
0001
,
1000
0001
1000
0001
0100
1000
0100
1000
0100
1000
0100
1000
0100
0001
0100
0001
,
0100
0001
0100
0001
0010
0100
0010
0100
0010
0100
0010
0100
0001
0010
0001
0010
,
0001
0010
0001
0010
0001
1000
0001
1000
0001
1000
0001
1000
0001
0100
0001
0100
,
0001
0100
0001
0100
0010
0100
0010
0100
0010
0100
0010
0100
0010
0100
1000
0100
,
1000
0100
1000
0100
0010
1000
0010
1000
0010
1000
0010
1000
0001
1000
0001
1000
,
0001
1000
0001
1000
0010
0100
0010
0100
0010
0100
0010
0100
1000
0100
1000
0100
,
1000
0100
1000
0100
2002
0000
0000
0000
0000
0000
0000
0000
0000
0000
0000
0000
,
0000
0000
0000
0000
,
0000
0000
0000
0000
,
0000
0000
0000
0000
,
0000
0000
0000
0000
0000
0000
0000
0000
0000
0000
0000
0000
0000
0000
0000
0000
0000
0000
0000
0000
0000
0000
0000
0000
0000
0000
0000
0000
0000
0000
0000
0000
0000
0000
0000
0000
0000
0000
0000
0000
0000
0000
0000
0000
0000
0000
0000
0000
0000
0000
0000
0000
0000
0000
0000
0000
0000
0000
0000
0000
0000
0000
0000
0000
0000
0000
0000
0000
0000
0000
0000
0000
0000
0000
0000
0000
0000
0000
0000
0000
0000
0000
0000
0000
0000
0000
0000
0000
0000
0000
0000
0000
0000
0000
0000
0000
0000
0000
0000
0000
0000
0000
0000
0000
0000
0000
0000
0000
0000
0000
0000
0000
0000
0000
0000
0000
0000
0000
0000
0000
0000
0000
0000
0000
0000
0000
0000
0000
0000
0000
0000
0000
0000
0000
0000
0000
0000
0000
0000
0000
0000
0000
0000
0000
0000
0000
0000
0000
0000
0000
0000
0000
0000
0000
0000
0000
0000
0000
0000
0000
0000
0000
0000
0000
0000
0000
0000
0000
0000
0000
0000
0000
0000
0000
0000
0000
0000
0000
0000
0000
0000
3003
0000
0000
0000
0000
0000
0000
0000
0000
0000
0000
,
0000
0000
0000
0000
0000
0010
0000
1000
0000
0000
0010
0000
0000
1000
0000
0010
,
0000
0000
1000
0000
0000
0010
0000
0000
1000
0000
0010
0000
1000
0000
0010
0000
,
1000
0000
0010
0000
0100
1000
0100
0000
0010
0001
0010
0000
0100
0010
0100
0000
,
0010
0001
0010
1000
0001
1000
0001
1000
0001
1000
0001
1000
0001
1000
0001
1000
,
0001
1000
0001
1000
0001
0100
0010
0001
0010
0100
1000
0100
0010
0001
0010
1000
,
0100
1000
0100
1000
0100
1000
0001
0010
0100
1000
0001
0010
0100
1000
0100
0010
,
0001
0010
0100
1000
0100
0010
0100
1000
0010
0001
0010
0001
0010
0001
0010
1000
,
0100
0010
0001
1000
0011
0000
0000
0000
0000
0000
0000
0000
0000
0000
0000
0000
,
1000
0000
0000
1000
0000
0000
0000
0000
0010
0000
0000
0010
0000
0000
0000
0000
,
0100
0000
0000
0100
0000
0000
0000
0000
0000
0000
0000
0000
0000
0000
0000
0000
,
0000
0002
0000
0000
0000
0000
0000
0000
,
0000
0003
0010
0000
0000
0000
0000
0000
,
0100
0000
0000
1000
0000
0000
0000
0000
0010
0000
0000
0001
0000
0000
0000
0000
,
0100
0000
0000
0010
0000
0000
0000
0000
0000
0000
0000
0000
0000
0000
0000
0000
,
0000
0000
0020
0230
0000
0000
0000
0000
,
0300
0000
0011
0010
0010
1010
1000
1000
,
1001
0001
0001
0011
0010
0010
0110
0100
,
1100
1000
1100
0100
0100
0101
0001
0001
,
0011
0010
0010
0110
0100
0100
0101
0001
,
1001
1000
1010
0010
0010
1010
1000
1000
,
1100
0100
0100
0110
0010
0010
0011
0001
,
0101
0100
0110
0010
0010
1010
0000
0000
,
0100
0010
0000
0000
0000
0000
0000
0000
0000
0100
2000
0000
0000
0000
0000
0000
,
0000
3020
0000
0000
,
0032
2003
3002
0000
0000
0000
0000
0000
,
2003
0000
3011
0000
0011
2000
0000
3110
,
0000
1100
0020
0000
2030
0000
3000
0000
,
0000
0000
1000
0100
0010
0001
0010
0100
,
0010
0001
1000
0100
0010
0001
0100
0010
,
1000
0001
0100
0001
0100
0001
0100
0001
0100
0001
0100
0001
0100
0001
0010
0100
,
1000
0100
0010
0001
0010
0100
2000
0000
0000
0000
0000
0000
0000
0000
0000
0000
,
0000
3020
0000
0000
,
0000
2030
0000
3020
,
0000
0032
0000
0000
,
0203
2300
0000
0000
,
3200
0300
0001
0100
0010
1000
0001
1000
,
0100
0000
0010
0000
1000
0010
0100
0010
0100
0010
0100
0010
0100
0010
0100
0010
,
0100
0000
1000
0100
1000
0100
1000
0100
1000
0100
0010
0001
0010
0001
0010
0001
,
0010
1000
0100
0010
0001
1000
0100
0010
0001
1000
0100
0010
0001
1000
0002
0000
,
0000
0203
0000
0000
,
0000
0302
0000
0000
,
0000
0003
0000
0000
1000
0100
0010
0001
,
1000
0100
0010
0100
0001
0010
1000
0100
,
0001
1000
0002
0000
0000
0000
0003
0000
,
1000
0100
1000
0100
1000
0100
1000
0100
1000
0100
1000
0100
1000
0100
1000
0001
,
0010
0100
1000
0001
0010
0100
1000
0001
0010
0100
1000
0001
0010
0100
1000
0001
,
0010
0100
1000
0001
1000
0100
0010
0001
1000
0100
0010
0001
1000
0100
0010
0001
,
1000
0000
0000
0100
0000
0000
0010
0000
0000
0001
0000
0000
1000
0000
0000
0100
0000
0000
0010
0000
0001
0000
0000
0000
0010
0000
0000
0000
0100
0000
0000
0000
1000
0000
0000
0000
0001
0000
0000
0000
0010
0000
0000
0000
0100
0000
0000
0000
,
1000
0100
0010
0001
0010
0100
1000
0001
0010
0100
1000
0100
,
0010
0001
0010
0100
0010
0100
0001
1000
0001
1000
0001
1000
,
0001
1000
0001
2000
0000
0000
0000
0000
0000
0000
0000
0000
,
0000
3020
0000
0000
,
0030
0100
1000
0001
0010
0100
1000
0001
,
0100
0010
0002
0103
1000
0010
2000
3010
,
0001
1000
0020
0130
1000
0001
1100
0100
,
0110
0010
2001
0000
0000
0000
0000
0000
,
0000
0000
0000
3200
,
0000
0000
2300
0000
0000
0000
0000
3002
,
0000
0023
0000
0230
,
0000
0000
0320
0000
0000
0000
0030
1000
,
0001
0100
0010
1000
0001
0100
0010
1000
,
0001
0010
1100
0000
1001
0000
0011
0000
,
0101
1001
2002
3003
,
0000
0000
0110
0010
0010
1010
1000
1000
,
1001
0001
0001
0101
0100
0100
0110
0010
,
0110
0100
0110
0010
0010
0011
0001
0001
,
1001
1000
1000
1100
0100
0100
0101
0001
,
0011
0010
1010
1000
1000
1100
0100
0100
,
0110
0010
0010
1010
1000
1000
1001
0001
,
0011
0010
1010
1000
1000
1001
0001
0001
,
0101
0100
0100
0110
0010
0010
1010
0000
,
0101
0000
2002
3003
0100
0011
1000
0001
,
0110
0001
0100
1010
0100
0001
0110
1000
,
0011
0100
0110
0001
0010
1001
0100
1000
,
0101
0010
1000
1100
0001
0100
0110
1000
,
0011
0000
0100
0000
0110
1000
0100
0010
0001
1000
0100
0010
0001
1000
0100
0010
,
0001
1000
0100
0010
0001
1000
0001
1000
0010
1000
0100
1000
0010
0001
1000
0001
,
0100
0001
0010
1000
0100
1000
0100
1000
0100
1000
0100
1000
0100
1000
0100
1000
,
0100
1000
0100
0010
0001
0010
0100
1000
0001
0010
0100
1000
0001
0010
0100
1000
,
0022
0000
0033
1100
0001
0100
1010
0100
,
0001
1001
0100
0001
0110
1000
0101
1000
,
0110
0001
0010
1100
0010
0100
0011
1000
,
0101
1000
0001
1100
0010
0100
2010
0000
,
3010
0100
0011
0100
0001
1010
0100
1000
,
0110
0001
0100
1001
0100
1000
0011
0001
,
1100
0001
1010
0100
1000
0011
0100
1000
,
0101
0010
0100
1001
0010
1000
0220
0330
,
0001
0001
0011
0010
0010
1010
1000
1000
,
1100
0100
0100
0110
0010
0010
1010
1000
,
1001
0001
0011
0010
0010
1010
1000
1000
,
1010
0010
0010
0011
0001
0001
0102
0000
,
0103
0100
0100
0110
0010
0010
1010
1000
,
1100
0100
0100
0110
0010
0010
0011
0001
,
1001
1000
1100
0100
0100
0110
0010
0010
,
0010
0000
1010
0000
1000
0100
0010
0001
1000
0100
0010
0001
1000
0100
0010
0001
,
0010
0100
0010
0001
0010
0100
0010
0100
0010
0100
0010
0100
0010
0100
0010
0100
,
0010
0100
0010
0100
1000
0100
0010
0001
1000
0100
0010
0001
1000
0100
0010
0001
,
1000
0100
0010
0001
0100
0001
0100
0001
0100
0001
0100
0001
0010
0100
1000
0001
,
0010
0100
1000
0001
1000
0100
1000
0100
1000
0100
1000
0100
0001
1000
0001
0100
,
0001
1000
0001
0010
0001
1000
0010
0001
0010
0001
0010
0001
0010
0001
0010
0001
,
0010
0001
0010
0001
0010
0001
1000
0010
1000
0010
1000
0010
1000
0010
1000
0010
,
1000
0010
1000
0010
0001
0010
0100
1000
0001
0010
0100
1000
0010
0100
0010
0100
,
0010
0100
0010
0100
1000
0010
1000
0001
1000
0100
1000
0001
1000
0100
0010
0001
,
1000
0100
0010
0001
0100
0001
0100
0001
0100
0001
0100
0001
0100
0001
0100
0001
,
0100
0001
0100
0001
1000
0100
1000
0100
1000
0100
1000
0100
1000
0100
1000
0100
,
1000
0100
1000
0100
0001
0010
0001
0010
0001
0010
0001
0010
1000
0100
0010
0001
,
1000
0100
0010
0001
0100
0010
0100
0010
0100
0010
0100
0010
1000
0100
0010
0100
,
1000
0100
0010
0100
0001
0010
1000
0010
0001
0010
1000
0010
0100
0010
0001
0010
,
1000
0010
0100
0010
1000
0100
0010
0001
0010
0100
1000
0100
0010
0001
0010
0100
,
1000
0100
0010
0001
1000
0100
1000
0100
1000
0100
1000
0100
0001
0010
0100
1000
,
0001
0010
0100
1000
0001
0100
0001
1000
0001
0010
0001
0100
1000
0100
0010
0001
,
1000
0100
0010
0001
1000
0100
0022
0000
0000
0000
0000
0000
0000
0000
0000
0000
,
0000
0000
0000
0000
,
0000
0000
0000
0000
,
0000
0000
0000
0000
,
0000
0033
1100
0001
1000
0110
0001
0010
,
1001
0100
0010
2010
0000
3000
0101
1000
,
0110
0001
1100
0100
1000
0101
0010
1000
,
0110
0001
1010
0100
1000
0011
0100
0001
,
1100
0010
0110
0000
0100
0000
0001
0000
,
1000
0000
0011
1000
0000
0001
0000
0100
,
0000
0010
0000
1100
0000
0100
0000
1000
,
0000
0001
0000
0100
0000
1000
0000
0010
,
0000
0000
0100
0000
0000
0000
0011
0100
0000
1000
0000
0000
0100
0000
0000
1000
,
0000
0100
0000
0000
1000
0000
0000
0100
0000
0000
0001
0000
0010
0000
0001
0000
,
0010
0000
0001
0000
0010
0000
1000
0100
1000
0000
0100
0001
0100
0000
1000
0010
,
1000
0000
0010
0001
0010
1000
0100
0010
0001
1000
0100
0010
0001
1000
0100
0010
,
0001
1000
0100
0010
0001
1000
0011
0000
0010
0000
0010
0000
1010
0000
1000
0000
,
1000
1001
0001
0001
1001
1000
1000
1010
,
0010
0011
0001
1001
1000
1000
1100
0100
,
0110
0000
0010
0000
0010
0000
0011
1000
0001
1000
0001
0000
0000
0000
2001
0000
,
0000
0000
3110
0010
0010
0110
0100
0100
,
0101
0001
0001
0011
0010
0010
0010
1010
,
1000
1001
0001
1001
1001
1000
1001
0001
,
0001
0000
0011
0000
0010
0000
0010
0000
1010
0100
1000
0100
0010
0001
0010
0001
,
0010
0100
0010
0001
1100
0000
1100
0000
1100
0000
1100
0000
1100
0000
1100
0000
,
1100
1100
0110
0110
0110
0110
0110
0110
,
0110
0110
1001
1001
1001
1001
0011
0011
,
0011
0011
1010
1010
1010
1010
0101
0101
,
0101
0101
0110
0110
0110
0110
0110
0110
,
0110
0110
0110
1010
1010
1010
1010
1010
,
1010
1010
1100
1100
1100
1100
1001
1001
,
1001
1001
0011
0011
0011
0011
0110
0110
,
0110
0110
1001
1001
1001
1001
1001
1001
,
1001
1001
1010
1010
1010
1010
1010
1010
,
1010
1010
0011
0011
0011
0011
0101
0101
,
0101
0101
1100
1100
1100
1100
0110
0110
,
0110
0110
1001
1001
1001
1001
1001
1001
,
1001
1001
0011
0011
0011
0011
0011
0011
,
0011
0011
1010
1010
1010
1010
0101
0101
,
0101
0101
0110
0110
0110
0110
2002
0000
,
3003
0002
0000
0003
,
0000
0000
2000
0000
0000
3000
0000
0000
,
0000
0000
0020
0000
0000
0030
0000
0000
,
0000
0000
0200
0000
0000
0300
0000
0000
,
0000
0000
0002
0000
0000
0003
0000
0000
,
0000
0000
2000
0000
0000
3000
0000
0000
,
0000
0000
0020
0000
0000
0030
0000
0000
,
0000
0220
0000
0000
,
0330
0000
0000
2000
0000
0000
3020
0000
,
0030
0000
0100
0010
1000
0010
0100
2000
,
0000
0000
3000
0000
0000
0000
0000
0000
0000
0001
0010
0100
1000
0001
0010
0100
,
1000
0001
0010
0100
1000
0010
0001
1000
0100
0010
0001
1000
0100
0010
0002
0000
,
0000
0003
0000
0100
0100
0100
0000
0020
,
0030
1000
1000
1000
0100
0010
0001
0020
,
0000
0000
0030
0000
0000
1000
0001
1000
0001
1000
0001
0000
1000
0100
1000
0100
,
1000
0100
0000
0000
0000
1000
0100
0010
0001
0010
0100
0010
0100
0010
0200
0000
,
0000
0300
0000
0000
0000
0000
0110
0000
0110
0000
0110
0000
0110
0000
0110
0000
,
1000
0100
0010
0002
0000
0103
1000
0020
,
0030
0000
0000
0000
0000
0000
0000
0001
0100
0001
0100
0001
0100
0001
0100
0001
,
0100
0001
0100
0001
0010
0000
2000
0000
3200
0000
0302
0000
0023
0000
0000
0000
,
0030
0000
0000
1100
0000
0000
0110
0000
,
1100
0000
0000
0011
0000
0000
0000
0101
,
0000
1100
0000
0102
0000
0000
0000
0000
,
0000
0000
0000
1000
1000
1000
1000
1000
,
1003
0000
0000
0000
0000
0000
0001
0010
0100
1000
0001
0010
0100
1000
0001
0010
,
0100
1000
0001
0010
0100
1000
0010
0100
0010
0100
0010
0100
0010
0100
0010
0100
,
0010
0100
0010
0100
1000
0100
0010
0001
1000
0100
0010
0001
1000
0100
0010
0001
,
1000
0100
0010
0001
1000
0100
0010
0001
1000
0100
0010
0001
0010
0100
1010
0000
,
0000
1100
0000
0201
0000
0000
0000
0000
,
0000
0000
2310
0000
,
0000
0000
0000
0000
,
3012
0000
0000
0213
,
0000
0000
2301
0000
,
0000
3220
0000
0000
,
0000
0000
0000
0000
,
0000
0000
0000
0000
,
0000
0000
0000
0000
,
0000
0000
0000
0000
,
0000
0000
0000
0000
,
0000
0000
0000
0000
,
0000
0000
0000
0000
,
0000
0000
0000
0000
,
0000
0000
0000
0000
,
0000
0000
0000
0000
,
0000
0000
0000
0000
,
0000
0000
0000
0000
,
0000
0000
0000
0000
,
0000
0000
0000
0000
,
0000
0000
0000
0000
,
0000
0000
0000
0000
,
0000
2332
0000
0000
0000
0000
0000
0000
,
0000
0000
3003
0000
;

//---------------dance-single - ----------------
#NOTES:
     dance-single:
     :
     Hard:
     11:
     1.000,1.000,1.000,0.276,1.000,2420.000,563.000,101.000,0.000,11.000:
0000
0000
0010
0100
0010
0100
0010
0100
0010
0100
0010
0100
,
0010
1000
0100
0010
0001
1000
0100
0010
0001
1000
0100
0001
,
0010
0001
0010
0001
0010
0001
0010
0001
0010
1000
0100
0010
,
0100
1000
0001
0010
0100
1000
0010
0001
1000
0010
1000
0010
,
1000
0010
1000
0010
1000
0010
0001
1000
0001
1000
0001
1000
,
0001
1000
0001
1000
0010
0100
1000
0100
0010
0001
0010
0100
,
1000
0000
0000
0000
0100
0000
0000
0000
0010
0000
0000
0000
0001
0000
0000
0010
0000
0000
0001
0000
0000
0010
0000
0000
0100
0000
0000
1000
0000
0000
0001
0000
0000
0010
0000
0000
0100
0000
0000
1000
0000
0000
0001
0000
0000
0010
0000
0000
,
0100
1000
0011
0000
0010
0000
0010
0000
0010
0000
1010
0000
1000
0000
1000
0000
,
1000
1001
0001
0001
0101
0100
0110
0110
,
0010
0010
0011
0001
0001
1001
1000
1000
,
1000
0000
1001
0000
0001
0010
0100
1000
0100
0010
0101
0000
0010
0000
1100
0000
,
1100
0100
0110
0010
0010
0010
1010
1000
,
1000
1000
1010
0010
0010
0110
0100
0101
,
0101
0001
1001
1000
1000
2000
0000
0000
,
0000
0000
0010
0010
0010
0010
0010
0010
,
0010
3010
0011
0100
0001
1100
1000
0100
,
0011
1000
0010
0110
1000
0001
1001
0100
,
0011
0100
1100
0010
1000
0011
0001
0010
,
1100
0001
0100
1001
0100
1000
0002
0000
,
0000
0000
1103
0001
1010
0001
0100
1001
,
0100
1000
0010
0011
0100
0001
1010
0100
,
0011
0100
1010
0100
0001
0110
1000
0001
,
0010
1100
0011
1100
0011
1100
0022
0000
,
0000
0033
0011
1100
1000
0011
0100
0011
,
0011
1000
0100
0011
0100
0001
0010
0100
,
0001
1010
0100
1001
0100
0010
1100
1001
,
0100
0022
0033
0100
0001
0010
0100
0001
,
1100
0001
1001
0100
0011
0100
0101
0010
,
1100
1100
0001
1010
0100
0001
1010
0100
,
0011
0100
1010
0001
0110
1000
0011
0100
,
0011
2200
0000
0000
3300
0001
0110
1100
,
0001
0110
1000
0110
0001
1000
0011
1100
,
0001
0011
0010
1100
0001
0100
0010
0001
,
0100
0010
1001
0100
1010
0100
1100
0001
,
0011
0101
0010
0110
1000
0001
0100
0010
,
1000
0100
0011
1000
0101
1000
0110
0001
,
1100
0100
1001
0010
1100
0001
0101
1000
,
0110
0200
0000
0000
0000
0000
0000
0000
,
0000
0000
0000
1000
1000
1000
1000
1000
,
1000
0000
0000
1300
0000
0000
1000
0000
0100
0000
0010
0000
0001
0000
1000
0000
0100
0000
0010
0000
0001
0000
1000
0000
,
0100
0010
0001
0100
0010
0100
0010
0100
0010
0100
0010
0100
,
0010
0100
0010
1000
0010
1000
0010
1000
0100
0001
0100
0001
,
0100
0001
0100
0001
0010
0100
1000
0001
0010
0100
0010
0100
,
0010
0100
0010
1000
0010
1000
0010
1000
0010
1000
0010
1000
,
0010
1000
0010
0001
0010
0001
0010
0001
0010
0001
0010
0001
,
0010
0001
0010
1000
0100
1000
0100
1000
0100
0001
0100
0001
,
0100
0001
1000
0100
0010
0001
1000
0100
0010
2002
0000
0000
,
0000
3113
0010
0010
1010
1000
1000
1000
,
1001
0001
0001
0101
0100
0100
1100
1000
,
1100
0100
0101
0001
0001
0011
0010
0010
,
0110
0100
0100
0101
0001
0001
2001
0000
,
3100
0100
0101
0001
0001
1001
1000
1000
,
1100
0100
0100
0110
0010
0010
1010
1000
,
1000
1000
1001
0001
0001
0011
0010
0010
,
1010
1000
1000
1100
0100
0100
1100
0001
,
0100
1000
0011
0100
0010
1100
1000
0010
,
1001
0100
0001
1100
0010
0100
0110
0001
,
0100
0010
1001
0100
1000
0011
0100
0001
,
1010
0001
0100
0101
1000
0100
2002
0000
,
3003
0010
1100
0001
1000
0110
1000
0001
,
0110
0001
0100
1010
0100
1000
0011
0100
,
0001
1000
0110
0001
1000
0101
0010
0001
,
1100
0001
0110
1001
0110
1001
0110
1001
,
0110
0000
0000
1000
0100
0010
0001
1000
0100
0010
0001
1000
,
0100
0010
0001
0100
0010
0100
0010
0100
0010
0100
0010
0100
,
0010
0100
0010
0001
1000
0100
0010
0001
1000
0001
1000
0001
,
1000
0001
1000
0010
0001
0010
0001
0010
1000
0100
1000
0100
,
1000
0100
1000
0010
0100
1000
0001
0010
0100
1000
0001
0010
,
0100
1000
0010
0100
0010
0100
0010
0100
0010
0100
0010
0100
,
0010
0100
0001
1000
0001
1000
0001
1000
0010
0001
0010
0001
,
0010
0001
1000
0100
0010
0001
1000
0100
0010
1000
0100
1000
,
0100
0000
1000
0220
0000
0000
0000
0000
0000
0000
0000
0000
0000
0000
0000
0000
0000
0000
0000
0000
0000
0000
0000
0000
,
0000
0000
0000
0000
,
0000
0000
0000
0000
,
0000
0000
0000
0000
,
0000
0330
1000
1000
1000
1000
1001
0001
,
0001
0001
0011
0010
0010
0010
0110
0100
,
0100
0100
0101
0001
0011
0110
0100
1100
,
1000
0000
1000
0100
0010
0001
1000
0100
0010
0001
1000
0100
0010
0001
1000
0100
,
0010
0001
0010
0000
1001
0000
1000
0000
0100
0000
0011
0000
0010
0000
0001
0000
,
1100
0001
1000
0011
0100
0001
1010
0001
,
0110
0001
1100
0010
0001
0011
0100
1000
,
0110
0010
1001
0100
0001
1010
0100
0001
,
1001
0010
0110
1000
0001
0110
0001
1010
,
0100
1000
0101
0010
1000
0100
0011
0100
,
1001
0001
1010
0100
1000
0110
0001
0010
,
1100
0001
0011
0100
0010
1001
0100
0010
,
1010
0000
0000
0100
0000
0000
0101
0000
1000
0000
0100
0000
0001
0000
1000
0000
0100
0000
0011
0000
0100
0000
0010
0000
,
0001
0010
0100
1001
0010
0001
1000
0001
1000
0110
0001
0010
,
0100
0010
0001
1100
0010
0001
0100
1000
0100
0011
0100
1000
,
0100
0010
1000
0011
0100
0001
1000
0010
0100
1001
0100
0001
,
0010
0100
0001
1010
0001
0010
0100
0010
0001
0110
1000
0100
,
1000
0010
0100
0011
1000
0100
0010
0001
0100
1010
0001
0010
,
1000
0100
0001
0110
0001
1000
0100
0010
0001
1010
0001
0010
,
0001
0000
1000
0000
0001
0000
0110
0000
0000
0000
0000
0000
0000
0000
0000
0110
0000
0000
0000
0000
0000
0011
0000
0000
,
0000
0000
0000
1001
0100
0010
0100
0010
0100
1000
0001
1000
,
0001
1000
0001
0100
1000
0100
1000
0100
1000
0100
0001
0100
,
0001
0100
0001
0010
0100
0010
0100
0010
0100
0001
0010
0100
,
1000
0001
0010
1000
0100
0010
0100
1000
0100
0001
0010
0001
,
0010
0001
0010
1000
0100
0010
0001
1000
0100
0010
0100
0010
,
0100
0010
0100
0010
1000
0010
1000
0010
1000
0001
0100
0001
,
0100
0001
0100
0001
1000
0001
1000
0001
1000
0001
0010
0100
,
1000
0001
0010
2002
0000
0000
0000
0000
0000
0000
0000
0000
,
0000
0000
0000
0000
,
0000
0000
0000
0000
,
0000
0000
0000
0000
,
0000
0000
0000
0000
0000
0000
0000
0000
0000
0000
0000
0000
0000
0000
0000
0000
0000
0000
0000
0000
0000
0000
0000
0000
0000
0000
0000
0000
0000
0000
0000
0000
0000
0000
0000
0000
0000
0000
0000
0000
0000
0000
0000
0000
0000
0000
0000
0000
0000
0000
0000
0000
0000
0000
0000
0000
0000
0000
0000
0000
0000
0000
0000
0000
0000
0000
0000
0000
0000
0000
0000
0000
0000
0000
0000
0000
0000
0000
0000
0000
0000
0000
0000
0000
0000
0000
0000
0000
0000
0000
0000
0000
0000
0000
0000
0000
0000
0000
0000
0000
0000
0000
0000
0000
0000
0000
0000
0000
0000
0000
0000
0000
0000
0000
0000
0000
0000
0000
0000
0000
0000
0000
0000
0000
0000
0000
0000
0000
0000
0000
0000
0000
0000
0000
0000
0000
0000
0000
0000
0000
0000
0000
0000
0000
0000
0000
0000
0000
0000
0000
0000
0000
0000
0000
0000
0000
0000
0000
0000
0000
0000
0000
0000
0000
0000
0000
0000
0000
0000
0000
0000
0000
0000
0000
0000
0000
0000
0000
0000
0000
0000
3003
0000
0000
0000
0000
0000
0000
0000
0000
0000
0000
,
0000
0000
0000
0000
0000
0010
0000
1000
0000
0000
0010
0000
0000
1000
0000
0010
,
0000
0000
1000
0000
0000
0010
0000
0000
1000
0000
0010
0000
1000
0000
0010
0000
,
1000
0000
0010
0000
0100
1000
0100
0000
0010
0001
0010
0000
0100
0010
0100
0000
,
0010
0001
0010
0100
1000
0100
0000
1000
0001
1000
0001
1000
0001
1000
0001
1000
,
0001
1000
0001
1000
0001
0100
0010
0001
0010
0100
1000
0100
0010
0001
0010
1000
,
0100
1000
0100
1000
0100
1000
0001
0010
0100
1000
0001
0010
0100
1000
0100
0010
,
0001
0010
0100
1000
0100
0010
0100
1000
0010
0001
0010
0001
0010
0001
0010
1000
,
0100
0010
0001
1000
0011
0000
0000
0000
0000
0000
0000
0000
0000
0000
0000
0000
,
1000
0000
0000
1000
0000
0000
0000
0000
0010
0000
0000
0010
0000
0000
0000
0000
,
0100
0000
0000
0100
0000
0000
0000
0000
0000
0000
0000
0000
0000
0000
0000
0000
,
0000
0002
0000
0000
0000
0000
0000
0000
,
0000
0003
0010
0000
0000
0000
0000
0000
,
0100
0000
0000
1000
0000
0000
0000
0000
0010
0000
0000
0001
0000
0000
0000
0000
,
0100
0000
0000
0010
0000
0000
0000
0000
0000
0000
0000
0000
0000
0000
0000
0000
,
0000
0000
0020
0230
0000
0000
0000
0000
,
0300
0000
0011
0011
0011
1010
1010
1010
,
1001
1001
1001
0011
0011
0011
0110
0110
,
1100
1100
1010
1010
1010
0101
0101
0101
,
0011
0011
0011
0110
0110
0110
0101
0101
,
1001
1001
1010
1010
1010
0110
0110
0110
,
1100
1100
1100
0101
0101
0101
0011
0011
,
0101
0101
0110
0110
0110
1010
0000
0000
,
0100
0000
0010
0000
0000
0000
0000
0000
0000
0000
0000
0000
0100
0000
0000
2000
0000
0000
0000
0000
0000
0000
0000
0000
,
0000
3020
0000
0000
,
0032
2003
3002
0000
0000
0000
0000
0000
,
2003
0000
0000
3011
0000
0011
0000
0200
0000
0000
1301
0000
,
1001
0020
2030
3000
,
0000
0000
1000
0100
0010
0001
0010
0100
,
0010
0001
1000
0100
0010
0001
0100
0010
,
1000
0001
0100
0001
0100
0001
0100
0001
0100
0001
0100
0001
0100
0001
0010
0100
,
1000
0100
0010
0001
0010
0100
2000
0000
0000
0000
0000
0000
0000
0000
0000
0000
,
0000
3020
0000
0000
,
0000
2030
0000
3020
,
0000
0032
0000
0000
,
0203
2300
0000
0000
,
3200
0000
0300
0000
0001
0000
0100
0000
0010
0000
1000
0000
0001
0010
1000
0000
,
0100
0000
0010
0000
1000
0010
0100
0010
0100
0010
0100
0010
0100
0010
0100
0010
,
0100
0000
1000
0100
1000
0100
1000
0100
1000
0100
0010
0001
0010
0001
0010
0001
,
0010
1000
0100
0010
0001
1000
0100
0010
0001
1000
0100
0010
0001
1000
0002
0000
,
0000
0203
0000
0000
,
0000
0302
0000
0000
,
0000
0000
0000
0003
0000
0000
0000
0000
0000
0000
0010
0000
0000
0000
1000
0000
0000
0000
0001
0000
0000
0000
0100
0000
,
0000
1000
0000
0000
0010
0000
1000
0000
0010
0000
1000
0000
,
0100
0000
1000
0000
0002
0000
0000
0000
0000
0003
0000
0000
,
1000
0100
1000
0100
1000
0100
1000
0100
1000
0100
1000
0100
1000
0100
1000
0001
,
0010
0100
1000
0001
0010
0100
1000
0001
0010
0100
1000
0001
0010
0100
1000
0001
,
0010
0100
1000
0001
1000
0100
0010
0001
1000
0100
0010
0001
1000
0100
0010
0001
,
1000
0000
0000
0100
0000
0000
0010
0000
0000
0001
0000
0000
1000
0000
0000
0100
0000
0000
0010
0000
0001
0000
0000
0000
0010
0000
0000
0000
0100
0000
0000
0000
1000
0000
0000
0000
0001
0000
0000
0000
0010
0000
0000
0000
0100
0000
0000
0000
,
1000
0100
0010
0001
0010
0100
1000
0001
0010
0100
1000
0100
,
0010
0001
0010
0100
0010
0100
0001
1000
0001
1000
0001
1000
,
0001
1000
0001
2000
0000
0000
0000
0000
0000
0000
0000
0000
,
0000
3020
0000
0000
,
0030
0100
1000
0001
0010
0100
1000
0001
,
0100
0010
0002
0103
1000
0010
2000
3010
,
0001
1000
0020
0130
1000
0001
1100
0100
,
0110
0010
2001
0000
0000
0000
0000
0000
,
0000
0000
0000
3200
,
0000
0000
2300
0000
0000
0000
0000
3002
,
0000
0023
0000
0230
,
0000
0000
0000
0000
0320
0000
0000
0000
0000
0000
0030
0000
0000
0000
0000
0010
,
0000
1000
0000
0010
0000
1000
0000
0010
0001
1000
0000
0010
0000
1000
0010
0100
,
0010
0001
0010
0000
1100
0000
0000
0000
1001
0000
0000
0000
0011
0000
0000
0000
,
0101
1001
2002
3003
,
0000
0000
0110
0110
0110
1010
1010
1010
,
1001
1001
1001
0101
0101
0101
0110
0110
,
1100
1100
0110
0110
0110
0011
0011
0011
,
1001
1001
1001
1100
1100
1100
0101
0101
,
0011
0011
1010
1010
1010
1100
1100
1100
,
0110
0110
0110
1010
1010
1010
1001
1001
,
0011
0011
1010
1010
1010
1001
1001
1001
,
0101
0101
0101
0110
0110
0110
1010
0000
,
0101
0000
2002
3003
0100
0011
1000
0001
,
0110
0001
0100
1010
0100
0001
0110
1000
,
0011
0100
0110
0001
0010
1001
0100
1000
,
0101
0010
1000
1100
0001
0100
0110
1000
,
0011
0000
0100
0000
0110
1000
0100
0010
0001
1000
0100
0010
0001
1000
0100
0010
,
0001
1000
0100
0010
0001
1000
0001
1000
0010
1000
0100
1000
0010
0001
1000
0001
,
0100
0001
0010
1000
0100
1000
0100
1000
0100
1000
0100
1000
0100
1000
0100
1000
,
0100
1000
0100
0010
0001
0010
0100
1000
0001
0010
0100
1000
0001
0100
0022
0000
,
0000
0000
0033
1100
0001
0100
1010
0100
,
0001
1001
0100
0001
0110
1000
0101
1000
,
0110
0001
0010
1100
0010
0100
0011
1000
,
0101
1000
0001
1100
0010
0100
2010
0000
,
3010
0100
0011
0100
0001
1010
0100
1000
,
0110
0001
0100
1001
0100
1000
0011
0001
,
1100
0001
1010
0100
1000
0011
0100
1000
,
0101
0010
0100
1001
0010
1000
0220
0330
,
0001
0001
0011
0010
0010
1010
1000
1000
,
1100
0100
0100
0110
0010
0010
1010
1000
,
1001
0001
0011
0010
0010
1010
1000
1000
,
1010
0010
0010
0011
0001
0001
0102
0000
,
0103
0100
0100
0110
0010
0010
1010
1000
,
1100
0100
0100
0110
0010
0010
0011
0001
,
1001
1000
1100
0100
0100
0110
0010
0010
,
0010
0000
0000
0000
0000
0000
1010
0000
0000
0000
0000
0000
1000
0000
0000
0100
0000
0000
0010
0000
0000
0001
0000
0000
1000
0000
0000
0100
0000
0000
0010
0000
0000
0001
0000
0000
1000
0000
0000
0000
0100
0000
0000
0000
1000
0000
0000
0000
,
0100
0010
0001
1000
0100
1000
0100
1000
0100
1000
0100
1000
,
0100
1000
0100
0001
0010
0001
0010
0001
0010
0001
0010
0001
,
0010
0001
0010
1000
0010
1000
0010
1000
0001
0010
0100
1000
,
0001
0010
0100
0001
0100
0001
0100
0001
1000
0010
1000
0010
,
1000
0010
1000
0001
1000
0001
1000
0001
1000
0001
1000
0001
,
1000
0001
1000
0001
0010
0001
0010
0001
0010
0001
0010
0001
,
0010
0001
0010
0001
0010
0100
1000
0001
0010
0001
1000
0001
,
1000
0001
1000
0100
0010
0001
1000
0100
0010
0001
0010
0100
,
0010
0100
0010
1000
0100
0010
0001
1000
0100
0010
0001
1000
,
0100
0010
0001
0100
1000
0100
1000
0100
1000
0100
1000
0100
,
1000
0100
0010
1000
0010
1000
0010
1000
0010
0001
0010
0001
,
0010
0001
0010
0001
0010
0100
1000
0001
0010
0100
0010
0100
,
0010
0100
0010
1000
0010
1000
0010
1000
0010
1000
0010
1000
,
0010
1000
0010
1000
0001
1000
0001
1000
0001
1000
0001
1000
,
0001
1000
0001
1000
0100
1000
0100
1000
0100
0001
0100
0001
,
0100
0001
1000
0100
0010
0001
1000
0100
0010
1000
0100
1000
,
0100
0000
1000
0000
0100
0000
1000
0000
0100
0022
0000
0000
0000
0000
0000
0000
0000
0000
0000
0000
0000
0000
0000
0000
,
0000
0000
0000
0000
,
0000
0000
0000
0000
,
0000
0000
0000
0000
,
0000
0033
1100
0001
1000
0110
0001
0010
,
1001
0100
0010
2010
0000
3000
0101
1000
,
0110
0001
1100
0100
1000
0101
0010
1000
,
0110
0001
1010
0100
1000
0011
0100
0001
,
1100
0010
0110
0000
0100
0000
0001
0000
,
1000
0000
0011
1000
0000
0001
0000
0100
,
0000
0010
0000
1100
0000
0100
0000
1000
,
0000
0001
0000
0100
1000
0000
0100
0000
,
0001
0000
0000
0000
1010
0000
0000
0100
0000
1000
0000
0000
0100
0000
0000
1000
,
0000
0100
0000
0000
1000
0000
0000
0100
0000
0000
0001
0000
0010
0000
0001
0000
,
0010
0000
0001
0000
0010
0000
1000
0100
1000
0000
0100
0001
0100
0000
1000
0010
,
1000
0000
0010
0001
0010
1000
0100
0010
0001
1000
0100
0010
0001
1000
0100
0010
,
0001
1000
0100
0010
0001
1000
0011
0000
0010
0000
0010
0000
1010
0000
1000
0000
,
1000
1001
0001
0001
1001
1000
1000
1010
,
0010
0011
0001
1001
1000
1000
1100
0100
,
0110
0000
0010
0000
0010
0000
0011
1000
0001
1000
0001
0000
0000
0000
2001
0000
,
0000
0000
3110
0010
0010
0110
0100
0100
,
0101
0001
0001
0011
0010
0010
0010
1010
,
1000
1001
0001
1001
1001
1000
1001
0001
,
0001
0000
0011
0000
0010
0000
0010
0000
1010
0100
1000
0100
0010
0001
0010
0001
,
0010
0100
0010
0001
1100
0000
1100
0000
1100
0000
1100
0000
1100
0000
1100
0000
,
1100
1100
0110
0110
0110
0110
0110
0110
,
0110
0110
1001
1001
1001
1001
0011
0011
,
0011
0011
1010
1010
1010
1010
0101
0101
,
0101
0101
0110
0110
0110
0110
0110
0110
,
0110
0110
0110
1010
1010
1010
1010
1010
,
1010
1010
1100
1100
1100
1100
1001
1001
,
1001
1001
0011
0011
0011
0011
0110
0110
,
0110
0110
1001
1001
1001
1001
1001
1001
,
1001
1001
1010
1010
1010
1010
1010
1010
,
1010
1010
0011
0011
0011
0011
0101
0101
,
0101
0101
1100
1100
1100
1100
0110
0110
,
0110
0110
1001
1001
1001
1001
1001
1001
,
1001
1001
0011
0011
0011
0011
0011
0011
,
0011
0011
1010
1010
1010
1010
0101
0101
,
0101
0101
0110
0110
0110
0110
2002
0000
,
3003
0002
0000
0003
,
0000
0000
2000
0000
0000
3000
0000
0000
,
0000
0000
0010
0020
0000
0000
0030
0000
,
0000
0000
0100
0200
0000
0000
0300
0000
,
0000
0000
0002
0000
0000
0003
0000
0000
,
0000
0000
2000
0000
0000
3000
0000
0000
,
0000
0000
0010
0020
0000
0000
0030
0000
,
0000
0220
0000
0000
,
0330
0000
0000
2000
0000
0000
3020
0000
,
0030
0000
0100
0010
1000
0010
0100
2000
,
0000
0000
3000
0000
0000
0000
0000
0000
0000
0001
0010
0100
1000
0001
0010
0100
,
1000
0001
0010
0100
1000
0010
0001
1000
0100
0010
0001
1000
0100
0010
0002
0000
,
0000
0003
0000
0100
0100
0100
0000
0020
,
0030
1000
1000
1000
0100
0010
0001
0020
,
0000
0000
0030
0000
0000
1000
0001
1000
0001
1000
0001
0000
1000
0100
1000
0100
,
1000
0100
0000
0000
0000
1000
0100
0010
0001
0010
0100
0010
0100
0010
0200
0000
,
0000
0300
0000
0000
0000
0000
0110
0000
0110
0000
0110
0000
0110
0000
0110
0000
,
1000
0100
0010
0002
0000
0103
1000
0020
,
0030
0000
0000
0000
0000
0000
0000
0001
0100
0001
0100
0001
0100
0001
0100
0001
,
0100
0001
0100
0001
0010
0000
2000
0000
3200
0000
0302
0000
0023
0000
0000
0000
,
0030
0000
0000
1100
0000
0000
0110
0000
,
1100
0000
0000
0011
0000
0000
0000
0101
,
0000
1100
0000
0102
0000
0000
0000
0000
,
0000
0000
0000
1000
1000
1000
1000
1000
,
1003
0000
0000
0000
0000
0000
0001
0010
0100
1000
0001
0010
0100
1000
0001
0010
,
0100
1000
0001
0010
0100
1000
0010
0100
0010
0100
0010
0100
0010
0100
0010
0100
,
0010
0100
0010
0100
1000
0100
0010
0001
1000
0100
0010
0001
1000
0100
0010
0001
,
1000
0100
0010
0001
1000
0100
0010
0001
1000
0100
0010
0001
0010
0100
1010
0000
,
0000
1100
0000
0201
0000
0000
0000
0000
,
0000
0000
2310
0000
,
0000
0000
0000
0000
,
3012
0000
0000
0213
,
0000
0000
2301
0000
,
0000
3201
0000
0000
,
0000
0000
0000
0311
,
0000
0000
0000
0000
0000
0000
0000
0000
1000
0100
0010
0001
0010
0000
0000
0000
,
1100
0000
0000
0000
0000
0000
0010
0000
0000
0000
0000
1000
0000
0000
0000
0000
,
0010
0000
0000
0000
0001
0000
0000
0000
0010
0000
0000
0000
0000
1000
0000
0000
,
0000
0001
0000
0000
0000
0100
0000
0000
1000
0000
0000
0000
0010
0000
0000
1000
,
0000
0000
0100
0000
0000
0000
0001
0000
1000
0000
0000
0010
0000
0000
1000
0000
,
0000
0100
0000
1000
0000
0001
0000
0010
0000
1000
0000
0010
0000
1000
0000
0001
,
0000
0100
0000
1000
0000
0100
0000
1000
0000
0010
0000
1000
0000
0100
0000
0000
,
1000
0001
0000
0000
0100
1000
0000
0100
0000
1000
0000
0010
0000
1000
0010
1000
,
0000
0100
0000
1000
0100
0000
1000
0001
0100
0001
0100
0000
0010
0000
1000
0010
,
0000
1000
0010
0100
0000
0010
1000
0100
0010
0001
1000
0100
0010
0100
1000
0001
,
0010
0001
0100
0010
0001
0010
0100
1000
0001
0010
0100
1000
0001
0010
0100
0010
,
0001
1000
0100
1000
0010
0100
1000
0100
0010
0001
1000
0100
0010
0001
0010
0100
,
1000
0001
0010
0001
0100
0010
0001
0010
0100
0001
0010
0100
0010
0001
1000
0100
,
0010
0001
0100
0010
0001
0010
0100
1000
0001
1000
0001
1000
0100
1000
0011
0000
,
0000
0000
0011
0000
0000
0000
1000
0100
0110
0000
0000
0000
0000
0000
0000
0000
,
0000
2002
0000
0000
0000
0000
0000
0000
,
0000
0000
3003
0000
;
