#TITLE:monotune -Respect-;
#SUBTITLE:;
#ARTIST:DJ MRYM;
#TITLETRANSLIT:;
#SUBTITLETRANSLIT:;
#ARTISTTRANSLIT:;
#CREDIT:;
#BANNER:monotune_respect.png;
#BACKGROUND:monotune_respect-bg.png;
#LYRICSPATH:monotune_respect.lrc;
#CDTITLE:cdtitle.png;
#MUSIC:monotune_respect.ogg;
#OFFSET:0.000;
#SAMPLESTART:21.950;
#SAMPLELENGTH:12.000;
#SELECTABLE:YES;
#DISPLAYBPM:1.000;
#BPMS:0.000=186.000,18.000=4126.000,41.000=186.000,127.250=-45.000,129.000=186.000,141.750=-45.000,142.250=186.000,152.250=-45.000,153.750=186.000,161.688=-45.000,163.000=186.000,177.750=-45.000,179.000=186.000,186.500=178.360,187.000=158.760,187.500=141.160,188.000=136.000,211.500=-45.000,213.750=136.000,228.000=1000.000,236.000=136.000,239.500=-45.000,241.000=136.000,249.500=1015.581,253.500=136.000,261.000=-45.000,263.500=136.000,278.500=1047.583,286.500=136.000,294.000=-45.000,296.500=136.000,312.000=1000.000,316.000=136.000,323.500=-45.000,326.000=136.000,342.000=186.000,344.000=4113.004,368.000=186.000,398.750=-45.000,400.000=200.380,408.000=186.000,439.750=4126.000,447.500=186.000;
#STOPS:41.000=0.323
,168.500=0.003
;
#BGCHANGES:;
// cache tags:
#FIRSTBEAT:16.000;
#LASTBEAT:451.000;
#SONGFILENAME:Songs/Japanese Collaboration Mix/monotune_respect/monotune_respect.sm;
#HASMUSIC:1;
#HASBANNER:1;
#MUSICLENGTH:105.553;
// end cache tags

//---------------dance-single - ----------------
#NOTES:
     dance-single:
     :
     Hard:
     10:
     1.000,1.000,1.000,0.114,0.478,525.000,121.000,12.000,378.000,72.000:



0000
0000
0000
0000
,
0000
0000
0000
0000
,
0000
0000
0000
0000
,
0000
0000
0000
0000
,
0010
0010
2002
0000
,
0000
0000
0000
0000
,
0000
0000
0000
0000
,
3003
0000
0000
0000
,
0000
0000
0000
0000
,
0000
0000
0000
0000
,
0000
0000
0000
0000
0100
0000
0000
0000
0001
0000
1000
0100
1000
0000
0100
0000
,
0010
0000
0100
0000
1000
0000
0000
0000
0001
0000
0010
0001
0010
0000
0100
0000
,
0010
0000
0001
0000
0010
0000
0000
0000
0100
0000
0010
0100
1000
0000
0100
0000
,
0010
0000
0100
0000
1000
0000
0001
0000
0100
0000
0001
1000
0010
0000
1000
0000
,
0010
0100
1100
0000
0100
0010
0100
1000
,
0100
0000
0001
0000
0100
0000
0000
0000
0001
0000
0100
0010
1000
0000
0010
0000
,
0100
0000
0001
0000
1000
0000
0100
0000
0010
0000
0100
1000
0100
0000
0010
0000
,
0100
1000
0001
0100
1000
0001
0010
1000
,
0001
0000
1000
0000
0110
0000
0000
0000
0100
0000
0010
0000
0001
0010
0100
0000
,
1000
0000
0100
0000
0010
0000
0000
0000
0100
0000
1000
0000
0100
0010
0100
0000
,
1000
0000
0001
0000
0011
0000
0000
0000
0001
0000
0010
0000
0001
0010
0100
0000
,
0010
0001
1000
0010
1010
0000
1001
0000
,
0110
0000
0010
0000
0001
1000
0001
0100
,
0101
0000
1000
0010
0000
0100
1000
0100
,
0010
0100
0001
1000
0010
0000
1000
0001
,
1000
0010
1010
0000
0001
0010
0001
1000
,
0001
0010
0100
1000
0001
0000
0000
0000
1000
0000
0000
0000
0100
0000
0010
0000
,
0100
1000
0100
0000
1000
0001
0000
0010
,
1000
0000
0010
0001
1000
0000
0010
1000
,
0001
1000
0100
0010
0001
0010
0100
0011
,
0000
0000
0001
0010
0001
1000
0010
1000
,
0001
0000
0001
0010
0001
0100
0001
1001
,
0100
0000
0010
0000
0100
0000
1000
0100
0010
0100
1000
0000
0100
0000
0001
0000
,
0100
1000
0001
0010
0100
0000
1001
0000
,
0000
0000
M00M
0000
0M00
0000
00M0
0000
0M00
0000
M000
0M00
00M0
0M00
M000
0000
,
0M00
000M
0M00
M000
000M
00M0
0M00
0000
,
M00M
0000
0010
0000
1000
0000
0001
0000
0000
0000
0010
0000
0001
0000
1000
0100
,
0010
0001
1000
0000
0010
0000
0100
0000
0001
0000
1000
0000
0001
0000
0100
0000
,
1000
0010
1000
0100
0001
0010
0001
0100
,
1000
0001
1000
0100
0001
0010
0001
1000
,
00M0
M000
0M00
000M
00M0
000M
0M00
M000
,
000M
M000
0M00
000M
00M0
000M
M000
000M
,
M000
0000
0000
1000
0100
0001
0101
0000
,
0001
0100
1000
0001
1000
0100
0010
0100
,
1000
0001
0001
0000
1001
0000
0001
0010
,
0100
0001
0100
1000
0001
0100
1000
0100
,
0000
M00M
0000
000M
00M0
0M00
000M
0M00
,
1000
0100
0000
0100
0010
0100
0000
0100
,
0001
0100
0010
0100
1000
0001
1000
0000
,
1001
0000
0010
0010
0000
0010
0010
0010
,
0110
1001
0110
0000
,
00M0
0000
000M
0000
M000
0M00
000M
0M00
,
M000
0000
000M
0000
00M0
0000
0000
0000
00MM
00MM
00MM
00MM
0000
0000
0000
0000
,
1111
1111
1111
1111
1111
1111
1111
1111
,
1111
1111
1111
1111
1111
1111
1111
1111
,
0000
0000
MM1M
MMMM
MMM1
MMMM
1MMM
M1MM
,
MMM1
M1MM
1MMM
MMM1
MM1M
MMMM
MM22
MM00
,
MM33
MMMM
MMMM
0000
0000
0000
0000
0000
,
0000
0000
0000
0000
,
000M
0M00
0000
000M
0000
M000
0M00
0000
00MM
0000
0000
0000
MM00
0000
0000
0000
,
1111
1111
1111
1111
1111
1111
1111
1111
,
0000
0000
0000
0000
0000
0000
0000
0000
MMM1
0100
M0MM
0001
MMM0
1000
01MM
0000
,
MM11
0000
MMMM
0000
11MM
0000
00MM
MM00
MMMM
0000
0000
0000
0000
0000
0000
0000
,
0000
0000
0000
00M0
0000
M00M
0M00
M000
,
0000
000M
00M0
0000
0000
0000
0M0M
0000
0000
0000
00M0
0000
M000
0M00
00M0
0000
,
0000
0000
0000
1111
1111
1111
1111
1111
,
1111
1111
1111
1111
1111
1111
1111
1111
,
1111
1111
1111
0000
0000
0000
0000
MM1M
,
MMMM
0000
1MM1
0000
M1MM
0000
1MMM
0000
MMMM
0001
MM10
0000
MMMM
0000
M1M1
0000
,
MMMM
0000
MM1M
0000
1MMM
0100
M01M
0000
MMMM
0000
MMMM
0000
MMMM
0000
0000
0000
,
0000
0000
0000
0000
,
0000
0000
0000
0000
0000
0000
0000
0000
0000
0000
000M
00M0
000M
000M
000M
000M
,
000M
000M
000M
000M
000M
000M
000M
000M
000M
000M
0M0M
0000
000M
0000
00M0
0000
,
M000
0000
00M0
00M0
00M0
00M0
0MM0
0000
0000
0000
1111
0000
1111
0000
1111
0000
,
1111
1111
1111
1111
1111
1111
1111
1111
,
1111
1111
1111
1111
1111
0000
0000
0000
,
0000
0000
MMM1
0010
MM02
0000
MMM0
0000
MMM0
0000
MMM0
0000
MMM0
0000
MMM0
0000
,
MMM0
M1M3
MMM1
MM1M
1MMM
MM2M
MM0M
M13M
,
MMMM
MMMM
0000
0000
0000
0000
0000
0000
,
000M
0000
0000
0M00
00M0
0M00
0000
000M
0000
M000
0000
00M0
0M00
00M0
0000
M000
,
000M
0000
0000
M000
0M00
00M0
0000
0M00
0000
000M
0000
0M00
00M0
0M00
0000
M000
,
1111
1111
1111
1111
1111
1111
1111
1111
,
1111
1111
1111
1111
1111
1111
1111
1111
,
0000
0000
0000
0000
0000
0000
0000
0000
MMM1
0000
MMMM
0100
M01M
0100
M0MM
0001
,
MMM0
1000
0MMM
0010
M10M
0010
MM0M
1000
0MM1
1000
0MM1
0000
MMMM
1001
0MM0
200M
,
0002
0000
3003
0000
,
0220
0000
0000
0000
,
0000
0000
0000
0000
,
0000
0000
0000
0330
,
0000
0000
0000
0000
,
0000
0000
0000
0000
,
0000
0000
0000
0000
,
1001
0000
1000
0001
1000
0010
1000
0001
,
1000
0000
0001
0000
1000
0000
0100
0010
0100
0000
1000
0000
0001
0000
1000
0000
,
0100
0010
0001
0010
0100
1000
0001
0010
,
0100
0000
0010
0000
0001
0000
1000
0000
0010
0000
0100
0001
1000
0000
0000
0000
,
0001
0010
0100
1000
0001
0000
0000
0000
0001
0000
0100
0000
0001
0000
1000
0000
,
0001
0100
0010
0100
0001
1000
0100
0010
,
0001
1000
0001
0000
0010
0000
0001
1000
0100
0000
1000
0001
0100
0000
0001
0000
,
1000
0000
0010
0000
0100
0000
0001
0000
1000
0000
0010
0000
1001
0000
0001
0100
,
0010
1000
0010
0100
0001
0000
1000
0000
0100
0000
1000
0001
0100
0000
0001
0000
,
0010
0000
0100
0000
0000
0000
0000
0000
M00M
0000
000M
0M00
00M0
M000
00M0
0M00
,
1001
0000
0000
0000
0100
0000
1000
0100
1000
0000
0001
0000
0010
0000
0001
0000
,
1000
0000
0001
0010
0001
0000
1000
0010
1000
0000
0001
0000
0100
0000
0010
0000
,
1000
0001
0010
0100
0010
0001
1000
0010
,
1000
0000
0001
0100
0001
0000
1000
0100
0010
0000
0001
0010
0100
0000
1000
0000
,
1100
0000
0000
1100
0000
0000
1100
0000
0000
0101
0000
0000
0110
0000
0000
1001
,
0000
0000
0101
0000
0000
1100
0000
0000
0101
0000
0000
1100
0000
0000
0011
0000
,
0000
0110
0000
0000
1001
0000
0000
1010
0000
0000
0011
0000
0000
1100
0000
0000
,
0101
0000
0000
1010
0000
0000
0101
0000
0000
0110
0000
0000
2002
0000
0000
0000
,
0000
0000
0000
0000
,
0000
0000
3003
0000
,
M00M
M00M
M00M
M00M
M00M
M00M
M00M
M00M
M00M
M00M
M00M
M00M
M00M
0000
0000
0000
;
