#TITLE:FINAL BATTLE;
#SUBTITLE:Mario Bros Vs Cackletta;
#ARTIST:Mario and Luigi Superstar Saga;
#TITLETRANSLIT:;
#SUBTITLETRANSLIT:;
#ARTISTTRANSLIT:;
#CREDIT:;
#BANNER:FINAL BATTLE BANNER.PNG;
#BACKGROUND:FINAL BATTLE BG.PNG;
#LYRICSPATH:;
#CDTITLE:CDTitle.PNG;
#MUSIC:FINAL BATTLE.ogg;
#OFFSET:1.560;
#SAMPLESTART:74.900;
#SAMPLELENGTH:18.220;
#SELECTABLE:YES;
#BPMS:0.000=62.620,12.000=125.260,28.000=250.521,196.000=62.620,214.000=125.260,230.000=250.521,398.000=62.620;
#STOPS:;
#BGCHANGES:;
// cache tags:
#FIRSTBEAT:2.000;
#LASTBEAT:402.000;
#SONGFILENAME:Songs/toune/FINAL BATTLE/FINAL BATTLE.sm;
#HASMUSIC:1;
#HASBANNER:1;
#MUSICLENGTH:132.858;
// end cache tags

//---------------dance-single - Novice----------------
#NOTES:
     dance-single:
     Novice:
     Beginner:
     1:
     0.108,0.377,0.181,0.151,0.000,56.000,24.000,20.000,0.000,0.000:
0000
0000
0000
0000
,
0000
0000
0000
0000
,
0000
0000
0000
0000
,
1000
0000
0000
0000
,
1000
0000
0000
0000
,
0001
0000
0000
0000
,
0001
0000
0000
0000
,
1000
0000
0000
0000
,
0000
0000
0000
0000
,
0001
0000
0000
0000
,
0000
0000
0000
0000
,
1001
0000
0000
0000
,
0000
0000
0000
0000
,
0110
0000
0000
0000
,
0000
0000
0000
0000
,
1100
0000
0000
0000
,
0000
0000
0000
0000
,
0101
0000
0000
0000
,
0000
0000
0000
0000
,
1010
0000
0000
0000
,
0000
0000
0000
0000
,
0011
0000
0000
0000
,
0000
0000
0000
0000
,
1000
0000
0000
0000
,
0000
0000
0000
0000
,
0001
0000
0000
0000
,
0000
0000
0000
0000
,
0010
0000
0000
0000
,
0000
0000
0000
0000
,
0100
0000
0000
0000
,
0000
0000
0000
0000
,
2000
0000
0000
0000
,
3000
0000
0000
0000
,
0002
0000
0000
0000
,
0003
0000
0000
0000
,
0200
0000
0000
0000
,
0300
0000
0000
0000
,
0020
0000
0000
0000
,
0030
0000
0000
0000
,
1010
0000
0000
0000
,
0000
0000
0000
0000
,
1000
0000
0000
0000
,
0000
0000
0000
0000
,
0101
0000
0000
0000
,
0000
0000
0000
0000
,
0100
0000
0000
0000
,
0000
0000
0000
0000
,
0110
0000
0000
0000
,
0000
0000
0000
0000
,
2002
0000
0000
3003
,
0220
0000
0000
0330
,
2002
0000
0000
3003
,
0220
0000
0000
0330
,
2002
3003
1000
0000
,
0000
0000
1000
0000
,
0000
0000
0001
0000
,
0000
0000
0001
0000
,
0000
0000
1000
0000
,
0000
0000
0000
0000
,
0000
0000
0001
0000
,
0000
0000
0000
0000
,
0000
0000
1001
0000
,
0000
0000
0000
0000
,
0000
0000
0110
0000
,
0000
0000
0000
0000
,
0000
0000
1100
0000
,
0000
0000
0000
0000
,
0000
0000
0101
0000
,
0000
0000
0000
0000
,
0000
0000
1010
0000
,
0000
0000
0000
0000
,
0000
0000
0011
0000
,
0000
0000
0000
0000
,
0000
0000
1000
0000
,
0000
0000
0000
0000
,
0000
0000
0001
0000
,
0000
0000
0000
0000
,
0000
0000
0010
0000
,
0000
0000
0000
0000
,
0000
0000
0100
0000
,
0000
0000
0000
0000
,
0000
0000
2000
0000
,
0000
0000
3000
0000
,
0000
0000
0002
0000
,
0000
0000
0003
0000
,
0000
0000
0200
0000
,
0000
0000
0300
0000
,
0000
0000
0020
0000
,
0000
0000
0030
0000
,
0000
0000
1010
0000
,
0000
0000
0000
0000
,
0000
0000
1000
0000
,
0000
0000
0000
0000
,
0000
0000
0101
0000
,
0000
0000
0000
0000
,
0000
0000
0100
0000
,
0000
0000
0000
0000
,
0000
0000
0110
0000
,
0000
0000
0000
0000
,
0000
0000
2002
0000
,
0000
3003
0000
0000
;

//---------------dance-single - Easy----------------
#NOTES:
     dance-single:
     Easy:
     Easy:
     6:
     0.312,0.452,0.203,0.105,0.000,249.000,27.000,14.000,0.000,0.000:
0000
0000
1000
0000
,
0001
0000
1000
0000
,
0001
0000
0010
0000
,
0100
0000
0000
0000
,
1001
0000
0000
0000
,
0010
0000
0000
0000
,
1001
0000
0000
0000
,
1000
0000
1000
0000
,
1000
0100
1000
0000
,
0001
0000
0001
0000
,
0001
0100
0001
0000
,
0010
0000
0010
0000
,
0010
0001
0010
0000
,
0100
0000
0100
0000
,
0100
1000
0100
0000
,
1000
0000
1000
0000
,
0001
0000
0001
0000
,
1000
1000
0001
0001
,
0100
0100
0010
0010
,
0001
0000
0001
0000
,
1000
0000
1000
0000
,
0001
0001
1000
1000
,
0010
0010
0100
0100
,
1000
0000
1001
0000
,
0001
0000
1001
0000
,
1000
1001
0001
1001
,
0100
0110
0010
0110
,
0001
0000
0001
0000
,
1000
0000
1000
0000
,
0001
1100
1000
0101
,
0010
1100
0100
0011
,
1000
0100
1000
0000
,
0001
0100
0001
0000
,
0010
0100
0010
0000
,
0100
0010
0100
0000
,
0001
0010
0001
0000
,
1000
0010
1000
0000
,
0100
0010
0100
0000
,
0010
0100
0010
0000
,
2000
0000
0000
0000
,
0001
0100
0001
3100
,
0002
0000
0000
0000
,
1000
0010
1000
0013
,
0020
0000
0000
0000
,
0100
1000
0100
1030
,
0200
0000
0000
0000
,
0010
0001
0010
0301
,
2002
0000
0000
0000
,
0000
0000
0000
3003
,
1000
0000
0001
0000
,
1000
0000
0001
0000
,
1000
0000
0001
0000
,
1000
0000
0001
0000
,
0010
0000
0100
0000
,
0000
0000
1001
0000
,
0000
0000
0010
0000
,
0000
0000
1001
0000
,
0000
0000
1000
0000
,
1000
0000
1000
0100
,
1000
0000
0001
0000
,
0001
0000
0001
0100
,
0001
0000
0010
0000
,
0010
0000
0010
0001
,
0010
0000
0100
0000
,
0100
0000
0100
1000
,
0100
0000
1000
0000
,
1000
0000
0001
0000
,
0001
0000
1000
1000
,
0001
0001
0100
0100
,
0010
0010
0001
0000
,
0001
0000
1000
0000
,
1000
0000
0001
0001
,
1000
1000
0010
0010
,
0100
0100
1000
0000
,
1001
0000
0001
0000
,
1001
0000
1000
1001
,
0001
1001
0100
0110
,
0010
0110
0001
0000
,
0001
0000
1000
0000
,
1000
0000
0001
1100
,
1000
0101
0010
1100
,
0100
0011
1000
0100
,
1000
0000
0001
0100
,
0001
0000
0010
0100
,
0010
0000
0100
0010
,
0100
0000
0001
0010
,
0001
0000
1000
0010
,
1000
0000
0100
0010
,
0100
0000
0010
0100
,
0010
0000
2000
0000
,
0000
0000
0001
0100
,
0001
3100
0002
0000
,
0000
0000
1000
0010
,
1000
0013
0020
0000
,
0000
0000
0100
1000
,
0100
1030
0200
0000
,
0000
0000
0010
0001
,
0010
0301
2002
0000
,
0000
0000
0000
0000
,
0000
3003
2002
0000
,
3003
0000
0000
0000
;

//---------------dance-single - Expert----------------
#NOTES:
     dance-single:
     Expert:
     Challenge:
     13:
     0.977,1.000,0.617,0.256,0.418,793.000,82.000,34.000,114.000,6.000:
0000
0000
0000
0000
0000
0000
0000
0000
1000
0100
1000
0001
0010
0100
0010
0100
,
0001
0010
0001
1000
0100
0010
0100
0010
0010
1000
0010
0100
0001
1000
0001
1000
,
0100
0001
0100
0010
1000
0001
1000
0001
1000
0100
1000
0001
0010
0100
0010
0100
,
1000
0100
1000
0100
2000
0000
0MM0
30M0
0000
0110
0000
MM00
00M0
0M00
0000
0000
,
0001
0010
0001
0010
0002
0000
0MM0
0M03
0000
0110
0000
00MM
0M00
00M0
0000
0000
,
0010
1000
0010
1000
0020
0000
M00M
003M
0000
1001
0000
M0M0
000M
M000
0000
0000
,
0100
0001
0100
0001
0200
0000
M00M
M300
0000
1001
0000
0M0M
M000
000M
0000
0000
,
1000
0001
1000
0100
0001
1000
0001
0010
,
1000
0100
0001
1000
0001
1000
0010
0100
,
0001
1000
0001
0010
1000
0001
1000
0100
,
0001
0010
1000
0001
1000
0001
0100
0010
,
0010
0100
0010
1000
0100
0010
0100
0001
,
0010
1000
0100
0010
0100
0010
0001
1000
,
0100
0010
0100
0001
0010
0100
0010
1000
,
0100
0001
0010
0100
0010
0100
1000
0001
,
1100
01M0
1100
0000
0101
M100
0101
0000
,
1001
0M10
1001
0000
1001
01M0
1001
0000
,
0011
0M10
0011
0000
1010
0M10
1010
0000
,
1001
01M0
1001
0000
1001
0M10
1001
0000
,
1100
01M0
1100
0000
0101
M100
0101
0000
,
1001
0M10
1001
0000
1001
01M0
1001
0000
,
0011
0M10
0011
0000
1010
001M
1010
0000
,
1001
01M0
1001
0000
1001
0M10
1001
0000
,
1000
0100
1000
0100
1000
0100
1000
0010
,
0001
0010
0001
0010
0001
0010
0001
0010
,
1000
0001
1000
0001
1000
0001
1000
0100
,
0010
0100
0010
0100
0010
0100
0010
0100
,
0010
1000
0100
0010
0100
1000
0100
0010
,
0001
0100
0010
1000
1000
0100
0010
0001
,
0001
0100
0010
1000
0001
0010
0100
1000
,
1000
0010
0100
0001
0001
0010
0100
1000
,
1000
0010
0100
0001
0100
0010
0100
1000
,
0100
1000
0100
0010
0100
0010
1001
0100
,
0010
1000
0100
0010
0100
0010
0001
0100
,
1000
0100
0010
0001
0010
0001
1000
0001
,
1000
0100
0010
1000
0100
0010
0100
0010
,
1000
0100
0010
0100
1000
0100
0010
1000
,
0202
1303
0100
0000
0022
0133
0001
0000
,
2100
3001
0100
0000
2200
3301
0100
0000
,
1000
0001
1000
0100
0001
1000
0001
0010
,
1000
0100
0001
1000
0001
1000
0010
0100
,
0001
1000
0001
0010
1000
0001
1000
0100
,
0001
0010
1000
0001
1000
0001
0100
0010
,
0010
0100
0010
1000
0100
0010
0100
0001
,
0010
1000
0100
0010
0100
0010
0001
1000
,
0001
1000
0001
0010
1000
0001
1000
0100
,
0001
0010
1000
0001
1000
0001
0100
0010
,
1000
0001
1000
0100
0001
1000
0001
0010
,
1000
0100
0001
1000
0001
1000
0010
0100
,
1000
0100
1000
0001
0010
0100
0010
0100
0001
0010
0001
1000
0100
0010
0100
0010
,
0010
1000
0010
0100
0001
1000
0001
1000
0100
0001
0100
0010
1000
0001
1000
0001
,
1000
0200
1300
0002
0013
0100
0020
0130
0001
0020
0032
2003
3100
0010
0200
0310
,
0010
2000
3020
0230
0301
1000
0001
1000
0100
0001
0100
0010
1000
0001
1000
0001
,
1000
0100
1000
0001
0010
0100
0010
0100
1000
0100
1000
0100
2000
0000
0MM0
30M0
,
0000
0110
0000
MM00
00M0
0M00
0000
0000
0001
0010
0001
0010
0002
0000
0MM0
0M03
,
0000
0110
0000
00MM
0M00
00M0
0000
0000
0010
1000
0010
1000
0020
0000
M00M
003M
,
0000
1001
0000
M0M0
000M
M000
0000
0000
0100
0001
0100
0001
0200
0000
M00M
M300
,
0000
1001
0000
0M0M
M000
000M
0000
0000
1000
0000
0001
0000
1000
0000
0100
0000
,
0001
1000
0001
0010
1000
0100
0001
1000
,
0001
1000
0010
0100
0001
1000
0001
0010
,
1000
0001
1000
0100
0001
0010
1000
0001
,
1000
0001
0100
0010
0010
0100
0010
1000
,
0100
0010
0100
0001
0010
1000
0100
0010
,
0100
0010
0001
1000
0100
0010
0100
0001
,
0010
0100
0010
1000
0100
0001
0010
0100
,
0010
0100
1000
0001
1100
01M0
1100
0000
,
0101
M100
0101
0000
1001
0M10
1001
0000
,
1001
01M0
1001
0000
0011
0M10
0011
0000
,
1010
0M10
1010
0000
1001
01M0
1001
0000
,
1001
0M10
1001
0000
1100
01M0
1100
0000
,
0101
M100
0101
0000
1001
0M10
1001
0000
,
1001
01M0
1001
0000
0011
0M10
0011
0000
,
1010
001M
1010
0000
1001
01M0
1001
0000
,
1001
0M10
1001
0000
1000
0100
1000
0100
,
1000
0100
1000
0010
0001
0010
0001
0010
,
0001
0010
0001
0010
1000
0001
1000
0001
,
1000
0001
1000
0100
0010
0100
0010
0100
,
0010
0100
0010
0100
0010
1000
0100
0010
,
0100
1000
0100
0010
0001
0100
0010
1000
,
1000
0100
0010
0001
0001
0100
0010
1000
,
0001
0010
0100
1000
1000
0010
0100
0001
,
0001
0010
0100
1000
1000
0010
0100
0001
,
0100
0010
0100
1000
0100
1000
0100
0010
,
0100
0010
1000
0100
0010
1000
0100
0010
,
0100
0010
0001
0100
1000
0100
0010
0001
,
0010
0001
1000
0001
1000
0100
0010
1000
,
0100
0010
0100
0010
1000
0100
0010
0100
,
1000
0100
0010
1000
0202
1303
0100
0000
,
0022
1033
0001
0000
2100
3001
0100
0000
,
2200
3301
0100
0000
1000
0001
1000
0100
,
0001
1000
0001
0010
1000
0100
0001
1000
,
0001
1000
0010
0100
0001
1000
0001
0010
,
1000
0001
1000
0100
0001
0010
1000
0001
,
1000
0001
0100
0010
0010
0100
0010
1000
,
0100
0010
0100
0001
0010
1000
0100
0010
,
0100
0010
0001
1000
0001
1000
0001
0010
,
1000
0001
1000
0100
0001
0010
1000
0001
,
1000
0001
0100
0010
1000
0001
1000
0100
,
0001
1000
0001
0010
1000
0100
0001
1000
,
0001
0000
1000
0000
0010
0000
0100
0000
2002
0MM0
0MM0
0MM0
0MM0
0MM0
0MM0
0MM0
,
0MM0
0MM0
0MM0
0MM0
0MM0
3MM3
0000
0000
0000
0000
0000
0000
0000
0000
0000
0000
;

//---------------dance-single - Medium----------------
#NOTES:
     dance-single:
     Medium:
     Medium:
     9:
     0.519,0.605,0.346,0.090,0.151,425.000,46.000,12.000,112.000,0.000:
0000
0000
0000
0000
,
0000
0000
0000
0000
,
0000
0000
0000
0000
,
1000
0100
1000
0100
2000
0000
0000
0000
3000
MMMM
0000
MMMM
0000
MMMM
0000
0000
,
0001
0100
0001
0100
0002
0000
0000
0000
0003
MMMM
0000
MMMM
0000
MMMM
0000
0000
,
1000
0010
0001
0100
2000
0000
0000
0000
3000
MMMM
0000
MMMM
0000
MMMM
0000
0000
,
0010
0001
0100
1000
0020
0000
0000
0000
0030
MMMM
0000
MMMM
0000
MMMM
0000
0000
,
1000
0000
1000
0000
1000
0000
0000
0001
,
0000
1000
0000
0100
0010
0000
0000
0000
,
1000
0000
1000
0000
1000
0000
0000
0001
,
0000
1000
0000
0100
0010
0000
0000
0000
,
0100
0000
0100
0000
0100
0000
0000
0010
,
0000
0100
0000
1000
0001
0000
0000
0000
,
0100
0000
0100
0000
0100
0000
0000
0010
,
0000
0100
0000
1000
0001
0000
0000
0000
,
1000
0001
0100
0000
0001
1000
0100
0000
,
1000
0001
0100
0000
0001
1000
0100
0000
,
0001
1000
0010
0000
1000
0001
0010
0000
,
0001
1000
0010
0000
1000
0001
0010
0000
,
1000
0001
0100
0000
0001
1000
0100
0000
,
1000
0001
0100
0000
0001
1000
0100
0000
,
0001
1000
0010
0000
1000
0001
0010
0000
,
0001
1000
0010
0000
1000
0001
0010
0000
,
1000
0100
1000
0100
,
0001
0100
0001
0100
,
1000
1001
1000
0110
,
1001
0010
1001
0110
,
1000
0110
0001
1100
,
1000
0101
0001
0100
,
1010
0110
1001
0010
,
1001
0110
1001
0110
,
0100
0000
0001
0000
1000
0000
0000
1000
,
0000
0100
0000
0001
1000
0000
0000
0000
,
0100
0000
1000
0000
0001
0000
0000
0001
,
0000
0100
0000
0001
0001
0000
0000
0000
,
0010
0000
1000
0000
0100
0000
0000
0100
,
0000
0001
0000
1000
1000
0000
0000
0000
,
0010
0000
0010
0000
1000
0000
0000
0100
,
0000
0001
0000
0001
0010
0000
0000
0000
,
1000
0001
0100
0010
,
0100
0000
0010
0000
0100
0000
0001
0100
,
0001
1000
0010
0100
,
0010
0000
0100
0000
0010
0000
1000
0010
,
1000
0110
1001
1100
,
0101
0110
1100
0110
,
0001
0100
0001
0000
0001
0100
0001
0000
,
1000
0100
1000
0000
1000
0100
1000
0000
,
1000
0010
1000
0010
1000
0010
1000
0010
,
0001
0010
0001
0010
0001
0010
0001
0010
,
2002
0000
0000
0000
0000
0000
3003
MMMM
,
MMMM
0000
0000
0000
,
1000
0000
0000
0000
,
0001
0000
0000
0000
,
0100
0000
0000
0000
0000
0000
0000
0000
1000
0100
1000
0100
2000
0000
0000
0000
,
3000
MMMM
0000
MMMM
0000
MMMM
0000
0000
0001
0100
0001
0100
0002
0000
0000
0000
,
0003
MMMM
0000
MMMM
0000
MMMM
0000
0000
1000
0010
0001
0100
2000
0000
0000
0000
,
3000
MMMM
0000
MMMM
0000
MMMM
0000
0000
0010
0001
0100
1000
0020
0000
0000
0000
,
0030
MMMM
0000
MMMM
0000
MMMM
0000
0000
1000
0000
0000
0000
1000
0000
0000
0000
,
1000
0000
0000
0001
0000
1000
0000
0100
,
0010
0000
1000
1000
,
1000
0000
0000
0001
0000
1000
0000
0100
,
0010
0000
0100
0100
,
0100
0000
0000
0010
0000
0100
0000
1000
,
0001
0000
0100
0100
,
0100
0000
0000
0010
0000
0100
0000
1000
,
0001
0000
0000
0000
1000
0001
0100
0000
,
0001
1000
0100
0000
1000
0001
0100
0000
,
0001
1000
0100
0000
0001
1000
0010
0000
,
1000
0001
0010
0000
0001
1000
0010
0000
,
1000
0001
0010
0000
1000
0001
0100
0000
,
0001
1000
0100
0000
1000
0001
0100
0000
,
0001
1000
0100
0000
0001
1000
0010
0000
,
1000
0001
0010
0000
0001
1000
0010
0000
,
1000
0001
0010
0000
1000
0000
0100
0000
,
1000
0100
0001
0100
,
0001
0100
1000
1001
,
1000
0110
1001
0010
,
1001
0110
1000
0110
,
0001
1100
1000
0101
,
0001
0100
1010
0110
,
1001
0010
1001
0110
,
1001
0110
0100
0001
,
1000
0000
0000
1000
0000
0100
0000
0001
,
1000
0000
0100
1000
,
0001
0000
0000
0001
0000
0100
0000
0001
,
0001
0000
0010
1000
,
0100
0000
0000
0100
0000
0001
0000
1000
,
1000
0000
0010
0010
,
1000
0000
0000
0100
0000
0001
0000
0001
,
0010
0000
1000
0001
,
0100
0010
0100
0010
,
0100
0000
0001
0100
0001
0000
1000
0000
,
0010
0100
0010
0100
,
0010
0000
1000
0010
1000
0000
0110
0000
,
1001
1100
0101
0110
,
1100
0000
0110
0000
0001
0100
0001
0000
,
0001
0100
0001
0000
1000
0100
1000
0000
,
1000
0100
1000
0000
1000
0010
1000
0010
,
1000
0010
1000
0010
0001
0010
0001
0010
,
0001
0010
0001
0010
2002
0000
0000
0000
,
0000
0000
3003
MMMM
MMMM
0000
0000
0000
;

//---------------dance-single - Hard----------------
#NOTES:
     dance-single:
     Hard:
     Hard:
     11:
     0.902,1.000,0.557,0.542,0.320,693.000,74.000,72.000,196.000,0.000:
0000
0000
0000
0000
,
1000
0001
1000
0001
0010
0100
0010
0100
0001
1000
0001
1000
0001
1000
0001
1000
,
0010
0100
0010
0100
0010
0100
0010
0100
1000
0100
0001
0100
0010
0100
0010
MMMM
,
1000
0001
1000
0100
0020
0000
0030
MMMM
0000
20MM
0000
0000
3000
0000
0000
0000
,
0001
1000
0001
0010
0200
0000
0300
MMMM
0000
MM02
0000
0000
0003
0000
0000
0000
,
0010
0100
0010
1000
0002
0000
0003
MMMM
0000
0M2M
0000
0000
0030
0000
0000
0000
,
0100
0010
0100
0001
2000
0000
3000
MMMM
0000
M2M0
0000
0000
0300
0000
0000
0000
,
1000
0100
1000
0100
2000
3000
0000
0110
,
0000
1100
0000
0110
0202
0000
0303
MMMM
,
0001
0100
0001
0100
0002
0003
0000
0110
,
0000
0011
0000
0110
2020
0000
3030
MMMM
,
0010
0100
1000
0010
0002
0003
0000
1001
,
0000
0110
0000
1001
0220
0000
0330
MMMM
,
0100
0010
0100
1000
0002
0003
0000
1001
,
0000
0110
0000
1001
0220
0000
0330
MMMM
,
1000
0100
1000
0100
0001
0010
0001
0010
,
1000
0001
0100
0010
1000
0001
0200
03MM
,
0001
0010
0001
0010
1000
0100
1000
0100
,
0001
1000
0010
0100
0001
1000
0020
MM30
,
0010
1000
0010
1000
0100
0001
0100
0001
,
0010
0100
1000
0001
0010
0100
2000
3M0M
,
0100
0001
0100
0001
0010
1000
0010
1000
,
0100
0010
0001
1000
0100
0010
0002
M0M3
,
1000
0100
0010
0100
1000
0100
0010
1000
,
0100
0010
1000
0100
0010
1000
1001
MMMM
,
0001
0010
0100
0010
0001
0010
0100
0001
,
0010
0100
0001
0010
0100
0001
1001
MMMM
,
0010
1000
0001
1000
0010
1000
0001
0010
,
1000
0001
0010
1000
0001
0010
0110
MMMM
,
0100
0001
1000
0001
0100
0001
1000
0100
,
0001
1000
0100
0001
1000
0100
0110
MMMM
,
1000
0100
1000
0100
2000
3000
0000
0110
,
0000
1100
0000
0110
0202
0000
0303
MMMM
,
0001
0100
0001
0100
0002
0003
0000
0110
,
0000
0011
0000
0110
2020
0000
3030
MMMM
,
0010
0100
1000
0010
0002
0003
0000
1001
,
0000
0110
0000
1001
0220
0000
0330
MMMM
,
0100
0010
0100
1000
0002
0003
0000
1001
,
0000
0110
0000
1001
0220
0000
0330
MMMM
,
1000
0001
1000
0001
1000
0001
1000
0001
,
0100
0010
0100
0010
0100
0010
0100
0010
,
0100
1000
0100
1000
0100
1000
0100
1000
,
0010
0001
0010
0001
0010
0001
0010
0001
,
0100
0001
0100
0010
1000
0100
0010
0001
,
0001
0100
0010
1000
1000
0100
0010
0001
,
0001
0100
0001
0010
0001
0100
0001
0010
,
0010
1000
0100
1000
0010
1000
0100
1000
,
0010
0100
0010
1000
0100
0010
0100
1000
,
0100
0001
0100
1000
0010
0100
1001
MMMM
,
1000
0001
1000
0001
1000
0001
1000
0001
0010
0100
0010
0100
0010
0100
0010
0100
,
1000
0100
1000
0100
0001
0010
0001
0010
1000
0001
1000
0001
0010
0100
0010
0100
,
1000
0001
1000
0001
0010
0100
0010
0100
0001
1000
0001
1000
0001
1000
0001
1000
,
0010
0100
0010
0100
0010
0100
0010
0100
1000
0100
0001
0100
0010
0100
0010
0100
,
1000
0100
0010
0100
0001
0100
1000
0010
1000
0001
1000
0100
0020
0000
0030
MMMM
,
0000
20MM
0000
0000
3000
0000
0000
0000
0001
1000
0001
0010
0200
0000
0300
MMMM
,
0000
MM02
0000
0000
0003
0000
0000
0000
0010
0100
0010
1000
0002
0000
0003
MMMM
,
0000
0M2M
0000
0000
0030
0000
0000
0000
0100
0010
0100
0001
2000
0000
3000
MMMM
,
0000
M2M0
0000
0000
0300
0000
0000
0000
1000
0000
0100
0000
1000
0000
0100
0000
,
2000
3000
0000
0110
0000
1100
0000
0110
,
0202
0000
0303
MMMM
0001
0100
0001
0100
,
0002
0003
0000
0110
0000
0011
0000
0110
,
2020
0000
3030
MMMM
0010
0100
1000
0010
,
0002
0003
0000
1001
0000
0110
0000
1001
,
0220
0000
0330
MMMM
0100
0010
0100
1000
,
0002
0003
0000
1001
0000
0110
0000
1001
,
0220
0000
0330
MMMM
1000
0100
1000
0100
,
0001
0010
0001
0010
1000
0001
0100
0010
,
1000
0001
0200
03MM
0001
0010
0001
0010
,
1000
0100
1000
0100
0001
1000
0010
0100
,
0001
1000
0020
MM30
0010
1000
0010
1000
,
0100
0001
0100
0001
0010
0100
1000
0001
,
0010
0100
2000
3M0M
0100
0001
0100
0001
,
0010
1000
0010
1000
0100
0010
0001
1000
,
0100
0010
0002
M0M3
1000
0100
0010
0100
,
1000
0100
0010
1000
0100
0010
1000
0100
,
0010
1000
1001
MMMM
0001
0010
0100
0010
,
0001
0010
0100
0001
0010
0100
0001
0010
,
0100
0001
1001
MMMM
0010
1000
0001
1000
,
0010
1000
0001
0010
1000
0001
0010
1000
,
0001
0010
0110
MMMM
0100
0001
1000
0001
,
0100
0001
1000
0100
0001
1000
0100
0001
,
1000
0100
0110
MMMM
1000
0100
1000
0100
,
2000
3000
0000
0110
0000
1100
0000
0110
,
0202
0000
0303
MMMM
0001
0100
0001
0100
,
0002
0003
0000
0110
0000
0011
0000
0110
,
2020
0000
3030
MMMM
0010
0100
1000
0010
,
0002
0003
0000
1001
0000
0110
0000
1001
,
0220
0000
0330
MMMM
0100
0010
0100
1000
,
0002
0003
0000
1001
0000
0110
0000
1001
,
0220
0000
0330
MMMM
1000
0001
1000
0001
,
1000
0001
1000
0001
0100
0010
0100
0010
,
0100
0010
0100
0010
0100
1000
0100
1000
,
0100
1000
0100
1000
0010
0001
0010
0001
,
0010
0001
0010
0001
0100
0001
0100
0010
,
1000
0100
0010
0001
0001
0100
0010
1000
,
1000
0100
0010
0001
0001
0100
0001
0010
,
0001
0100
0001
0010
0010
1000
0100
1000
,
0010
1000
0100
1000
0010
0100
0010
1000
,
0100
0010
0100
1000
0100
0001
0100
1000
,
0010
0100
1001
MMMM
MMMM
MMMM
MMMM
MMMM
,
MMMM
MMMM
0000
0000
0000
0000
0000
0000
0000
0000
0000
0000
0000
0000
0000
0000
;
