#TITLE:Death Wind;
#SUBTITLE:F-Zero;
#ARTIST:Nintendo;
#TITLETRANSLIT:;
#SUBTITLETRANSLIT:;
#ARTISTTRANSLIT:;
#CREDIT:;
#BANNER:Death Wind.jpg;
#BACKGROUND:Death Wind-bg.jpg;
#LYRICSPATH:;
#CDTITLE:!psychoTitle.png;
#MUSIC:Death Wind.mp3;
#OFFSET:0.000;
#SAMPLESTART:7.001;
#SAMPLELENGTH:5.300;
#SELECTABLE:YES;
#BPMS:0.000=110.700,53.500=117.200,109.500=110.700,162.833=117.200,218.833=110.700;
#STOPS:;
#BGCHANGES:;
// cache tags:
#FIRSTBEAT:0.167;
#LASTBEAT:234.500;
#SONGFILENAME:Songs/VGMP 2/Death Wind (Psycho)/Death Wind.sm;
#HASMUSIC:1;
#HASBANNER:1;
#MUSICLENGTH:129.836;
// end cache tags

//---------------dance-single - ----------------
#NOTES:
     dance-single:
     :
     Hard:
     10:
     1.000,1.000,1.000,0.000,1.000,838.000,254.000,0.000,0.000,0.000:

0000
1000
0000
1000
0000
1000
0000
1000
0000
1000
0000
1000
0000
1000
0000
1000
0000
1000
0000
1000
0000
1000
0000
1000
,
0000
1000
0000
1000
0000
1000
0000
1000
0000
0100
0000
0100
0000
0100
0000
0100
0000
0100
0000
0100
0000
0100
0000
0100
,
0000
0100
0000
0100
0000
0100
0000
0100
0000
0001
0000
0001
0000
0010
0000
0100
0000
1000
0000
1000
0000
1000
0000
1000
,
0000
1000
0000
1000
0000
1000
0000
1000
0000
1000
0000
1000
0000
1000
0000
1000
0000
1000
0000
1000
0000
1000
0000
1000
,
0000
0100
0000
0100
0000
0100
0000
0100
0000
0100
0000
0100
0000
0100
0000
0100
0000
0100
0000
0100
0000
0100
0000
0100
,
0000
0001
0000
0001
0000
0010
0000
0100
0000
1010
0000
1000
0000
1000
0000
1000
0000
1001
0000
1010
0000
1000
0000
1000
,
0000
1100
0000
1000
0000
1000
0000
1000
0000
1001
0010
1100
0000
1000
0000
1000
0000
0110
0000
0100
0000
0100
0000
0100
,
0000
1100
0000
0101
0000
0100
0000
0100
0000
0110
0000
0100
0000
0100
0000
0100
0000
1010
0100
0011
0000
0100
0000
0010
,
0000
1100
0000
1000
0000
1000
0000
1000
0000
1001
0000
1100
0000
1000
0000
1000
0000
1010
0000
1000
0000
1000
0000
1000
,
0000
1001
0100
1010
0000
1001
0010
0101
0000
0110
0000
0100
0000
0100
0000
0100
0000
0101
0000
0110
0000
0100
0000
0100
,
0000
0110
0000
0100
0000
0100
0000
0100
0000
0001
0000
1001
0000
0110
0000
0101
0000
1001
0000
0100
0000
0100
0000
0100
,
0000
1001
0000
0110
0000
0010
0000
0010
0000
0001
1000
0001
0000
1000
0001
1000
0000
0001
0010
0100
1000
0100
0010
0001
,
0010
1100
0000
1000
0000
1000
0000
1000
0000
1100
0000
1010
0000
0001
0000
0001
0000
0001
0000
0101
0000
0001
0000
1001
,
0000
0001
1000
0010
0100
0001
1000
0010
0100
1001
0000
0100
0000
0100
0000
0100
0000
1010
0000
0101
0000
0001
0000
0001
,
0000
0010
0100
0010
0000
0100
0010
0100
0000
0001
0010
0100
1000
0100
0010
0001
0010
1100
0000
1000
0000
1000
0000
1000
,
0000
1100
0000
1010
0000
0001
0000
0001
0000
0001
0010
0101
0000
0001
0100
1001
0000
0001
1000
0010
0100
0001
1000
0010
,
0100
1001
0000
0100
0000
1001
0000
0010
0000
0101
0000
0010
0000
0101
0000
1000
0000
0110
0000
0001
0000
0110
0000
1000
,
0000
0001
1000
0001
0000
1000
0001
1000
0000
0110
0000
1000
0000
0110
0000
0001
0000
1010
0000
0100
0000
1010
0000
0001
,
0000
1100
0000
0001
0010
0100
1000
0001
0100
0010
0100
0001
1000
0100
0010
0001
0000
0110
0000
0001
0000
1100
0000
0010
,
0000
0101
0000
1000
0000
0110
0000
0001
0000
1100
0000
0010
0000
0101
0000
1000
0000
0001
0010
0001
0000
1000
0100
1000
,
0000
0011
0000
0100
0000
1001
0000
0010
0000
1100
0000
0001
0000
0110
0000
1000
0000
0001
0010
0001
0010
0100
1000
0100
,
1000
0010
0100
0010
0100
0001
1000
0001
1000
0110
0110
0000
0110
0110
0000
0110
0000
0110
0110
0000
0110
0110
0000
0110
,
0000
0110
0110
0000
0110
0110
0000
0110
0000
1000
0001
1000
0001
0100
0010
0100
0010
1001
1001
0000
1001
1001
0000
1001
,
0000
1001
1001
0000
1001
1001
0000
1001
0000
1001
1001
0000
1001
1001
0000
1001
0000
0100
0001
0100
0001
1000
0010
1000
,
0010
0101
0101
0000
0101
0101
0000
0101
0000
0101
0101
0000
0101
0101
0000
0101
0000
0101
0101
0000
0101
0101
0000
0101
,
0000
1000
0100
1000
0100
0010
0001
0010
0001
1100
1100
0000
1100
1100
0000
1100
0000
1100
1100
0000
1100
1100
0000
1100
,
0000
1100
1100
0000
1100
1100
0000
1100
0000
0010
0001
0010
0001
1000
0100
1000
0100
0011
0000
0000
0000
0000
0000
0000
,
0000
0011
0000
0011
0000
0000
0000
0000
0000
0001
0000
0001
0000
0001
0000
0001
0000
0001
0000
0001
0000
0001
0000
0001
,
0000
0001
0000
0001
0000
0001
0000
0001
0000
0001
0000
0001
0000
0001
0000
0001
0000
0010
0000
0010
0000
0010
0000
0010
,
0000
0010
0000
0010
0000
0010
0000
0010
0000
0010
0000
0010
0000
0010
0000
0010
0000
0100
0000
0100
0000
1000
0000
0010
,
0000
0001
0000
0001
0000
0001
0000
0001
0000
0001
0000
0001
0000
0001
0000
0001
0000
0001
0000
0001
0000
0001
0000
0001
,
0000
0001
0000
0001
0000
0001
0000
0001
0000
0010
0000
0010
0000
0010
0000
0010
0000
0010
0000
0010
0000
0010
0000
0010
,
0000
0010
0000
0010
0000
0010
0000
0010
0000
0100
0000
0100
0000
1000
0000
0010
0000
0101
0000
0001
0000
0001
0000
0001
,
0000
1001
0000
0011
0000
0001
0000
0001
0000
0101
0000
0001
0000
0001
0000
0001
0000
1001
0100
0011
0000
0001
0000
0001
,
0000
0110
0000
0010
0000
0010
0000
0010
0000
1010
0000
0110
0000
0010
0000
0010
0000
0110
0000
0010
0000
0010
0000
0010
,
0000
1100
0001
0110
0000
1000
0000
0010
0000
0101
0000
0001
0000
0001
0000
0001
0000
1001
0000
0101
0000
0001
0000
0001
,
0000
0011
0000
0001
0000
0001
0000
0001
0000
1001
0100
0011
0000
1001
0100
1010
0000
0110
0000
0010
0000
0010
0000
0010
,
0000
1010
0000
0110
0000
0010
0000
0010
0000
0110
0000
0010
0000
0010
0000
0010
0000
0100
0000
0101
0000
1010
0000
0101
,
0000
1001
0000
0010
0000
0010
0000
0010
0000
1001
0000
0110
0000
0100
0000
0100
0000
1000
0001
1000
0000
0001
1000
0001
,
0000
1000
0100
0010
0001
0010
0100
1000
0100
0011
0000
0001
0000
0001
0000
0001
0000
0011
0000
0101
0000
1000
0000
1000
,
0000
1000
0000
1010
0000
1000
0000
1001
0000
1000
0001
0100
0010
1000
0001
0100
0010
1001
0000
0010
0000
0010
0000
0010
,
0000
0101
0000
1010
0000
1000
0000
1000
0000
0100
0010
0100
0000
0010
0100
0010
0000
1000
0100
0010
0001
0010
0100
1000
,
0100
0011
0000
0001
0000
0001
0000
0001
0000
0011
0000
0101
0000
1000
0000
1000
0000
1000
0100
1010
0000
1000
0010
1001
,
0000
1000
0001
0100
0010
1000
0001
0100
0010
1001
0000
0010
0000
1001
0000
0100
0000
1010
0000
0100
0000
1010
0000
0001
,
0000
0110
0000
1000
0000
0110
0000
0001
0000
1000
0001
1000
0000
0001
1000
0001
0000
0110
0000
0001
0000
0110
0000
1000
,
0000
0101
0000
0010
0000
0101
0000
1000
0000
0011
0000
1000
0100
0010
0001
1000
0010
0100
0010
1000
0001
0010
0100
1000
,
0000
0110
0000
1000
0000
0011
0000
0100
0000
1010
0000
0001
0000
0110
0000
1000
0000
0011
0000
0100
0000
1010
0000
0001
,
0000
1000
0100
1000
0000
0001
0010
0001
0000
1100
0000
0010
0000
1001
0000
0100
0000
0011
0000
1000
0000
0110
0000
0001
,
0000
1000
0100
1000
0100
0010
0001
0010
0001
0100
0010
0100
0010
1000
0001
1000
0001
0110
0110
0000
0110
0110
0000
0110
,
0000
0110
0110
0000
0110
0110
0000
0110
0000
0110
0110
0000
0110
0110
0000
0110
0000
0001
1000
0001
1000
0010
0100
0010
,
0100
1001
1001
0000
1001
1001
0000
1001
0000
1001
1001
0000
1001
1001
0000
1001
0000
1001
1001
0000
1001
1001
0000
1001
,
0000
0010
1000
0010
1000
0001
0100
0001
0100
1010
1010
0000
1010
1010
0000
1010
0000
1010
1010
0000
1010
1010
0000
1010
,
0000
1010
1010
0000
1010
1010
0000
1010
0000
0001
0010
0001
0010
0100
1000
0100
1000
0011
0011
0000
0011
0011
0000
0011
,
0000
0011
0011
0000
0011
0011
0000
0011
0000
0011
0011
0000
0011
0011
0000
0011
0000
0100
1000
0100
1000
0001
0010
0001
,
0010
1100
0000
0000
0000
0000
0000
0000
0000
1100
0000
1100
0000
0000
0000
0000
0000
1000
0000
1000
0000
1000
0000
1000
,
0000
1000
0000
1000
0000
1000
0000
1000
0000
1000
0000
1000
0000
1000
0000
1000
0000
1000
0000
1000
0000
1000
0000
1000
,
0000
0100
0000
0100
0000
0100
0000
0100
0000
0100
0000
0100
0000
0100
0000
0100
0000
0100
0000
0100
0000
0100
0000
0100
,
0000
0010
0000
0010
0000
0001
0000
0100
0000
1000
0000
1000
0000
1000
0000
1000
0000
1000
0000
1000
0000
1000
0000
1000
,
0000
1000
0000
1000
0000
1000
0000
1000
0000
1000
0000
1000
0000
1000
0000
1000
0000
0000
0000
0000
0000
0000
0000
0000
;
