#TITLE:Mr. Roboto;
#SUBTITLE:;
#ARTIST:STYX;
#TITLETRANSLIT:;
#SUBTITLETRANSLIT:;
#ARTISTTRANSLIT:;
#CREDIT:;
#BANNER:Mr. Roboto.png;
#BACKGROUND:Mr. Roboto-bg.png;
#LYRICSPATH:;
#CDTITLE:!Dokuroridertitle2.png;
#MUSIC:Mr. Roboto.mp3;
#OFFSET:-6.680;
#SAMPLESTART:144.700;
#SAMPLELENGTH:12.500;
#SELECTABLE:YES;
#DISPLAYBPM:144.000;
#BPMS:0.000=144.100,155.000=185.000,155.500=144.100;
#STOPS:272.000=0.820
;
#BGCHANGES:;
// cache tags:
#FIRSTBEAT:0.000;
#LASTBEAT:496.000;
#SONGFILENAME:Songs/longs versions/Mr Roboto/Mr. Roboto.sm;
#HASMUSIC:1;
#HASBANNER:1;
#MUSICLENGTH:214.238;
// end cache tags

//---------------dance-single - ----------------
#NOTES:
     dance-single:
     :
     Easy:
     4:
     0.226,0.289,0.028,0.000,0.000,333.000,6.000,0.000,0.000,0.000:
1000
0000
0000
0000
,
0000
0000
0000
0000
,
0001
0000
0000
0000
,
1000
0100
1000
0000
,
0001
0100
0001
0000
,
1000
0001
1000
0001
,
1000
0000
0001
0000
0001
0000
0000
0010
,
0000
0000
0000
0100
0000
0000
0000
0010
,
0000
0001
0000
0001
,
0000
0000
1000
0000
0000
0000
0000
0100
,
0000
0000
0000
0010
0000
0000
0000
0100
,
0000
1000
0000
1000
,
0000
0000
0001
0000
0000
0000
0000
0010
,
0000
0000
0000
0100
0000
0000
0000
0010
,
0000
0001
0000
0001
,
0000
0000
0100
0000
0000
0000
0000
0010
,
0000
0000
0000
1000
0000
0000
0010
0000
,
0010
0010
0000
0100
,
0100
0100
0000
0010
,
0010
0010
0000
0100
,
0100
0100
0000
0000
,
1000
1000
0000
0000
,
0001
0001
0000
0000
,
1000
1000
0000
0000
,
0000
0001
0001
0010
,
0100
0100
0000
0000
,
0010
0010
0000
0000
,
0100
0100
0000
0000
,
0000
0010
0010
0001
,
1000
1000
0000
0000
,
0001
0001
0000
0000
,
1000
1000
0000
0000
,
0000
0001
0001
0100
,
0010
0010
0000
0000
,
0100
0100
0000
0000
,
0010
0010
0000
0000
,
0100
0100
0010
1000
,
0100
0100
0000
0010
,
0001
0001
0000
0010
,
0100
0100
0000
0000
,
1000
1000
0000
0000
,
0001
0001
0100
0000
,
0010
0010
1000
0000
,
0100
0100
0000
0000
,
0010
0010
0000
0000
,
0001
0001
0000
0000
,
1000
1000
0000
0000
,
0001
0001
0000
0000
,
0100
0100
0010
0010
,
0100
0100
0000
0000
,
0001
0001
0000
0000
,
1000
1000
0000
0000
,
0100
0100
0010
0010
,
0100
0100
0000
0000
,
1000
1000
0000
0000
,
0001
0001
0000
0000
,
0010
0010
0100
0100
,
0010
0010
0000
0000
,
0001
0001
0000
0000
,
1000
1000
0000
0000
,
0001
0001
0100
0100
,
0010
0000
1000
0100
,
1000
0000
0010
0010
,
0100
0100
0000
0000
,
0001
0001
1000
0100
,
0010
0000
0001
0100
,
0010
0010
1000
0100
,
1000
0001
1000
0001
,
1001
0000
0000
0001
0000
0000
0000
1000
,
0000
0000
0000
0001
0000
0000
0100
0000
,
0000
0100
0000
0010
,
0000
0000
0000
1000
0000
0000
0000
0001
,
0000
0000
0000
1000
0000
0000
0100
0000
,
0000
0100
0000
0010
,
0000
0000
0000
0001
0000
0000
0000
1000
,
0000
0000
0000
0001
0000
0000
0100
0000
,
0000
0100
0000
0010
,
0000
0000
0000
1000
0000
0000
0000
0001
,
0000
1000
0001
1001
,
0000
0000
0000
0101
,
0000
0000
0000
1010
,
0000
0000
0000
1001
,
0000
0000
0100
0001
,
0001
0010
0001
0001
,
0100
0010
1000
0000
,
0000
0000
0001
0000
,
0000
0000
0100
1000
,
1000
0010
1000
1000
,
0100
0010
0001
0000
,
0000
0000
1000
0000
,
0000
0000
0001
0100
,
0001
0100
0001
0010
,
0100
0100
1000
0010
,
1000
0010
1000
0100
,
0010
0010
0001
0100
,
0001
0100
0001
0010
,
0100
0100
1000
0010
,
1000
0010
1000
0100
,
0010
0010
0001
0100
,
0000
0100
0000
0010
,
1000
0100
1000
0010
,
0000
0010
0000
0100
,
0001
0010
0001
0100
,
0000
0100
0000
0010
,
1000
0100
1000
0010
,
0000
0010
0000
0100
,
0001
0010
0001
0100
,
0100
0100
0010
1000
,
1000
1000
0100
0010
,
0010
0010
0001
1000
,
1000
1000
0010
0100
,
0100
0100
0001
0010
,
0010
0010
0100
1000
,
0000
1000
0100
0010
,
0000
0010
0001
0001
,
0000
0100
0010
0010
,
0000
0000
1000
1000
,
0100
0100
1000
1000
,
0010
0010
0100
0001
,
0100
0000
0010
1000
,
0010
0000
0100
0001
,
0010
0001
0100
0010
,
1000
0000
0100
0100
,
0010
0010
0100
0100
,
0110
0000
0000
0000
;

//---------------dance-single - ----------------
#NOTES:
     dance-single:
     :
     Medium:
     6:
     0.451,0.492,0.107,0.719,0.000,500.000,23.000,154.000,0.000,0.000:
1001
0000
0000
0000
,
0000
0000
0000
0000
,
1001
0000
0000
0000
,
0010
0100
0110
0000
,
1000
0001
1001
0000
,
0100
0101
0100
0101
,
0010
0000
1010
0000
1010
0000
0100
1000
,
0000
0000
1000
0100
0000
0000
0100
1000
,
0000
0010
0100
0010
,
0100
0000
0010
0000
0100
0000
0001
0010
,
0000
0000
0010
0001
0000
0000
0001
0010
,
0000
0100
0010
0100
,
0010
0000
0100
0000
0010
0000
0100
1000
,
0000
0000
1000
0001
0000
0000
0001
0100
,
0000
0010
1000
0010
,
0100
0000
0010
0000
1000
0000
0010
0100
,
0000
0000
0100
0001
0000
0000
0001
0000
,
0011
1100
0100
0100
,
0000
0011
0010
0010
,
0000
1001
1000
1000
,
0000
0000
0110
0000
0100
0010
0100
0000
,
0002
0013
0100
0100
,
2000
3010
0100
0100
,
0002
0013
0100
0100
,
1000
0010
0100
0001
,
2000
3100
0010
0010
,
0002
0103
0010
0010
,
2000
3100
0010
0010
,
0001
0100
0010
1000
,
0200
0310
0001
0001
,
0200
0310
1000
1000
,
0200
0310
0001
0001
,
0100
0010
1000
0100
,
0020
0031
0100
0100
,
0020
1030
0100
0100
,
0020
0031
0100
0100
,
0020
0000
1030
0000
0100
0010
0100
0000
,
0010
0001
0100
0010
,
0100
0000
0001
0000
0010
0100
0010
0000
,
0001
1001
0100
0100
,
0010
0000
1001
0000
0100
0001
0100
0000
,
0010
1010
0100
0001
,
0010
0000
0100
0000
1000
0100
1000
0100
,
1000
0001
0010
0001
,
0100
0000
0010
0000
1000
0100
1000
0000
,
0020
0031
0100
0010
,
2000
3100
0010
0001
,
0200
0301
0010
0100
,
2000
3200
0320
0230
,
2300
3001
0100
0010
,
2000
3100
0010
0001
,
0200
0310
1000
0100
,
0020
0032
0203
0320
,
0230
0301
0010
0100
,
0020
0031
0100
0010
,
0200
0301
0010
0100
,
0020
0032
0203
0320
,
2030
3100
0010
0100
,
2000
3010
0100
0010
,
2000
3100
0010
0100
,
2000
0000
3010
0000
0100
0001
0100
0001
,
0100
0010
1000
0100
,
0010
0000
0100
0000
1000
0001
1000
0001
,
1000
1100
0010
0100
,
0001
0000
0011
0000
0100
1000
0100
1000
,
0100
0010
0001
0100
,
0010
0000
0100
0000
0001
0010
0001
0010
,
0001
1000
0001
1000
0001
1000
0001
1000
,
1001
0000
1000
0100
0000
0000
1000
0100
,
0000
0000
1000
0100
0000
0000
0010
0000
,
0001
0010
0001
0100
,
0010
0000
0100
0001
0000
0000
0100
0001
,
0000
0000
0100
0001
0000
0000
0010
0000
,
0100
0010
0001
0100
,
0010
0000
1000
0001
0000
0000
1000
0001
,
0000
0000
1000
0001
0000
0000
0100
0000
,
0001
0010
0001
0100
,
0010
0000
1000
0010
0000
0000
1000
0010
,
0000
1000
0010
0110
,
0100
0100
0000
1001
,
0010
0010
0000
1100
,
0001
0001
0000
0011
,
1000
1000
0200
0302
,
0203
0302
0023
0230
,
0320
0032
0203
0310
,
0000
0000
2000
3100
,
0000
0000
0020
0032
,
0203
0320
2030
3200
,
2300
3020
0230
0301
,
0000
0000
0020
0130
,
0000
0000
2000
3020
,
0230
0320
2030
3200
,
0320
0032
0203
0320
,
0230
0302
0023
0230
,
2300
3020
0230
0320
,
2030
3200
0320
0032
,
0023
0230
0320
0032
,
0203
0320
2030
3200
,
0320
0032
0203
0320
,
2030
3200
0320
0230
,
2300
3020
0230
0302
,
0023
0032
0203
0320
,
2030
3200
2300
3020
,
0230
0320
2030
3200
,
0320
0032
0203
0320
,
0230
0302
0023
0230
,
2300
3020
0230
0320
,
2030
3200
0320
0032
,
0203
0320
0230
0302
,
0023
0230
2300
3020
,
0230
0302
0023
0230
,
2300
3020
0230
0302
,
0023
0230
0320
0032
,
0203
0320
2030
3200
,
0320
0230
1300
0100
,
1000
0010
0100
0001
,
0010
0001
0010
0001
0010
0000
0001
0000
,
0100
0010
1000
0100
,
1000
0100
1000
0100
1000
0000
0010
0000
,
0100
0001
0010
0001
,
0100
0010
1000
0100
,
1000
0010
0100
0001
,
0010
0000
0001
0000
0100
0001
0100
0001
,
0100
0001
0100
0010
0100
0010
0100
0010
,
0100
0000
0000
0000
;

//---------------dance-single - ----------------
#NOTES:
     dance-single:
     :
     Hard:
     7:
     0.463,0.492,0.350,0.000,0.023,620.000,75.000,0.000,0.000,0.000:
1001
0000
0000
0000
,
0110
0000
0000
0000
,
1001
0000
0000
0000
,
0100
0001
0011
0001
,
0100
0010
1010
1000
,
0100
0011
1000
0101
,
1000
0000
0011
0000
1001
0000
0100
0101
,
0000
0000
0010
1010
0000
0000
0100
0110
,
0000
1000
0100
0010
,
0100
0000
1000
0000
0010
0000
0100
0101
,
0000
0000
1000
1100
0000
0000
0010
0011
,
0000
0100
0010
1000
,
0100
0000
0010
0000
0100
0000
1000
1010
,
0000
0000
0100
0101
0000
0000
1000
1001
,
0000
0100
0010
0001
,
0100
0000
0010
0000
0100
0000
0001
0011
,
0000
0000
0100
1100
0000
0000
1000
0000
,
1001
0101
0000
0010
,
1000
1100
0000
0010
,
0001
0101
0000
0010
,
1000
0000
0000
0000
1001
0000
0000
0000
0100
0001
0100
0000
0010
0000
1000
0000
,
0100
0000
0100
0000
0010
0001
0010
0000
,
0001
0000
0001
0000
0100
0010
0100
0000
,
0010
0000
0010
0000
1000
0100
1000
0000
,
0100
0100
0010
0001
,
0100
0000
0100
0000
0010
1000
0010
0000
,
1000
0000
1000
0000
0100
0010
0100
0000
,
0010
0000
0010
0000
0001
1000
0001
0000
,
1000
1000
0100
0010
,
0001
0000
0001
0000
0100
0010
0100
0000
,
0010
0000
0010
0000
1000
0100
1000
0000
,
0100
0000
0100
0000
0010
0001
0010
0000
,
0001
0001
0100
0010
,
1000
0000
1000
0000
0100
0010
0001
0010
,
0100
0000
0100
0000
1000
0010
0100
0010
,
1000
0000
1000
0000
0100
0010
0001
0010
,
0100
0000
0100
0000
1000
0100
1000
0010
,
0100
0000
0101
0000
0010
1000
0100
0000
,
0010
0000
1001
0000
0100
0001
0010
0100
,
1000
0000
1100
0000
0010
0100
0010
0000
,
1000
0000
1100
0000
0100
0010
0001
0100
,
0010
0000
1010
0000
0100
0001
0100
0000
,
0010
0000
1001
0000
0100
0001
0100
0010
,
1000
0000
1100
0000
0010
0001
0100
0000
,
0010
0000
0000
0000
1010
0000
0000
0000
0100
0001
0100
0000
0010
0000
1000
0000
,
0100
0000
0100
0000
0010
0001
0100
0010
,
1000
0000
1000
0000
0100
0010
0001
0100
,
0010
0000
0010
0000
1000
0100
0010
0001
,
0100
0100
0010
1000
,
0001
0000
0001
0000
0010
0100
1000
0010
,
0100
0000
0100
0000
0001
0010
0100
1000
,
0010
0000
0010
0000
0100
0001
0010
0001
,
0100
0100
0010
1000
,
0100
0000
0100
0000
0010
0001
0010
0100
,
1000
0000
1000
0000
0010
0100
0010
1000
,
0100
0000
0100
0000
0010
0001
0010
0100
,
1000
1000
0010
0100
,
0001
0000
0001
0000
1000
0100
0010
0100
,
1000
0000
1000
0000
0001
0010
0100
0010
,
0001
0000
0001
0000
1000
0010
0100
0010
,
1000
0000
1000
0000
0100
0010
0001
0010
,
0100
0000
1100
0000
0010
0001
0100
0000
,
0010
0000
1010
0000
0100
0001
0010
0100
,
1000
0000
1001
0000
0100
0001
0100
0000
,
0001
0000
1001
0000
0100
1000
0100
0010
,
0001
0000
0101
0000
0010
1000
0010
0000
,
0100
0000
1010
0000
0100
0001
0100
0010
,
1000
0100
1000
0010
0100
0001
1000
0001
,
1001
0000
1000
1100
0000
0000
0001
0011
,
0000
0000
1000
1100
0000
0000
0010
0000
,
0001
0100
0010
1000
,
0100
0000
0010
0011
0000
0000
0100
1100
,
0000
0000
0001
1001
0000
0000
1000
0000
,
0010
0100
0001
0010
,
0100
0000
1000
1010
0000
0000
0001
0101
,
0000
0000
0010
0110
0000
0000
0001
0000
,
0100
0010
1000
0100
,
1000
0000
0010
0110
0000
0000
1000
1001
,
0000
0100
0110
0011
,
0100
0010
1000
1100
,
0010
0100
0001
1001
,
0100
0010
0001
0101
,
0010
0000
1000
0000
0100
1000
0100
1000
,
0010
0000
0100
0001
0000
0010
0000
0100
,
1000
0000
1001
0000
0100
0001
1000
1000
,
0100
0000
0000
0000
0000
0000
0000
0000
0010
0000
0000
0000
0000
0000
0000
0001
0000
0000
0000
0000
0000
0000
0000
0000
1000
0000
0000
0000
0000
0000
0010
0000
0000
0000
0000
0000
0100
0000
0000
0000
0000
0000
0100
0000
0000
0000
0000
0000
,
0001
0000
0000
0000
0000
0000
0000
0000
0010
0000
0000
0000
0000
0000
0000
0100
0000
0000
0000
0000
0000
0000
0000
0000
1000
0000
0000
0000
0000
0000
0010
0000
0000
0000
0000
0000
1000
0000
0000
0000
0000
0000
0010
0000
0000
0000
0000
0000
,
0100
0000
0001
0010
0000
0100
0000
1000
,
0010
0000
0110
0000
0001
0010
0100
0100
,
1000
0000
0000
0000
0000
0000
0000
0000
0010
0000
0000
0000
0000
0000
0000
0100
0000
0000
0000
0000
0000
0000
0000
0000
0001
0000
0000
0000
0000
0000
1000
0000
0000
0000
0000
0000
0100
0000
0000
0000
0000
0000
0100
0000
0000
0000
0000
0000
,
0010
0000
0000
0000
0000
0000
0000
0000
0001
0000
0000
0000
0000
0000
0000
0100
0000
0000
0000
0000
0000
0000
0000
0000
0010
0000
0000
0000
0000
0000
1000
0000
0000
0000
0000
0000
0100
0000
0000
0000
0000
0000
1000
0000
0000
0000
0000
0000
,
0010
0000
0100
0001
0000
0010
0000
0001
,
0100
0000
0101
0000
0010
0100
1000
0100
,
0010
0000
0001
0100
0000
0010
0000
1000
,
0100
0000
0110
0000
0001
0100
0010
0100
,
0001
0000
0010
0100
0000
1000
0000
0010
,
0100
0000
0101
0000
0010
1000
0100
0010
,
0100
0000
1000
0010
0000
0100
0000
0001
,
0010
0000
0011
0000
0100
1000
0010
0001
,
0010
0000
1000
0100
0000
0010
0000
0100
,
1000
0000
1100
0000
0001
0100
1000
0100
,
0001
0000
0010
0100
0000
1000
0000
0010
,
0100
0000
0101
0000
1000
0010
0100
0001
,
0010
0000
0001
0100
0000
0010
0000
1000
,
0100
0000
0101
0000
1000
0010
0100
0001
,
0010
0000
0100
1000
0000
0010
0000
0100
,
0001
0000
0011
0000
0100
1000
0010
0100
,
0001
0000
0010
0100
0000
1000
0000
0010
,
0001
0000
0110
0000
1000
0100
0010
0100
,
1000
0000
0010
0100
0000
0001
0000
0010
,
0001
0000
1001
0000
0100
0001
0010
0001
,
0100
0000
0010
1000
0000
0100
0000
0010
,
0100
0000
1100
0000
0010
0100
0001
0100
,
0010
0000
1000
0100
0000
0010
0000
0100
,
1000
1001
0100
0100
,
0001
0010
0001
0000
0100
0000
0100
0000
,
0010
1000
0010
1000
0100
0000
0100
0000
,
0011
0011
0100
0100
,
1010
1010
0100
0001
,
0010
0001
0100
0010
,
1000
0100
0010
0001
,
0100
0010
1000
0100
,
0010
0000
0100
0000
1000
0100
0010
0100
,
1000
0010
0100
0001
0010
0001
0100
0010
,
1001
0000
0000
0000
;

//---------------dance-single - ----------------
#NOTES:
     dance-single:
     :
     Challenge:
     8:
     0.537,0.521,0.392,0.000,0.023,722.000,84.000,0.000,0.000,0.000:
1000
0100
1000
0100
0010
0001
0000
0010
,
0000
0100
0000
1000
0001
0000
1001
0000
,
0100
0000
0001
0000
0010
0100
0010
0100
,
0010
0001
0010
0001
0011
0000
1000
0000
,
0010
0100
0010
0100
0110
0000
1000
0000
,
0100
0011
0100
1010
,
0100
0000
1001
0000
1001
0000
1000
0010
,
0000
0000
0010
0100
0000
0000
0100
0001
,
0000
0000
0010
0100
0010
0100
0000
1000
,
0010
0100
0001
0010
0000
0000
0100
1000
,
0000
0000
1000
0010
0000
0000
0010
0100
,
0000
0000
0001
1000
0001
1000
0000
0010
,
0100
0001
0010
0100
0000
0000
1000
0001
,
0000
0000
0001
0100
0000
0000
0100
0010
,
0000
0000
1000
0100
1000
0100
0000
0010
,
0001
0100
0010
1000
0000
0000
0001
0010
,
0000
0000
0010
0100
0000
0000
0100
0000
,
1000
0000
0011
0000
0001
0100
0001
0010
,
0100
0000
1100
0000
0010
0001
0100
0010
,
1000
0000
1010
0000
0100
0001
0010
0100
,
1000
0000
0000
0000
1001
0000
0000
0000
0100
0001
0010
0000
0100
0000
1000
0000
,
0010
0000
1010
0000
0100
0001
0010
0001
,
0100
0000
1010
0000
0100
0001
0010
0100
,
0010
0000
1001
0000
0100
0001
0010
0100
,
1000
1100
0110
0011
,
1001
0000
0101
0000
0010
1000
0100
0010
,
0100
0000
1001
0000
0100
0001
0010
0100
,
0010
0000
1001
0000
0100
0010
1000
0100
,
0010
0011
1001
1100
,
0110
0000
0011
0000
0100
0010
1000
0100
,
1000
0000
1010
0000
0100
0001
0010
0100
,
0010
0000
0110
0000
0001
0100
0010
0100
,
0001
0011
0110
1100
,
1001
0000
0101
0000
0010
1000
0010
0100
,
0010
0000
1010
0000
0100
0001
0100
0010
,
0100
0000
0101
0000
0010
1000
0100
0001
,
0100
0000
1100
0000
0010
0100
0001
0010
,
1000
0010
0001
0000
0100
0000
0010
0000
,
1000
0100
0010
0100
1000
0010
0100
0001
,
1001
0000
1100
0000
0010
0001
0010
0000
,
0101
0000
1001
0000
0010
1000
0010
1000
,
0100
0000
0010
0000
0001
0100
1000
0100
,
0001
0010
0100
1000
0010
0010
0100
0100
,
1001
0000
1100
0000
0100
0001
0010
0001
,
0101
0000
0000
0000
1001
0000
0000
0000
0010
1000
0100
0000
0010
0000
0001
0000
,
0100
0000
0101
0000
0010
1000
0100
1000
,
0010
0000
0110
0000
0100
0001
0010
0001
,
0100
0000
0110
0000
0010
1000
0100
0001
,
0100
1000
0010
0100
0001
0010
0001
0100
,
0010
0000
1010
0000
0100
0001
0010
0001
,
0100
0000
0101
0000
0010
1000
0100
0010
,
0100
0000
1100
0000
0010
0001
0100
1000
,
0100
0001
0010
0100
1000
0010
0100
0001
,
0010
0000
1001
0000
0100
0010
1000
0100
,
0010
0000
1001
0000
0100
0001
0010
0100
,
1000
0000
0110
0000
1000
0010
0100
0001
,
0010
0100
1000
0100
0010
0001
0010
0100
,
1000
0000
1010
0000
0100
0001
0010
0100
,
1000
0000
0101
0000
0010
1000
0100
0010
,
0001
0000
1100
0000
0010
0001
0100
0010
,
1000
0100
0010
0100
1000
0010
0100
0001
,
0010
0000
0011
0000
0100
1000
0010
0100
,
0001
0000
1001
0000
0100
0010
0001
0010
,
0100
0000
1100
0000
0010
0100
0010
1000
,
0100
0000
0011
0000
0100
0010
1000
0100
,
1000
0010
0100
0001
0010
0001
0100
0010
,
1000
0100
1000
0010
0100
0001
0010
0001
,
0100
0010
1000
0100
0010
0001
0100
0010
,
1010
0000
1000
1000
0000
0000
0001
0001
,
0000
0000
0100
0100
0000
0000
0010
1000
,
0100
0010
0000
0010
0100
1000
0010
0100
,
0000
0000
0001
0001
0000
0000
0100
0100
,
0000
0000
0010
0010
0000
0000
1000
0100
,
0010
0100
0000
1000
0010
0100
0010
1000
,
0000
0000
0100
0100
0000
0000
0010
0010
,
0000
0000
0001
0001
0000
0000
0100
0010
,
1000
0100
0000
0010
0001
0100
0010
1000
,
0000
0000
0100
0100
0000
0000
0010
0010
,
0000
0100
0100
1001
,
1000
0010
0100
0001
0010
0000
0110
0000
,
1000
0010
0100
0001
0010
0000
0110
0000
,
0001
0100
0010
1000
0100
0000
0110
0000
,
0001
0100
0010
1000
0100
0010
0100
1000
,
0010
0000
0100
0001
0000
0010
0000
1000
,
0010
0000
0011
0000
0100
0010
1000
0100
,
0010
0000
0000
0000
0000
0000
0000
0000
0010
0000
0000
0000
0000
0000
0000
0010
0000
0000
0000
0000
0000
0000
0000
0000
0001
0000
0000
0000
0000
0000
0100
0000
0000
0000
0000
0000
0010
0000
0000
0000
0000
0000
1000
0000
0000
0000
0000
0000
,
0100
0000
0000
0000
0000
0000
0000
0000
0100
0000
0000
0000
0000
0000
0000
0100
0000
0000
0000
0000
0000
0000
0000
0000
0010
0000
0000
0000
0000
0000
0001
0000
0000
0000
0000
0000
0100
0000
0000
0000
0000
0000
1000
0000
0000
0000
0000
0000
,
0100
0000
0001
0010
0000
0100
0000
1000
,
0010
0000
0110
0000
0100
0001
0010
0100
,
1000
0000
0000
0000
0000
0000
0000
0000
1000
0000
0000
0000
0000
0000
0000
1000
0000
0000
0000
0000
0000
0000
0000
0000
0010
0000
0000
0000
0000
0000
1000
0000
0000
0000
0000
0000
0100
0000
0000
0000
0000
0000
0010
0000
0000
0000
0000
0000
,
0001
0000
0000
0000
0000
0000
0000
0000
0001
0000
0000
0000
0000
0000
0000
0001
0000
0000
0000
0000
0000
0000
0000
0000
0100
0000
0000
0000
0000
0000
0010
0000
0000
0000
0000
0000
1000
0000
0000
0000
0000
0000
0100
0000
0000
0000
0000
0000
,
0001
0000
0100
1000
0000
0010
0000
0100
,
0001
0000
1001
0000
0010
0100
0001
0010
,
1000
0000
0010
0001
0000
0100
0000
0010
,
1000
0000
1001
0000
0100
0001
0010
0100
,
1000
0000
0010
0001
0000
0010
0000
1000
,
0100
0000
1100
0000
0010
0001
0100
0010
,
1000
0000
0100
0001
0000
0100
0000
1000
,
0010
0000
1010
0000
0100
0001
0010
1000
,
0010
0000
0001
0100
0000
0010
0000
1000
,
0001
0000
1001
0000
0010
1000
0100
0001
,
0100
0000
1000
0010
0000
0100
0000
0001
,
1000
0000
1001
0000
0010
0100
0001
0010
,
0001
0000
0100
0010
0000
1000
0000
0100
,
0001
0000
0101
0000
0100
1000
0010
0100
,
0010
0000
1000
0100
0000
0010
0000
0001
,
0100
0000
1100
0000
0100
0001
0010
0100
,
1000
0000
0001
1000
0000
0100
0000
0010
,
0001
0000
0011
0000
0010
0001
0100
0010
,
1000
0000
0001
1000
0000
0100
0000
0010
,
0001
0000
0011
0000
0001
0100
1000
0001
,
0010
0000
1000
0100
0000
0010
0000
0001
,
1000
0000
1100
0000
0001
0010
1000
0001
,
0100
0000
1000
0010
0000
0100
0000
0001
,
0010
0011
0100
1100
,
0010
0100
0001
0010
0001
0000
0101
0000
,
0010
1000
0100
0010
0100
0000
1100
0000
,
0010
0100
0001
0010
0100
0000
1001
0000
,
0001
0100
0010
0001
0010
0000
1000
0000
,
0100
0010
0001
0010
0100
0000
1000
0000
,
0010
0100
0001
0010
0001
0000
0100
0000
,
0010
1000
0100
0010
0100
0000
1000
0000
,
0010
0100
0001
0010
0001
0100
0010
1000
,
0100
0010
0001
0010
0100
1000
0100
0010
,
0011
0000
0000
0000
;

//---------------dance-double - ----------------
#NOTES:
     dance-double:
     :
     Hard:
     8:
     0.456,0.463,0.201,0.000,0.023,641.000,43.000,0.000,0.000,0.000:
10010000
00000000
00000000
00000000
,
00000000
00000000
00000000
00000000
,
00001001
00000000
00000000
00000000
,
00010000
00001000
00000010
00001000
,
00010000
00100000
00010000
00001000
,
00010000
00010100
00001000
00101000
,
00010000
00000000
00010100
00000000
00011000
00000000
01000000
10000000
,
00000000
00000000
00100000
01000000
00000000
00000000
00001000
00010000
,
00000000
00000000
00001000
00100000
00001000
01000000
00000000
00010000
,
01000000
00100000
00010000
00001000
00000000
00000000
00000100
00000001
,
00000000
00000000
00000010
00000100
00000000
00000000
00010000
00001000
,
00000000
00000000
00010000
00000010
00010000
00000100
00000000
00001000
,
00000100
00000010
00001000
00010000
00000000
00000000
00100000
01000000
,
00000000
00000000
00010000
10000000
00000000
00000000
01000000
00100000
,
00000000
00000000
00001000
00010000
00001000
00000100
00000000
00000001
,
00000010
00000100
00001000
00000001
00000000
00000000
00000100
00000010
,
00000000
00000000
00001000
00000001
00000000
00000000
00000100
00000000
,
00000010
00000000
00011000
00000000
01000000
00001000
00100000
00000000
,
00010000
00000000
10010000
00000000
01000000
00010000
00100000
00000000
,
00001000
00000000
00011000
00000000
00100000
00001000
01000000
00010000
,
00100000
00000000
00000000
00000000
00110000
00000000
00000000
00000000
00100000
00001000
00010000
00000000
00001000
00000000
00010000
00000000
,
00000100
00000000
00000010
00000000
00000001
00000100
00001000
00000000
,
00000100
00000000
00000010
00000000
00001000
00000010
00000001
00000000
,
00000010
00000000
00000100
00000000
00000001
00000100
00001000
00000000
,
00010000
01000000
10000000
01000000
,
00100000
00000000
01000000
00000000
10000000
01000000
00010000
00000000
,
01000000
00000000
00100000
00000000
10000000
00100000
00010000
00000000
,
00100000
00000000
01000000
00000000
10000000
01000000
00010000
00000000
,
00001000
00000100
00000001
00000010
,
00000100
00000000
00000010
00000000
00000001
00000010
00001000
00000000
,
00000010
00000000
00000100
00000000
00001000
00000100
00000001
00000000
,
00000100
00000000
00000010
00000000
00000001
00000010
00001000
00000000
,
00010000
00100000
10000000
01000000
,
00100000
00000000
01000000
00000000
10000000
01000000
00010000
00000000
,
01000000
00000000
00100000
00000000
10000000
00100000
00010000
00000000
,
00100000
00000000
01000000
00000000
10000000
01000000
00010000
00000000
,
00001000
00000000
00000100
00000000
00000001
00000010
00000100
00010000
,
00001000
00011000
00100000
00010000
,
01000000
00000000
00100000
00000000
10000000
01000000
00100000
00010000
,
01010000
10010000
01000000
00010000
,
00101000
00000000
00011000
00000000
00000100
00000001
00000010
00000100
,
00001000
00000010
00010000
00001000
,
01000000
00000000
00100000
00000000
10000000
01000000
00100000
00010000
,
00110000
00011000
00000010
00001000
,
00001100
00000000
00000000
00000000
00000011
00000000
00000000
00000000
00000100
00000010
00001000
00000000
00000100
00000000
00010000
00000000
,
00001000
00000000
01000000
00000000
00100000
10000000
00010000
00000000
,
00100000
00000000
00001000
00000000
00010000
00000010
00000100
00000000
,
00000001
00000000
00000010
00000000
00000100
00010000
00001000
00000000
,
00100000
00010000
01000000
00100000
00010000
00001000
00100000
01000000
,
10000000
00000000
00100000
00000000
01000000
00001000
00010000
00000000
,
00000100
00000000
00000010
00000000
00000001
00000100
00000010
00000000
,
00010000
00000000
00001000
00000000
01000000
00100000
10000000
00000000
,
01000000
00100000
00001000
00010000
00001000
00000100
00000001
00000010
,
00000100
00000000
00010000
00000000
00001000
00100000
01000000
00000000
,
10000000
00000000
00100000
00000000
01000000
00001000
00010000
00000000
,
00000100
00000000
00000010
00000000
00000001
00000100
00001000
00000000
,
00010000
00100000
10000000
01000000
10000000
00100000
00010000
00001000
,
00010000
00000000
00000010
00000000
00000100
00000001
00000010
00000000
,
00000100
00000000
00010000
00000000
00001000
00100000
01000000
00000000
,
10000000
00000000
00100000
00000000
01000000
00001000
00010000
00000000
,
00000100
00000010
00000001
00000100
00001000
00000100
00000001
00000010
,
00001000
00010000
00100000
10000000
,
01000000
00000000
10000000
00000000
00100000
01000000
00001000
00010000
,
00100000
00000000
11000000
00000000
00100000
00001000
00010000
00000100
,
00000010
00000000
00000011
00000000
00000100
00000010
00001000
00000100
,
00010000
00000000
00011000
00000000
01000000
00100000
10000000
01000000
,
00100000
00000000
00110000
00000000
00001000
00010000
00100000
00010000
,
00001000
00000100
00001000
00010000
00100000
00010000
00001000
00000100
,
00001000
00000000
00100000
01000000
00000000
00000000
10000000
00100000
,
00000000
00000000
01000000
00010000
00000000
00000000
00100000
00001000
,
01000000
00010000
00000000
00100000
00010000
01000000
00100000
10000000
,
00000000
00000000
01000000
00100000
00000000
00000000
00001000
00010000
,
00000000
00000000
00000100
00000010
00000000
00000000
00000001
00000100
,
00000010
00000100
00000000
00000010
00010000
00001000
01000000
00100000
,
00000000
00000000
10000000
00100000
00000000
00000000
01000000
00010000
,
00000000
00000000
00100000
00001000
00000000
00000000
00010000
00000010
,
00001000
00000100
00000000
00000010
00000001
00000100
00000010
00010000
,
00000000
00000000
00001000
00100000
00000000
00000000
00010000
01000000
,
00000000
00100000
10000000
10010000
,
01000000
00001000
00010000
00011000
,
00000010
00000100
00000001
00001001
,
00000100
00010000
00001000
00011000
,
00100000
00000000
00010000
00000000
01000000
00100000
01000000
00010000
,
10000000
00000000
01000000
00100000
00000000
00001000
00000000
00010000
,
00000100
00000000
00001100
00000000
00000010
00000010
00000001
00000100
,
00000010
00000000
00000000
00000000
00000000
00000000
00000000
00000000
00010000
00000000
00000000
00000000
00000000
00000000
00000000
00001000
00000000
00000000
00000000
00000000
00000000
00000000
00000000
00000000
00100000
00000000
00000000
00000000
00000000
00000000
00100000
00000000
00000000
00000000
00000000
00000000
00010000
00000000
00000000
00000000
00000000
00000000
01000000
00000000
00000000
00000000
00000000
00000000
,
00100000
00000000
00000000
00000000
00000000
00000000
00000000
00000000
10000000
00000000
00000000
00000000
00000000
00000000
00000000
01000000
00000000
00000000
00000000
00000000
00000000
00000000
00000000
00000000
00100000
00000000
00000000
00000000
00000000
00000000
00001000
00000000
00000000
00000000
00000000
00000000
00010000
00000000
00000000
00000000
00000000
00000000
00000100
00000000
00000000
00000000
00000000
00000000
,
00000010
00000000
00000001
00000100
00000000
00000010
00000000
00010000
,
00001000
00000000
00011000
00000000
00100000
00100000
00010000
01000000
,
00100000
00000000
00000000
00000000
00000000
00000000
00000000
00000000
10000000
00000000
00000000
00000000
00000000
00000000
00000000
01000000
00000000
00000000
00000000
00000000
00000000
00000000
00000000
00000000
00010000
00000000
00000000
00000000
00000000
00000000
00010000
00000000
00000000
00000000
00000000
00000000
00001000
00000000
00000000
00000000
00000000
00000000
00000100
00000000
00000000
00000000
00000000
00000000
,
00000010
00000000
00000000
00000000
00000000
00000000
00000000
00000000
00010000
00000000
00000000
00000000
00000000
00000000
00000000
00001000
00000000
00000000
00000000
00000000
00000000
00000000
00000000
00000000
00100000
00000000
00000000
00000000
00000000
00000000
00010000
00000000
00000000
00000000
00000000
00000000
01000000
00000000
00000000
00000000
00000000
00000000
00100000
00000000
00000000
00000000
00000000
00000000
,
00010000
00000000
00001000
00000010
00000000
00000001
00000000
00000100
,
00000010
00000000
00011000
00000000
00000010
00001000
00000100
00000010
,
00001000
00000000
00010000
00100000
00000000
10000000
00000000
01000000
,
00100000
00000000
00011000
00000000
00000100
00000001
00000010
00000001
,
00000100
00000000
00001000
00100000
00000000
00010000
00000000
01000000
,
00100000
00000000
10100000
00000000
01000000
10000000
00100000
10000000
,
01000000
00000000
00010000
00000010
00000000
00001000
00000000
00000100
,
00000010
00000000
00000011
00000000
00000100
00000010
00010000
00001000
,
00100000
00000000
00010000
01000000
00000000
00100000
00000000
10000000
,
01000000
00000000
10010000
00000000
01000000
00100000
00001000
00010000
,
00000010
00000000
00001000
00000100
00000000
00000010
00000000
00000001
,
00000100
00000000
00001001
00000000
00000010
00010000
00001000
01000000
,
00100000
00000000
10000000
01000000
00000000
00100000
00000000
00100000
,
00001000
00000000
00011000
00000000
00100000
00001000
00010000
00000100
,
00000010
00000000
00000001
00000100
00000000
00000010
00000000
00000010
,
00010000
00000000
00011000
00000000
00100000
10000000
01000000
00010000
,
01000000
00000000
10000000
00100000
00000000
01000000
00000000
00010000
,
00100000
00000000
00011000
00000000
00000010
00000001
00000100
00001000
,
00000100
00000000
00000001
00000010
00000000
00000100
00000000
00001000
,
00000010
00000000
00011000
00000000
01000000
00010000
00100000
01000000
,
10000000
00000000
00100000
01000000
00000000
00001000
00000000
00100000
,
00010000
00000000
00011000
00000000
00000100
00001000
00000010
00000100
,
00000001
00000000
00000010
00000100
00000000
00010000
00000000
00000010
,
00001000
00011000
00100000
00010000
,
01000000
00100000
10000000
01000000
,
00100000
00010000
01000000
00100000
00010000
00000000
00001000
00000000
,
00011000
00011000
00000010
00000100
,
00010000
00001000
01000000
00100000
10000000
00000000
01000000
00000000
,
00100000
00010000
01000000
00100000
,
00010000
00001000
00000010
00000001
,
00000100
00000010
00010000
00001000
,
01000000
00000000
00100000
00000000
10000000
01000000
00100000
00010000
,
01000000
00100000
00010000
00001000
00000010
00000100
00001000
00010000
,
01000000
00000000
00000000
00000000
;
