#TITLE:Jump Around;
#SUBTITLE:;
#ARTIST:House of Pain;
#TITLETRANSLIT:;
#SUBTITLETRANSLIT:;
#ARTISTTRANSLIT:;
#CREDIT:Plaguefox (gamecast.org/plaguemix);
#BANNER:jumparound-bn.png;
#BACKGROUND:jumparound-bg.jpg;
#LYRICSPATH:;
#CDTITLE:pm3cd.png;
#MUSIC:jumparound.ogg;
#OFFSET:-0.010;
#SAMPLESTART:17.960;
#SAMPLELENGTH:15.200;
#SELECTABLE:YES;
#BPMS:0.000=107.000,28.000=80.240,31.000=107.000,150.000=80.240;
#STOPS:;
#BGCHANGES:;
// cache tags:
#FIRSTBEAT:11.500;
#LASTBEAT:151.000;
#SONGFILENAME:Songs/plaguemix series/Jump Around/jumparound.sm;
#HASMUSIC:1;
#HASBANNER:1;
#MUSICLENGTH:85.794;
// end cache tags

//---------------dance-single - HEAVY----------------
#NOTES:
     dance-single:
     HEAVY:
     Hard:
     7:
     0.408,0.374,0.501,0.070,0.000,196.000,43.000,6.000,0.000,0.000:
0000
0000
0000
0000
,
0000
0000
0000
0000
,
0000
0000
0000
0000
0000
0000
0000
0100
,
0000
0000
0000
0100
0000
0100
0100
0000
,
0001
0000
1000
0100
0000
0100
0010
0000
,
0001
0000
0010
0100
0000
0100
1000
0000
,
0001
0000
0000
0010
0000
0010
0010
0000
,
2000
0000
0000
0000
0000
0000
3001
0010
,
0001
0100
0001
1000
0010
0100
0001
0010
,
0001
0100
0001
1000
0010
0100
0001
0100
,
0010
1000
0001
0100
0001
0010
0001
0100
,
0010
1000
0001
0100
0001
0010
0010
0100
,
0100
0000
0010
0100
1001
0000
1000
1000
,
0010
0100
0001
0001
1000
0000
1000
0100
,
0011
0000
0001
0010
1100
0000
1000
0010
,
0100
0010
0001
0010
0100
0010
1000
0000
,
1010
0000
0001
0000
0101
0000
1000
1000
,
0010
0000
0100
0100
0001
0000
1000
0100
,
0010
0001
0010
1000
0010
0001
0010
0100
,
1000
0000
0001
0100
0010
1001
0100
0000
,
0101
0000
0100
0000
1100
0000
0001
0100
,
0010
0100
1000
0100
0010
0100
0001
0000
,
0010
0000
0001
0001
1100
0000
0100
0000
,
0010
0000
1000
1000
0101
0000
1000
1000
,
0010
0000
0001
0001
0010
0000
1000
0001
,
0100
0010
1001
0000
0000
0100
2000
0000
,
0000
3100
0010
0100
1000
0010
0200
0000
,
0000
0310
1000
0001
0100
0010
2000
0000
,
0000
3010
0100
0001
1000
0100
0020
0000
,
0000
0031
0100
0010
0000
0110
0000
0110
,
0000
1001
0000
1001
0100
0110
0000
1001
,
0000
0110
0000
0110
0000
0101
0000
0101
,
0000
1010
0000
1010
0100
0011
0000
1100
,
0000
0011
0000
0011
0000
1010
0000
1001
,
0000
1100
0000
1010
0001
0011
0000
1001
,
0000
0101
0000
1001
0000
1100
0000
1001
,
0000
1010
0000
1100
0100
0101
0000
1001
,
0000
0011
0000
1001
0200
0000
0300
0000
;

//---------------dance-single - STANDARD----------------
#NOTES:
     dance-single:
     STANDARD:
     Medium:
     5:
     0.340,0.352,0.443,0.082,0.000,159.000,38.000,7.000,0.000,0.000:






0000
0000
0000
0000
,
0000
0000
0000
0000
,
0000
0000
0000
0000
0000
0000
0000
0100
,
0000
0000
0000
0100
0000
0100
0100
0000
,
1001
0000
0000
1001
0000
0000
0000
0000
,
1000
0001
0100
0000
0000
0000
0000
0000
,
0100
0000
0000
0100
0000
0100
0100
0000
,
2002
0000
3003
1000
,
0100
0000
1000
0000
0001
0100
0001
0000
,
1000
0000
0001
0000
1000
0100
1000
0000
,
0001
0000
0100
0000
0001
1000
0001
0000
,
1000
0000
0100
0000
1000
0001
0100
0000
,
0100
0000
0001
1000
0100
0000
0001
0001
,
0010
0000
0100
0100
1000
0000
1000
0000
,
0010
0000
0100
0000
0001
0000
1000
1000
,
0010
0010
0100
0100
0001
0001
0010
0000
,
1001
0000
0100
0000
1001
0000
1000
0001
,
0100
0000
0001
1000
0100
0000
1000
0001
,
0100
0001
1000
0100
1000
0000
0001
1000
,
0100
1000
0001
0100
0001
0000
0001
0000
,
0100
0000
0010
0000
1000
0000
0001
0001
,
0100
0100
0010
0010
1000
1000
0100
0000
,
1001
0000
0010
0000
1001
0000
0001
1000
,
0010
0000
1000
0001
0010
0000
0001
0001
,
0010
0000
0100
0100
1000
0000
1000
0100
,
0010
0001
0100
0000
0000
0100
0020
0000
,
0000
1030
0000
0000
0000
0100
0020
0000
,
0000
0031
0000
0000
0000
0100
0002
0000
,
0000
1003
0000
0000
0000
0100
2000
0000
,
0000
3001
0000
0000
0000
0100
0000
1001
,
0000
1001
0000
1001
0000
1001
0000
0110
,
0000
0110
0000
0110
0000
0110
0000
1001
,
0000
1001
0000
0110
0000
0110
0000
1001
,
0000
0110
0000
1001
0000
0110
0000
0101
,
0000
0101
0000
0101
0000
0101
0000
1010
,
0000
1010
0000
1010
0000
1010
0000
0101
,
0000
0101
0000
1010
0000
1010
0000
1100
,
0000
0011
0000
1100
0200
0000
0300
0000;

//---------------dance-single - LIGHT----------------
#NOTES:
     dance-single:
     LIGHT:
     Easy:
     3:
     0.230,0.264,0.210,0.117,0.000,110.000,18.000,10.000,0.000,0.000:
0000
0000
0000
0000
,
0000
0000
0000
0000
,
0000
0000
0000
0000
,
0000
0000
0000
0000
,
0100
0000
0000
0000
,
0010
0000
0000
0000
,
0100
0000
0001
0000
,
2000
0000
3000
0020
,
0030
0000
0100
0002
,
0003
0000
0010
2000
,
3000
0000
0010
0002
,
0003
0000
0000
1000
,
0010
0100
0001
1000
,
0100
0010
0001
1000
,
1000
0001
0001
1000
,
0001
1000
0001
0100
,
0100
0010
0010
0100
,
0010
0100
0010
1001
,
0100
1001
0100
1000
,
0010
0100
0010
0001
,
0100
0010
1000
0001
,
0010
0100
1000
0001
,
0001
1000
1000
0001
,
1000
0001
1000
0010
,
0010
0100
0100
0010
,
0100
1001
0000
2000
,
3000
0010
0100
0002
,
0003
0010
0100
2000
,
3000
0010
0100
0002
,
0003
0000
0000
0000
0000
0100
0000
1001
,
0000
0100
0000
1001
0000
0010
0000
1001
,
0000
0010
0000
1001
0000
0100
0000
1001
,
0000
0010
0000
1001
0000
0100
0000
1001
,
0000
0010
0000
1001
0000
0100
0000
0110
,
0000
1000
0000
0110
0000
1000
0000
0110
,
0000
0001
0000
0110
0000
0001
0000
0110
,
0000
1000
0000
0110
0000
0001
0000
0110
,
0000
1000
0000
0010
0200
0000
0300
0000
;
