#TITLE:Brand New Mode;
#SUBTITLE:;
#ARTIST:m1dy;
#TITLETRANSLIT:;
#SUBTITLETRANSLIT:;
#ARTISTTRANSLIT:;
#CREDIT:;
#BANNER:nm1.png;
#BACKGROUND:nm2.png;
#LYRICSPATH:;
#CDTITLE:osx.png;
#MUSIC:Brand New Mode.mp3;
#OFFSET:-0.080;
#SAMPLESTART:190.470;
#SAMPLELENGTH:15.000;
#SELECTABLE:YES;
#BPMS:0.000=156.010;
#STOPS:;
#BGCHANGES:;
// cache tags:
#FIRSTBEAT:12.000;
#LASTBEAT:616.000;
#SONGFILENAME:Songs/toune 2/Brand New Mode/Brand New Mode.sm;
#HASMUSIC:1;
#HASBANNER:1;
#MUSICLENGTH:241.240;
// end cache tags

//---------------dance-single - ----------------
#NOTES:
     dance-single:
     :
     Challenge:
     14:
     1.000,1.000,1.000,0.771,0.763,1299.000,466.000,186.000,0.000,63.000:
0000
0000
0000
0000
,
0000
0000
0000
0000
,
0000
0000
0000
0000
,
1000
0000
0000
0000
0000
0000
0001
0000
0000
1000
0000
0000
0000
0000
0000
0001
0000
0000
1000
0000
0000
0010
0000
0000
1000
0000
0100
0000
0010
0000
0001
0000
0000
1000
0000
0000
0001
0000
0000
0010
0000
0000
0100
0000
0000
1000
0000
0000
,
0101
0000
0010
0000
1001
0000
0100
0010
1001
0000
0110
0000
1001
0000
0010
1000
,
0101
0000
0000
0000
0000
0000
0010
0000
0000
0000
0000
0000
1001
0000
0000
0000
0000
0000
0100
0000
0000
0010
0000
0000
0101
0000
0000
1000
0000
0000
0110
0000
0000
0000
0000
0000
1001
0000
0000
0000
0000
0000
0010
0000
0000
0000
0100
0000
,
1001
0000
0000
0000
0000
0000
0010
0000
0000
0000
1000
0000
0101
0000
0000
0000
0000
0000
0010
0000
0100
0000
1000
0000
0101
0000
0000
0000
0000
0000
0010
0000
0000
0100
0000
0000
1001
0000
0000
0000
0000
0000
1000
0000
0000
0100
0000
0000
,
1001
0000
0010
0100
0101
0000
1000
0000
0000
0001
1000
0000
0010
0000
0000
0010
,
1001
0000
0000
0000
0000
0000
1000
0000
0000
0000
0000
0000
0110
0000
0000
0000
0000
0000
0001
0000
0000
0100
0010
0000
1001
0000
0000
0100
0000
0000
0110
0000
0000
0000
0000
0000
1001
0000
0000
0000
0000
0000
0001
0000
0000
0000
0000
0000
,
1001
0000
0000
0000
0000
0000
0010
0000
0000
0000
0000
0000
0101
0000
0000
0000
0000
0000
1000
0000
0000
0000
0100
0000
0011
0000
0000
0000
0000
0000
1000
0000
0000
0000
0000
0000
0101
0000
0000
0000
0000
0000
1000
0000
0000
0100
0000
0000
,
0011
0000
1000
0010
1100
0000
0010
0001
1010
0000
0100
0000
0011
0000
1000
0100
,
0101
0000
0000
1000
0000
0000
0100
0000
0000
0001
0000
0000
1001
0000
0000
0000
0000
0000
1100
0000
0000
0000
0000
0000
0000
0000
0000
0001
0000
0000
0100
0000
0000
0000
0000
0000
1000
0000
0100
0000
0001
0000
1000
0000
0000
0100
0000
0000
,
1000
0000
0000
0000
0000
0000
0000
1001
,
1001
0000
0000
0000
0000
0000
0000
0110
,
0110
0000
0000
0000
0000
0000
0000
1001
,
1001
0000
0000
0000
0000
0000
0000
1001
,
0111
0000
0000
0000
0000
0000
0000
1001
,
1001
0000
0000
0000
0000
0000
0000
0110
,
0110
0000
0000
0000
0000
0000
0000
1001
,
1001
0000
0000
0000
0000
0000
0000
0000
0000
0000
0000
0000
0100
0000
0000
0000
0000
0000
0000
0000
0000
0000
0000
0000
0010
0000
0000
0000
0000
0000
0000
0000
0000
0000
0000
0000
1001
0000
0000
0000
0000
0000
0000
0000
0000
0000
0000
0000
0100
0000
0000
0000
0000
0000
0000
0000
0000
0000
0000
0000
0010
0000
0000
0000
0000
0000
0000
0000
0000
0000
0000
0000
1001
0000
0000
0000
0000
0000
0000
0000
0000
0000
0000
0000
0000
0000
0000
0000
0000
0000
0000
0000
0000
0000
0000
0000
0000
0000
0000
0000
0000
0000
0000
0000
0000
0000
0000
0000
0010
0000
0000
0000
0000
0000
0100
0000
0000
0000
0000
0000
0000
0000
0000
0000
0000
0000
0000
0000
0000
0000
0000
0000
0000
0000
0000
0000
0000
0000
0000
0000
0000
0000
0000
0000
1000
0000
0000
0000
0000
0000
0000
0000
0100
0000
0000
0000
0000
0000
0000
0000
0001
0000
0000
0000
0000
0000
0000
0000
1000
0000
0000
0000
0000
0000
0000
0000
0000
0000
0000
0000
0001
0000
0000
0000
0000
0000
0000
0000
0000
0000
0000
0000
,
1010
0000
0100
0000
0011
0000
1000
0100
0011
0000
1100
0000
0011
0000
1100
0001
,
1010
0000
0000
0000
0000
0000
0100
0000
0000
0000
0000
0000
0011
0000
0000
0000
0000
0000
1000
0000
0000
0100
0000
0000
1010
0000
0010
0001
0000
0000
1100
0000
0000
0000
0000
0000
0011
0000
0000
0000
0000
0000
1100
0000
0000
0000
1000
0000
,
0011
0000
0000
0000
0000
0000
1100
0000
0000
0000
0001
0000
1010
0000
0000
0000
0000
0000
0110
0000
1000
0000
0001
0000
1010
0000
0000
0000
0000
0000
0101
0000
0000
1000
0000
0000
0011
0000
0000
0000
0000
0000
0101
0000
0000
1000
0000
0000
,
0011
0000
0100
1000
1010
0000
0001
0000
0000
0010
1001
0000
0101
0000
1010
0100
,
0011
0000
0000
0000
0000
0000
0000
0000
0000
0000
0000
0000
0000
0000
0000
0000
0000
0000
0000
0000
0000
0000
0000
0000
0001
0000
0000
0000
0000
0000
0000
0000
0000
0000
0000
0000
0000
0000
0000
0000
0000
0000
0000
0000
0000
0000
0000
0000
1100
0000
0000
0000
0000
0000
0000
0000
0000
0000
0000
0000
0000
0000
0000
0000
0000
0000
0000
0000
0000
0000
0000
0000
0010
0000
0000
0000
0000
0000
0000
0000
0000
0000
0000
0000
1000
0000
0000
0000
0100
0000
0000
0000
0000
0000
0000
0000
0011
0000
0000
0000
0000
0000
0100
0000
0000
0000
0000
0000
1000
0000
0000
0000
0000
0000
0000
0000
0000
0000
0000
0000
1100
0000
0000
0000
0000
0000
0000
0000
0000
0000
0000
0000
0000
0000
0000
0000
0000
0000
0000
0000
0000
0000
0000
0000
0011
0000
0000
0000
0000
0000
0000
0000
0000
0000
0000
0000
0000
0000
0000
0000
0000
0000
0000
0000
0000
0000
0000
0000
1010
0000
0000
0000
0000
0000
0000
0000
0000
0000
0000
0000
0000
0000
0000
0000
0000
0000
0000
0000
0000
0000
0000
0000
,
0011
0000
0000
0000
0000
0000
0100
0000
0000
0000
0000
0000
1010
0000
0000
0000
0000
0000
0001
0000
0000
0000
1000
0000
0110
0000
0000
0000
0000
0000
0001
0000
0000
0000
0000
0000
1010
0000
0000
0000
0000
0000
0011
0000
0000
1100
0000
0000
,
0110
0000
0001
0100
1001
0000
0100
0010
0101
0000
1001
0000
0110
0000
0101
1000
,
1010
0000
0000
0001
0000
0000
1000
0000
0000
0010
0000
0000
0011
0000
0000
0000
0000
0000
1001
0000
0000
0000
0000
0000
0000
0000
0000
0010
0000
0000
1000
0000
0000
0000
0000
0000
0001
0000
1000
0000
0010
0000
0001
0000
0000
1000
0000
0000
,
0110
0000
1000
0000
0110
0000
0001
1000
0110
0000
1001
0000
0110
0000
1001
0010
,
0101
0000
0000
0000
0000
0000
1000
0000
0000
0000
0000
0000
0110
0000
0000
0000
0000
0000
0001
0000
0000
1000
0000
0000
0101
0000
0100
0010
0000
0000
1001
0000
0000
0000
0000
0000
0110
0000
0000
0000
0000
0000
1001
0000
0000
0000
0001
0000
,
0110
0000
0000
0000
0000
0000
1001
0000
0000
0000
0010
0000
0101
0000
0000
0000
0000
0000
1100
0000
0001
0000
0010
0000
0101
0000
0000
0000
0000
0000
1010
0000
0000
0001
0000
0000
0110
0000
0000
0000
0000
0000
1010
0000
0000
0001
0000
0000
,
0110
0000
1000
0001
0101
0000
0010
0000
1001
0100
0011
0000
1010
0000
0101
1000
,
0110
0000
0000
0000
0000
0000
0000
0000
0000
0000
0000
0000
0000
0000
0000
0000
0000
0000
0000
0000
0000
0000
0000
0000
0010
0000
0000
0000
0000
0000
0000
0000
0000
0000
0000
0000
0000
0000
0000
0000
0000
0000
0000
0000
0000
0000
0000
0000
1001
0000
0000
0000
0000
0000
0000
0000
0000
0000
0000
0000
0000
0000
0000
0000
0000
0000
0000
0000
0000
0000
0000
0000
0100
0000
0000
0000
0000
0000
0000
0000
0000
0000
0000
0000
0001
0000
0000
0000
1000
0000
0000
0000
0000
0000
0000
0000
0110
0000
0000
0000
0000
0000
1000
0000
0000
0000
0000
0000
0001
0000
0000
0000
0000
0000
0000
0000
0000
0000
0000
0000
1001
0000
0000
0000
0000
0000
0000
0000
0000
0000
0000
0000
0000
0000
0000
0000
0000
0000
0000
0000
0000
0000
0000
0000
0110
0000
0000
0000
0000
0000
0000
0000
0000
0000
0000
0000
0000
0000
0000
0000
0000
0000
0000
0000
0000
0000
0000
0000
0101
0000
0000
0000
0000
0000
0000
0000
0000
0000
0000
0000
0000
0000
0000
0000
0000
0000
0000
0000
0000
0000
0000
0000
,
0110
0000
0000
0000
0000
0000
1000
0000
0000
0000
0000
0000
0101
0000
0000
0000
0000
0000
0010
0000
0000
0000
0001
0000
1100
0000
0000
0000
0000
0000
1010
0000
0000
0000
0000
0000
0101
0000
0000
0000
0000
0000
0110
0000
0000
1001
0000
0000
,
1100
0000
0010
1000
0011
0000
1000
0100
1010
0000
0011
0000
1100
0000
1010
0001
,
0101
0010
0001
0100
0110
0000
0011
0000
0001
0100
0001
0010
0100
1000
0010
0001
,
0010
0100
0000
0010
0100
0000
0100
0010
0000
0100
0110
0000
0100
0000
0100
0000
,
1000
0000
0010
0000
0001
0000
0010
0000
1000
0001
0220
0000
0000
0000
0000
0330
,
1001
0000
0000
0000
0000
0010
0100
0010
,
0000
0000
0001
1000
0000
0001
0000
0010
,
0000
0000
0000
0000
0000
1000
0100
0010
,
0000
0000
0000
1001
0000
0100
0101
0000
,
0110
0000
0010
0001
1000
0100
0010
1000
,
0010
0000
0001
1000
0000
0100
0010
0001
,
0000
0000
0000
0110
0000
0000
0000
0000
,
1100
0101
0110
0110
0000
1001
0000
0000
,
0110
0000
1000
0101
0000
0010
0100
0010
,
0000
0000
0001
1000
0000
0100
0000
0010
,
0000
0000
0000
0000
0000
1000
0001
0010
,
0000
0000
0010
0100
0000
1000
0001
0000
,
1100
0010
0001
0010
0100
1000
0001
0100
,
0001
0010
0000
0100
0000
1000
0000
0100
,
0000
0010
0001
0000
0000
0000
0000
0000
,
1000
0000
0001
0000
0000
0000
0010
0000
0100
0000
0000
0000
0110
0000
0100
0000
0000
0000
0010
0000
0001
0000
0000
0000
1000
0000
0000
0000
1000
0000
0001
1000
,
1001
0000
0010
0000
1001
0000
0001
1000
1100
0000
1100
0000
1100
0000
0010
1000
,
0110
0000
0000
0000
0000
0000
0001
0000
0000
0000
0000
0000
0011
0000
0000
0000
0000
0000
0010
0000
0000
0100
0000
0000
0101
0000
0000
0001
0000
0000
1001
0000
0000
0000
0000
0000
1001
0000
0000
0000
0000
0000
1000
0000
0000
0000
1000
0000
,
0110
0000
0000
0000
0000
0000
1000
0000
0000
0000
0010
0000
1001
0000
0000
0000
0000
0000
0010
0000
0001
0000
0010
0000
0011
0000
0000
0000
0000
0000
0010
0000
0000
0001
0000
0000
0101
0000
0000
0000
0000
0000
1010
0000
0000
0001
0000
0000
,
1001
0000
0100
0001
0101
0000
0001
0000
0000
0001
1000
0000
0010
0000
0000
0001
,
1010
0000
0000
0000
0000
0000
1000
0000
0000
0000
0000
0000
0101
0000
0000
0000
0000
0000
1000
0000
0000
0100
0001
0000
0011
0000
0000
0100
0000
0000
0011
0000
0000
0000
0000
0000
1001
0000
0000
0000
0000
0000
1000
0000
0000
0000
0000
0000
,
1100
0000
0000
0000
0000
0000
0010
0000
0000
0000
0000
0000
1100
0000
0000
0000
0000
0000
0010
0000
0000
0000
0100
0000
0011
0000
0000
0000
0000
0000
0100
0000
0000
0000
0000
0000
0110
0000
0000
0000
0000
0000
1000
0000
0000
0001
0000
0000
,
1100
0000
0001
1000
0011
0000
1000
0100
0101
0000
0010
0000
0101
0000
0010
0001
,
1001
0000
0000
1000
0000
0000
0100
0000
0000
1000
0000
0000
0011
0000
0000
0000
0000
0000
1100
0000
0000
0000
0000
0000
0000
0000
0000
1000
0000
0000
0010
0000
0000
0000
0000
0000
0010
0000
0100
0000
1000
0000
0010
0000
0000
0010
0000
0000
,
2000
0000
0000
0000
0000
3200
0320
0032
,
0000
0000
0000
0000
0000
0000
0000
0000
0000
0000
0000
0000
0000
0000
0000
0000
0000
0000
0000
0000
0000
0000
0000
0000
0003
0000
0000
1000
0000
0000
0001
0000
0000
0000
0000
0000
1000
0000
0001
0000
0100
0000
1000
0000
0000
0001
0000
0000
,
0101
0000
0001
0000
0110
0000
1000
0100
1100
0000
1010
0000
0101
0000
0110
0100
,
1100
0000
0000
0000
0000
0000
0010
0000
0000
0000
0000
0000
1010
0000
0000
0000
0000
0000
1000
0000
0000
0001
0000
0000
1001
0000
0100
1000
0000
0000
0110
0000
0000
0000
0000
0000
1010
0000
0000
0000
0000
0000
0101
0000
0000
0000
0100
0000
,
1001
0000
0000
0000
0000
0000
1010
0000
0000
0000
0010
0000
1010
0000
0000
0000
0000
0000
1010
0000
1000
0000
0100
0000
0101
0000
0000
0000
0000
0000
1100
0000
0000
1000
0000
0000
0011
0000
0000
0000
0000
0000
0101
0000
0000
0010
0000
0000
,
0011
0000
0001
0001
0110
0000
0001
0000
0000
1000
0110
0000
1100
0000
1010
1000
,
1100
0000
0000
0000
0000
0000
0000
0000
0000
0000
0000
0000
0000
0000
0000
0000
0000
0000
0000
0000
0000
0000
0000
0000
0001
0000
0000
0000
0000
0000
0000
0000
0000
0000
0000
0000
0000
0000
0000
0000
0000
0000
0000
0000
0000
0000
0000
0000
0011
0000
0000
0000
0000
0000
0000
0000
0000
0000
0000
0000
0000
0000
0000
0000
0000
0000
0000
0000
0000
0000
0000
0000
0010
0000
0000
0000
0000
0000
0000
0000
0000
0000
0000
0000
0010
0000
0000
0000
0100
0000
0000
0000
0000
0000
0000
0000
0110
0000
0000
0000
0000
0000
0100
0000
0000
0000
0000
0000
0010
0000
0000
0000
0000
0000
0000
0000
0000
0000
0000
0000
1010
0000
0000
0000
0000
0000
0000
0000
0000
0000
0000
0000
0000
0000
0000
0000
0000
0000
0000
0000
0000
0000
0000
0000
0101
0000
0000
0000
0000
0000
0000
0000
0000
0000
0000
0000
0000
0000
0000
0000
0000
0000
0000
0000
0000
0000
0000
0000
1010
0000
0000
0000
0000
0000
0000
0000
0000
0000
0000
0000
0000
0000
0000
0000
0000
0000
0000
0000
0000
0000
0000
0000
,
1001
0000
0000
0000
0000
0000
1000
0000
0000
0000
0000
0000
1100
0000
0000
0000
0000
0000
0100
0000
0000
0000
0001
0000
1100
0000
0000
0000
0000
0000
0001
0000
0000
0000
0000
0000
1010
0000
0000
0000
0000
0000
1001
0000
0000
0011
0000
0000
,
1100
0000
0100
0100
0101
0000
0010
1000
1001
0000
1100
0000
1100
0000
1100
1000
,
0110
0000
0000
0010
0000
0000
1000
0000
0000
1000
0000
0000
1001
0000
0000
0000
0000
0000
0011
0000
0000
0000
0000
0000
0000
0000
0000
1000
0000
0000
0100
0000
0000
0000
0000
0000
0100
0000
0010
0000
1000
0000
1000
0000
0000
0100
0000
0000
,
1010
0000
1000
0000
0101
0000
0001
0100
1001
0000
0110
0000
1100
0000
1010
0100
,
0110
0000
0000
0000
0000
0000
1000
0000
0000
0000
0000
0000
1001
0000
0000
0000
0000
0000
0001
0000
0000
0100
0000
0000
0101
0000
1000
0001
0000
0000
1001
0000
0000
0000
0000
0000
0011
0000
0000
0000
0000
0000
1100
0000
0000
0000
1000
0000
,
1010
0000
0000
0000
0000
0000
0101
0000
0000
0000
0100
0000
0011
0000
0000
0000
0000
0000
0101
0000
0010
0000
1000
0000
0110
0000
0000
0000
0000
0000
1010
0000
0000
1000
0000
0000
1001
0000
0000
0000
0000
0000
0110
0000
0000
1000
0000
0000
,
0011
0000
0100
0010
0101
0000
0100
0000
0011
1000
0011
0000
1010
0000
0011
0001
,
0110
0000
0000
0000
0000
0000
0000
0000
0000
0000
0000
0000
0000
0000
0000
0000
0000
0000
0000
0000
0000
0000
0000
0000
0001
0000
0000
0000
0000
0000
0000
0000
0000
0000
0000
0000
0000
0000
0000
0000
0000
0000
0000
0000
0000
0000
0000
0000
0011
0000
0000
0000
0000
0000
0000
0000
0000
0000
0000
0000
0000
0000
0000
0000
0000
0000
0000
0000
0000
0000
0000
0000
0010
0000
0000
0000
0000
0000
0000
0000
0000
0000
0000
0000
0001
0000
0000
0000
0001
0000
0000
0000
0000
0000
0000
0000
0110
0000
0000
0000
0000
0000
1000
0000
0000
0000
0000
0000
0001
0000
0000
0000
0000
0000
0000
0000
0000
0000
0000
0000
1001
0000
0000
0000
0000
0000
0000
0000
0000
0000
0000
0000
0000
0000
0000
0000
0000
0000
0000
0000
0000
0000
0000
0000
0101
0000
0000
0000
0000
0000
0000
0000
0000
0000
0000
0000
0000
0000
0000
0000
0000
0000
0000
0000
0000
0000
0000
0000
1100
0000
0000
0000
0000
0000
0000
0000
0000
0000
0000
0000
0000
0000
0000
0000
0000
0000
0000
0000
0000
0000
0000
0000
,
0110
0000
0000
0000
0000
0000
0010
0000
0000
0000
0000
0000
1010
0000
0000
0000
0000
0000
0001
0000
0000
0000
0001
0000
0110
0000
0000
0000
0000
0000
0101
0000
0000
0000
0000
0000
1001
0000
0000
0000
0000
0000
1010
0000
0000
1100
0000
0000
,
1001
0000
0001
0010
0101
0000
0100
0001
1010
0000
0110
0000
1001
0000
0101
0001
,
1010
0010
1000
0001
0101
0000
1100
0000
0010
0100
0010
0100
1000
0010
1000
0001
,
0001
0100
0000
0010
0100
0000
0001
0100
0000
1000
1001
0000
0001
0000
0100
0000
,
0001
0000
1000
0000
0100
0000
0010
0000
0100
0010
2200
0000
0000
0000
0000
3300
,
1001
0000
0000
0000
0000
0100
1000
0100
,
0000
0000
0001
0010
0000
1000
0000
0001
,
0000
0000
0000
0000
0000
0010
1000
0100
,
0000
0000
0000
0101
0000
0001
1010
0000
,
0011
0000
0010
1000
0001
1000
0100
0010
,
1000
0000
0100
0010
0000
0010
0001
0100
,
0000
0000
0000
0101
0000
0000
0000
0000
,
0110
1100
1001
1001
0000
0011
0000
0000
,
1100
0000
0001
0110
0000
0010
1000
1000
,
0000
0000
0100
1000
0000
1000
0000
0010
,
0000
0000
0000
0000
0000
0001
1000
0001
,
0000
0000
0100
0001
0000
0100
1000
0000
,
1010
1000
0100
0100
0100
0001
1000
1000
,
0100
1000
0000
0100
0000
0010
0000
1000
,
0000
1000
1000
0000
0000
0000
0000
0000
,
0010
0000
1000
0000
0000
0000
0001
0000
0100
0000
0000
0000
0101
0000
0100
0000
0000
0000
0010
0000
1000
0000
0000
0000
0100
0000
0000
0000
0010
0000
0010
1000
,
0101
0000
0001
0000
1001
0000
0010
0001
1010
0000
1010
0000
0110
0000
0001
0100
,
1001
0000
0000
0000
0000
0000
1000
0000
0000
0000
0000
0000
0101
0000
0000
0000
0000
0000
0010
0000
0000
0001
0000
0000
1010
0000
0000
1000
0000
0000
1010
0000
0000
0000
0000
0000
0011
0000
0000
0000
0000
0000
0001
0000
0000
0000
0001
0000
,
1100
0000
0000
0000
0000
0000
0001
0000
0000
0000
0010
0000
0011
0000
0000
0000
0000
0000
1000
0000
0001
0000
0010
0000
1010
0000
0000
0000
0000
0000
0001
0000
0000
0001
0000
0000
1010
0000
0000
0000
0000
0000
0011
0000
0000
0010
0000
0000
,
1100
0000
0010
0001
1001
0000
1000
0000
0000
0100
0001
0000
0100
0000
0000
0100
,
0110
0000
0000
0000
0000
0000
1000
0000
0000
0000
0000
0000
1010
0000
0000
0000
0000
0000
1000
0000
0000
0100
0100
0000
1100
0000
0000
0010
0000
0000
0110
0000
0000
0000
0000
0000
1100
0000
0000
0000
0000
0000
0010
0000
0000
0000
0000
0000
,
0101
0000
0000
0000
0000
0000
0010
0000
0000
0000
0000
0000
1010
0000
0000
0000
0000
0000
0010
0000
0000
0000
0100
0000
0011
0000
0000
0000
0000
0000
0100
0000
0000
0000
0000
0000
1001
0000
0000
0000
0000
0000
0001
0000
0000
0100
0000
0000
,
0110
0000
0001
1000
1100
0000
0100
1000
1100
0000
0001
0000
0011
0000
0100
0001
,
0101
0000
0000
1000
0000
0000
0001
0000
0000
1000
0000
0000
0110
0000
0000
0000
0000
0000
1001
0000
0000
0000
0000
0000
0000
0000
0000
1000
0000
0000
0100
0000
0000
0000
0000
0000
0100
0000
0010
0000
1000
0000
0010
0000
0000
1000
0000
0000
,
0002
0000
0000
2003
0000
0000
3020
0000
,
2032
3203
0320
0232
2303
3002
0223
2330
3022
2033
3220
0330
0022
2033
3220
0332
,
2203
3320
0230
2320
3032
2003
3220
0332
2023
3032
0223
0332
0223
2330
3220
2330
,
3220
0332
2003
3022
0233
0320
2032
3203
2320
3230
2302
3023
0232
2303
3202
0323
,
2030
0000
0000
0000
0000
0000
0000
0000
0000
0000
0000
0000
0000
0000
0000
0000
3200
0000
0000
0000
0000
0000
0000
0000
0000
0000
0000
0000
0000
0000
0000
0000
0302
0000
0000
0000
0000
0000
0000
0000
0000
0000
0000
0000
0000
0000
0000
0000
0023
0000
0000
0000
0000
0000
0000
0000
0000
0000
0000
0000
0000
0000
0000
0000
0230
0000
0000
0000
0000
0000
0000
0000
0000
0000
0000
0000
0000
0000
0000
0000
0302
0000
0000
0000
0000
0000
0000
0000
0000
0000
0000
0000
0000
0000
0000
0000
2003
0000
0000
0000
0000
0000
3200
0000
0000
0000
0000
0000
0302
0000
0000
0000
0000
0000
0023
0000
0000
0000
0000
0000
0230
0000
0000
0000
0000
0000
2300
0000
0000
0000
0000
0000
3200
0000
0000
0000
0000
0000
0302
0000
0000
0000
0000
0000
0023
0000
0000
0000
0000
0000
0000
0000
0000
0000
0000
0000
0000
0000
0000
0000
0000
0000
0000
0000
0000
0000
0000
0000
2030
0000
0000
0000
0000
0000
0000
0000
0000
0000
0000
0000
0000
0000
0000
0000
0000
0000
0000
0000
0000
0000
0000
0000
,
3002
0000
0203
0302
0023
0030
2000
0000
3002
2003
3200
0320
0032
2003
3002
0203
,
0302
0000
0000
0023
0230
0302
2003
0000
0000
3002
0203
0302
0023
0000
0000
0000
,
2030
0000
0000
0000
3200
0000
0000
0000
0320
0000
0000
0000
0032
0000
0000
0000
0023
0000
0230
0000
0000
0000
0000
0000
2300
0000
0000
0000
0000
0000
3200
0000
0000
0000
0000
0000
2300
0000
3200
0000
0302
0000
2003
0000
0000
3002
0000
0000
,
2023
3230
2300
3220
2330
3200
2302
3203
,
2320
3032
0023
2032
3023
0032
2023
3032
,
2023
3230
0320
0232
0323
0230
0322
2033
,
3022
0000
0000
0233
0000
0000
0320
0000
0000
2032
0000
0000
3023
0000
0000
0230
0320
0230
2300
3020
0230
2300
3020
2030
,
3200
0000
0000
0000
0000
0000
0320
0230
0320
0000
0032
0000
2003
0000
3002
0000
,
0000
0000
0000
0000
0000
0000
0000
0000
0000
0000
0000
0000
0000
0000
0000
0000
0000
0000
0000
0000
0000
0000
0000
0000
0000
0000
0000
0000
0000
0000
0000
0000
0000
0000
0000
0000
0103
0000
0001
0000
0010
0000
0100
0000
0000
1000
0000
0000
,
0001
0000
0000
0000
0100
0010
0001
1000
,
0000
0000
0000
0000
0101
1000
0100
0010
,
0110
0000
1000
0000
0001
0100
0001
0010
,
0100
0000
0000
0000
0110
1000
0001
0100
,
0110
0010
0001
0100
0000
0100
0001
0010
,
0100
0000
0010
0000
1000
0000
0110
0000
0000
0000
1000
0000
0001
0000
0101
0010
,
0110
1000
0100
0010
0001
0010
0100
0010
,
1000
0000
0001
0000
0010
0000
1000
0000
0000
0001
0000
0000
0100
0000
0000
0010
0000
0000
1000
0000
0000
0000
0000
0000
1000
0000
0000
0000
0000
0000
0001
0000
0000
0000
0000
0000
0010
0000
0000
0000
0000
0000
0100
0000
0000
0000
0000
0000
,
0110
0000
0000
0000
1001
0000
0000
0101
,
0000
0000
0000
0000
0000
0000
0001
0010
,
0100
0010
0001
1000
0100
0010
0100
0010
,
0000
0000
0000
0000
,
1100
0000
0000
0000
0010
0000
0000
1100
,
0000
0000
0000
0000
0000
0000
1000
0000
0001
0000
0000
0000
0010
0000
0001
1000
,
0100
0000
0000
0000
1000
0001
0100
0001
,
0010
0000
0000
1000
0000
0000
0001
0000
0000
0010
0000
0000
1000
0000
0000
0000
0000
0000
0100
0000
0000
0000
0000
0000
0000
0000
0000
0010
0000
0000
0001
0000
0000
0000
0000
0000
1000
0000
0001
0000
0010
0000
1000
0000
0000
0001
0000
0000
,
1001
0000
0010
0000
1001
0000
1000
0100
0101
0000
1001
0000
1010
0000
0101
0100
,
1001
0000
0000
0000
0000
0000
1000
0000
0000
0000
0000
0000
1001
0000
0000
0000
0000
0000
0100
0000
0000
0010
0000
0000
0101
0000
1000
0010
0000
0000
1001
0000
0000
0000
0000
0000
0110
0000
0000
0000
0000
0000
0101
0000
0000
0000
0010
0000
,
0110
0000
0000
0000
0000
0000
0110
0000
0000
0000
1000
0000
0110
0000
0000
0000
0000
0000
0101
0000
0001
0000
0100
0000
0101
0000
0000
0000
0000
0000
0011
0000
0000
0010
0000
0000
1100
0000
0000
0000
0000
0000
1100
0000
0000
0100
0000
0000
,
1100
0000
1000
0100
1001
0000
0100
0000
0000
1000
0101
0000
0011
0000
1001
0100
,
1001
0000
0000
0000
0000
0000
0000
0000
0000
0000
0000
0000
0000
0000
0000
0000
0000
0000
0000
0000
0000
0000
0000
0000
0100
0000
0000
0000
0000
0000
0000
0000
0000
0000
0000
0000
0000
0000
0000
0000
0000
0000
0000
0000
0000
0000
0000
0000
0101
0000
0000
0000
0000
0000
0000
0000
0000
0000
0000
0000
0000
0000
0000
0000
0000
0000
0000
0000
0000
0000
0000
0000
0010
0000
0000
0000
0000
0000
0000
0000
0000
0000
0000
0000
0010
0000
0000
0000
0001
0000
0000
0000
0000
0000
0000
0000
1001
0000
0000
0000
0000
0000
1000
0000
0000
0000
0000
0000
0010
0000
0000
0000
0000
0000
0000
0000
0000
0000
0000
0000
0110
0000
0000
0000
0000
0000
0000
0000
0000
0000
0000
0000
0000
0000
0000
0000
0000
0000
0000
0000
0000
0000
0000
0000
0101
0000
0000
0000
0000
0000
0000
0000
0000
0000
0000
0000
0000
0000
0000
0000
0000
0000
0000
0000
0000
0000
0000
0000
1100
0000
0000
0000
0000
0000
0000
0000
0000
0000
0000
0000
0000
0000
0000
0000
0000
0000
0000
0000
0000
0000
0000
0000
,
1100
0000
0000
0000
0000
0000
0010
0000
0000
0000
0000
0000
0110
0000
0000
0000
0000
0000
0001
0000
0000
0000
0010
0000
0110
0000
0000
0000
0000
0000
1000
0000
0000
0000
0000
0000
0011
0000
0000
0000
0000
0000
0101
0000
0000
0110
0000
0000
,
0110
0000
0001
0001
1100
0000
0001
1000
0101
0000
0101
0000
0101
0000
0011
0001
,
0101
0100
0001
0001
1010
0000
0011
0000
0000
0100
1000
0000
0001
0000
0000
0100
,
1010
0000
0100
0000
1010
0000
1000
0100
0110
0000
0110
0000
0011
0000
0110
0100
,
1001
0000
0000
0000
0000
0000
1000
0000
0000
0000
0000
0000
0110
0000
0000
0000
0000
0000
0001
0000
0000
0100
0000
0000
0101
0000
0100
0010
0000
0000
1100
0000
0000
0000
0000
0000
0011
0000
0000
0000
0000
0000
1100
0000
0000
0000
1000
0000
,
1001
0000
0000
0000
0000
0000
1001
0000
0000
0000
0100
0000
0101
0000
0000
0000
0000
0000
0101
0000
0100
0000
1000
0000
1100
0000
0000
0000
0000
0000
1001
0000
0000
0100
0000
0000
1010
0000
0000
0000
0000
0000
1010
0000
0000
0000
0000
0000
,
0110
0000
0001
0100
1001
0000
0010
0000
0011
0100
0110
0000
1100
0000
1010
0100
,
0110
0000
0000
0000
0000
0000
0000
0000
0000
0000
0000
0000
0000
0000
0000
0000
0000
0000
0000
0000
0000
0000
0000
0000
0010
0000
0000
0000
0000
0000
0000
0000
0000
0000
0000
0000
0000
0000
0000
0000
0000
0000
0000
0000
0000
0000
0000
0000
1001
0000
0000
0000
0000
0000
0000
0000
0000
0000
0000
0000
0000
0000
0000
0000
0000
0000
0000
0000
0000
0000
0000
0000
0001
0000
0000
0000
0000
0000
0000
0000
0000
0000
0000
0000
0001
0000
0000
0000
0001
0000
0000
0000
0000
0000
0000
0000
1010
0000
0000
0000
0000
0000
0001
0000
0000
0000
0000
0000
1000
0000
0000
0000
0000
0000
0000
0000
0000
0000
0000
0000
1010
0000
0000
0000
0000
0000
0000
0000
0000
0000
0000
0000
0000
0000
0000
0000
0000
0000
0000
0000
0000
0000
0000
0000
1100
0000
0000
0000
0000
0000
0000
0000
0000
0000
0000
0000
0000
0000
0000
0000
0010
0000
0000
0000
0000
0000
0000
0000
1001
0000
0000
0000
0000
0000
0000
0000
0000
0000
0000
0000
0000
0000
0000
0000
0100
0000
0000
0000
0000
0000
0000
0000
,
0011
0000
0000
0000
0000
0000
0010
0000
0000
0000
0000
0000
1001
0000
0000
0000
0000
0000
0001
0000
0000
0000
0100
0000
1010
0000
0000
0000
0000
0000
0101
0000
0000
0000
0000
0000
1000
0000
0001
0000
1000
0000
0010
0000
0000
1000
0000
0000
,
1001
0000
0000
0000
,
0110
0000
0000
0000
,
0101
0000
0000
0000
,
1001
0000
0000
0000
0000
0000
0000
0000
0000
0000
0000
0000
0100
0000
0000
0000
0000
0000
0000
0000
0000
0000
0000
0000
0010
0000
0000
0000
0000
0000
0000
0000
0000
0000
0000
0000
1001
0000
0000
0000
0000
0000
0000
0000
0000
0000
0000
0000
0100
0000
0000
0000
0000
0000
0000
0000
0000
0000
0000
0000
0010
0000
0000
0000
0000
0000
0000
0000
0000
0000
0000
0000
1001
0000
0000
0000
0000
0000
0000
0000
0000
0000
0000
0000
0000
0000
0000
0000
0000
0000
0000
0000
0000
0000
0000
0000
0010
0000
0000
0000
0000
0000
0000
0000
1000
0000
0000
0000
0000
0000
0000
0000
0001
0000
0000
0000
0000
0000
0000
0000
0100
0000
0000
0000
0000
0000
0000
0000
0000
0000
0000
0000
0010
0000
0000
0000
0000
0000
0000
0000
0000
0000
0000
0000
1000
0000
0000
0000
0000
0000
0000
0000
0000
0000
0000
0000
0100
0000
0000
0000
0000
0000
0000
0000
0000
0000
0000
0000
0001
0000
0000
0000
0000
0000
0000
0000
0000
0000
0000
0000
0100
0000
0000
0000
0000
0000
1000
0000
0000
0000
0000
0000
,
0010
0000
0000
0000
;
