#TITLE:Go!Go!Broadapeal;
#SUBTITLE:;
#ARTIST:DJ Sharpnel;
#TITLETRANSLIT:;
#SUBTITLETRANSLIT:;
#ARTISTTRANSLIT:;
#CREDIT:;
#BANNER:broadapeal-bn.png;
#BACKGROUND:broadapeal-bg.png;
#LYRICSPATH:;
#CDTITLE:;
#MUSIC:Go!Go!Broadapeal.mp3;
#OFFSET:-3.840;
#SAMPLESTART:74.447;
#SAMPLELENGTH:12.000;
#SELECTABLE:YES;
#BPMS:0.000=190.070,665.000=380.249,711.000=760.483,743.000=190.070;
#STOPS:;
#BGCHANGES:;
// cache tags:
#FIRSTBEAT:0.000;
#LASTBEAT:751.500;
#SONGFILENAME:Songs/Ace Megapack/Go!Go!Broadapeal/gogobroadapeal.sm;
#HASMUSIC:1;
#HASBANNER:1;
#MUSICLENGTH:227.029;
// end cache tags

//---------------dance-single - ----------------
#NOTES:
     dance-single:
     :
     Hard:
     10:
     0.866,0.828,0.705,0.018,0.095,1213.000,160.000,4.000,0.000,0.000:
1001
0000
0100
0010
1000
0100
0010
0001
,
1000
0001
0100
0001
1001
0000
1100
0000
,
1000
0000
0100
0010
0001
1000
0010
0100
,
0001
1000
0100
1000
1001
0000
0011
0000
,
1000
0000
1000
0100
0010
0001
1000
0010
,
0100
0010
0100
0010
0011
0000
1010
0000
,
1000
0000
1000
0001
0100
0001
1000
0100
,
0001
0100
1000
0001
0101
0000
1001
0000
,
1100
0000
0010
0100
1000
0010
0100
0001
,
1000
0100
1000
0001
0011
0000
1010
0000
,
1000
0000
0010
0001
1000
0100
0000
0100
,
1000
0100
0001
0100
1100
0000
0110
0000
,
1000
0000
1000
0100
0001
1100
0010
0001
,
0010
0100
1000
0010
0110
0000
0011
0000
,
1000
0000
1000
0100
0010
0001
1000
0001
,
0101
1100
1010
0011
,
0101
0000
1001
0100
0010
0001
1000
0010
,
0100
0001
1000
0100
1001
0001
0101
0000
,
1100
0000
1010
0010
0100
0001
0010
0100
,
1000
0001
0100
0001
1001
0100
1100
0000
,
1000
0000
1000
0001
0100
0100
0010
0001
,
1000
0001
0100
0010
1010
0001
0011
0000
,
1100
0000
1000
0010
0100
0001
0010
0100
,
1100
0101
0011
1100
,
0101
0000
1000
0100
0010
0001
1000
0010
,
0100
0001
0010
0001
1001
0001
0100
0000
,
1100
0000
1000
0010
0100
0001
0010
0100
,
1000
0010
0100
0001
0011
0001
1000
0000
,
1000
0000
0100
0010
1000
0100
0010
0001
,
1000
0001
0100
0001
1001
0100
1000
0000
,
1100
0000
1100
0100
0010
0001
1000
0001
,
1001
0110
1001
1001
,
1000
0100
0010
0001
1000
0010
0100
0001
,
1000
0000
1000
0001
1000
0000
1100
0000
,
1000
0001
0100
0010
1000
0100
0010
0001
,
1000
0000
1000
0001
0101
0000
1001
0000
,
1000
0100
0010
0001
1000
0100
0010
0001
,
1000
0000
1000
0010
0110
0000
1010
0000
,
1000
0100
0001
0100
1000
0010
0001
0010
,
0110
1000
1010
0001
,
0010
0100
1000
0010
0100
0001
0010
0100
,
1000
0001
0100
0001
1100
0000
1100
0000
,
1000
0010
0100
0001
0010
0001
0010
0001
,
0100
0001
0010
0001
1001
0000
1100
0000
,
1000
0010
1000
0100
1000
0010
1000
0100
,
1000
0001
0010
0001
1001
0000
1100
0000
,
1000
0001
0001
0100
1000
0010
1000
0010
,
1100
0000
1000
0001
0100
0000
1001
0000
,
1000
0100
0010
0001
1000
0010
0100
0001
,
0010
0100
1000
0001
0100
0001
0100
0001
,
0010
0100
1000
0100
0010
0100
1000
0100
,
0001
0100
1000
0010
0001
0010
0100
0010
,
1000
0010
0100
0010
0001
0010
1000
0100
,
0001
0100
1000
0010
0001
0010
1000
0100
,
0001
0100
1000
0010
0001
0010
1000
0100
,
0001
0100
1000
0001
2002
0000
0000
3003
,
1000
0000
0100
0000
0010
0001
1000
0000
0001
0000
0100
0000
0001
0000
1000
0000
,
0100
0000
1000
0100
1000
0000
0001
0000
0100
0000
0001
0000
1001
0000
0000
0000
,
1000
0000
0100
0000
1000
0100
1000
0000
0010
0000
0100
0000
0001
0000
0010
0000
,
0100
0000
1000
0100
1000
0000
0001
0000
0100
0000
0000
0000
1001
0000
0000
0000
,
1000
0000
0100
0000
1000
0010
1000
0000
0010
0000
0100
0000
0001
0000
0010
0000
,
0100
0000
1000
0100
1000
0000
0001
0000
0100
0000
0001
0000
1001
0000
0000
0000
,
1000
0000
0100
0000
1000
0100
1000
0000
0010
0000
0100
0000
0001
0000
0010
0000
,
1100
0101
0011
1100
,
1000
0000
1000
0001
0101
1000
0100
1000
,
0010
0000
0100
0000
0001
0000
0010
0000
0100
1000
0100
1000
0001
0000
0000
0000
,
0100
0001
1000
0100
1100
1000
0001
0100
,
0001
0000
0010
0000
0100
0000
1000
0000
0100
1000
0100
0000
1001
0000
0000
0000
,
0001
0000
0100
0000
0001
1000
0001
0000
1000
0000
0100
0000
1000
0000
0010
0000
,
0100
0000
0001
1000
0001
0000
1000
0000
0100
0000
1000
0000
1100
0000
0000
0000
,
1000
0000
0001
0000
1000
0001
1000
0000
0100
0000
1000
0000
0010
0000
0100
0000
,
0101
1001
1100
1010
,
1000
0010
0100
0010
0001
1000
0001
0000
,
0001
1000
0000
0000
0010
1000
0000
0000
,
1000
0100
0010
0001
1000
0001
0100
0000
,
0100
0010
0000
0000
1000
0001
0000
0000
,
0010
0100
1000
0010
0100
0001
1000
0000
,
1000
0001
0000
0000
0001
1000
0000
0000
,
1000
0100
0001
0100
1000
0010
0001
0000
,
1000
0000
1000
0010
0100
0000
0001
0000
,
1000
0100
0010
0100
1000
0001
0100
0000
,
0100
0001
1000
0000
1000
0100
1000
0000
,
1000
0001
0010
0100
1000
0010
0100
0000
,
0010
0001
1000
0000
1000
0010
0100
0000
,
0100
0001
1000
0001
0100
0001
1000
0000
,
0001
1000
0001
0000
0100
0010
0100
0000
,
1000
0010
0100
0001
0010
0100
1000
0000
,
1001
0000
0001
0100
0010
0000
1000
0000
,
1000
0000
0001
0010
0100
0000
0100
0000
,
1000
0000
0010
0000
0100
0001
1000
0000
,
1000
0000
0100
0000
1000
0100
1000
0000
0001
0000
0100
0000
0001
0000
0010
0000
,
0100
0000
1000
0100
1000
0000
0001
0000
0100
0000
0001
0000
1001
0000
0000
0000
,
1000
0000
0100
0000
0010
0001
0010
0000
0001
0000
1000
0010
1000
0000
0010
0000
,
0100
0001
1000
0100
1000
0001
1001
0000
,
1000
0000
0001
0000
1000
0001
1000
0000
0100
0000
0010
0000
0001
0000
1000
0000
,
0001
0000
0100
0000
0001
1000
0001
0000
1000
0000
0100
0000
1001
0000
0000
0000
,
1000
0000
0100
0000
0010
0001
0010
0000
0001
0000
1000
0000
0010
0000
0100
0000
,
1001
1100
0110
0011
,
1000
0000
0100
0000
0010
0001
0010
0000
0001
0000
1000
0000
0010
0000
0100
0000
,
0001
0000
1000
0000
0100
1000
0001
0000
1000
0000
0001
0000
0101
0000
0000
0000
,
1000
0000
0100
0000
1000
0100
1000
0000
0010
0000
0100
0000
0001
0000
1000
0000
,
0100
0001
0100
1000
0010
0100
1010
0000
,
1000
0000
0001
0010
0001
0000
0010
0000
0001
0000
1000
0000
0100
0000
0010
0000
,
0001
0000
1000
0000
0001
1000
0001
0000
0100
0000
0010
0000
1001
0000
0000
0000
,
1000
0000
0010
0000
0100
0001
1000
0000
0001
0000
1000
0000
0100
0000
1000
0000
,
1001
0101
0011
1100
,
1000
0010
0100
0001
0010
0100
1000
0010
,
0100
0001
1000
0000
1100
0000
1001
0000
,
0101
0000
1000
0100
1000
0000
1001
0000
,
0101
0000
0001
0010
0100
0000
1000
0000
,
1000
0000
0001
0100
0001
0000
1000
0100
,
1000
0000
1000
0010
0100
0000
0011
0000
,
1001
0000
1000
0100
0010
0000
1001
0000
,
0101
0000
1000
0010
0100
0000
1001
0000
,
0110
0000
0001
0100
0010
0000
1000
0001
,
0010
0000
1000
0100
0001
0100
1000
0010
,
0001
0000
0100
0010
1000
0001
0010
0100
,
1000
0000
1000
0001
0100
0001
0010
0001
,
0101
1001
1100
1010
,
0100
0001
0010
0000
0100
1000
0010
0000
,
0100
0001
0010
0100
1000
0010
0100
0001
,
0010
0001
1000
0100
1000
0001
0100
0001
,
1000
0000
1000
0001
0100
0000
0010
0100
,
1000
0010
0100
0001
0010
0100
1000
0000
,
1000
0001
0010
0100
,
1000
0000
0010
0000
0100
0000
0001
0000
0010
0100
0010
0000
1000
0001
1000
0001
,
1000
0000
1000
0100
0000
0100
1000
0000
,
1000
0001
0000
0001
0010
0000
0110
0000
,
1100
0000
1000
0010
0000
0010
0100
0000
,
0100
0001
0000
0001
0010
0000
0110
0000
,
1100
0000
1000
0001
0000
0001
0010
0000
,
0010
0100
0000
0100
1000
0000
1000
0000
,
0010
0000
0100
0001
0000
0001
0010
0000
,
0010
0100
0000
1000
0010
0000
0100
0000
,
1000
0001
0010
0001
0000
1000
0010
0000
,
0100
0001
0010
0100
1000
0000
1000
0000
,
1000
0001
0100
0001
0000
0001
0010
0000
,
1100
0010
0000
1000
0001
0000
0100
0000
,
1000
0000
0001
0010
0000
0100
1000
0000
,
0010
0100
0001
0010
0100
0000
1000
0000
,
1000
0001
0100
0010
0000
0010
1000
0000
,
1000
0001
0010
0100
1000
0000
1001
0000
,
1000
0000
0100
0000
1000
0000
0100
1000
0100
0000
1000
0000
0001
0000
0010
0000
,
0001
0000
1000
0100
1000
0000
0001
0000
0010
0000
0001
0000
1100
0000
0000
0000
,
1000
0000
0001
0000
0100
0001
0100
0000
0001
0000
0010
0000
0100
0000
1000
0000
,
0010
0000
1000
0010
1000
0000
0100
0000
1000
0000
0001
0000
0101
0000
0000
0000
,
1000
0000
0100
0000
1000
0100
1000
0000
0010
0000
0100
0001
0010
0000
0001
0000
,
1000
0100
1000
0010
0100
0001
1001
0000
,
1000
0000
0100
1000
0100
0000
1000
0000
0001
0000
0100
0000
0001
0000
0010
0000
,
1100
0101
0011
1100
,
1000
0000
0010
0000
0100
0001
0100
0000
0001
0000
1000
0000
0100
0000
1000
0000
,
0010
0000
0100
0010
0100
0000
0010
0000
1000
0000
0001
0000
1001
0000
0000
0000
,
1000
0000
0100
0000
1000
0100
1000
0000
0001
0000
0100
0000
0001
0000
0010
0000
,
0100
0000
1000
0100
1000
0000
0001
0000
0100
0000
0000
0000
1001
0000
0000
0000
,
1000
0000
0100
0000
1000
0100
1000
0000
0010
0000
0100
0000
0001
0000
0010
0000
,
0100
0000
1000
0100
1000
0000
0001
0000
0100
0000
0001
0000
0011
0000
0000
0000
,
1000
0000
0100
0000
1000
0100
1000
0000
0001
0000
0100
0000
0001
0000
0010
0000
,
0011
1001
1100
1010
,
1000
0000
1000
0100
1000
0001
0100
0001
,
0010
0100
1000
0010
0100
0001
0011
0100
,
1000
0000
1000
0010
0100
0001
0010
0100
,
1000
0010
0100
0010
0100
0010
1010
0000
,
1000
0100
0001
0100
1000
0010
0001
0010
,
1000
0100
0010
0001
1000
0001
0101
0000
,
0001
1000
0100
0010
0001
1000
0010
0100
,
1010
1100
0011
1001
,
1100
1100
0001
0011
,
0001
1100
0100
0110
,
0100
1001
0001
0101
,
0010
1100
0100
1010
,
0010
0110
0010
1100
,
0100
0011
0001
1001
,
0001
0101
0001
1010
,
0100
1001
0100
0110
,
0001
1010
0010
0110
,
0010
1100
0100
0011
,
0001
1001
0010
1010
,
0100
1010
0001
1000
,
0001
1000
0001
1000
,
0001
1000
0001
0010
,
0100
0010
0100
1000
,
0100
0010
0100
1000
,
0001
1000
0001
0100
,
0010
1000
0100
1000
,
0100
0001
0100
0010
,
0100
1000
0010
0010
,
1000
0001
0010
0100
1000
0010
2002
0000
,
0000
0000
0000
0000
0000
0000
0000
3003
;

//---------------dance-single - ----------------
#NOTES:
     dance-single:
     :
     Challenge:
     11:
     1.000,1.000,1.000,0.009,0.434,1446.000,395.000,2.000,0.000,0.000:
1000
0000
1000
0001
0100
0001
0010
0100
,
1000
0010
0100
0010
1010
0100
1100
0000
,
0011
0000
1001
0100
1000
0010
0100
0001
,
0011
0100
1100
0100
1010
0100
1001
0010
,
1100
0000
0011
0001
1000
0010
0100
0001
,
1100
0100
1000
0010
0110
0000
1100
0000
,
1001
0000
0101
0001
0011
0100
1000
0010
,
0110
1001
0110
1001
,
0101
0000
1100
0010
1000
0001
0010
0100
,
1000
0010
0100
0001
0011
0001
1100
0000
,
1010
0000
0101
0001
0010
0100
1000
0010
,
0100
0001
0010
0100
1100
0100
1001
0000
,
0101
0000
1001
0001
1000
0100
0001
0100
,
1000
0010
0001
0010
1010
0100
1100
0000
,
1001
0000
0101
0001
0010
0100
1000
0100
,
1100
0010
0110
0010
1010
0010
0110
0010
,
1000
0000
1000
0001
0010
0100
1000
0001
,
0100
0001
0010
0001
1100
0100
1100
0000
,
1001
0000
0101
0001
0010
0100
1000
0010
,
0100
0010
1000
0100
0110
0001
1001
0000
,
0101
0000
0011
0001
1000
0100
1000
0010
,
0100
0010
1000
0100
1100
0001
0011
0000
,
1001
0000
1100
0010
0100
0001
0010
0001
,
1001
0001
1001
0001
0101
0001
1100
0100
,
1010
0000
1010
0010
0100
0001
0010
0100
,
1000
0010
0100
0001
0011
0001
1001
0000
,
1001
0000
0100
0001
1000
0100
1000
0010
,
0100
0001
1000
1000
1000
0001
0101
0000
,
1100
0100
1000
0010
0100
0001
0010
0100
,
1000
0001
0100
0001
1001
0001
1100
0000
,
1010
0000
0110
0010
1000
0100
0010
0100
,
0011
0001
1001
0001
0110
0010
1100
0100
,
1000
0000
0100
0001
0010
0100
1000
0010
,
0110
0000
1010
0100
1100
0000
0011
0000
,
1001
0001
0100
0010
1100
0100
1000
0001
,
0101
0000
1001
0100
1000
0010
0110
0000
,
1001
0000
1001
0001
0010
0100
1000
0010
,
0110
0010
1000
0100
1001
0000
0101
0000
,
1001
0001
0100
0010
1000
0100
1000
0001
,
0101
0000
1100
0010
1010
0000
0101
0000
,
1001
0100
1000
0010
0100
0001
0010
0100
,
1000
0010
0100
0001
0011
0001
0101
0000
,
1100
0100
1000
0010
0100
0001
0010
0100
,
1000
0010
0100
0001
0010
0001
0100
0000
,
1000
0100
0010
0001
1001
0001
0100
0010
,
1010
0100
1000
0100
1100
0001
0101
0000
,
1100
0100
1000
0010
0100
0001
0010
0100
,
1100
0001
0101
0000
1001
0000
1100
0000
,
1000
0010
0100
0001
0100
0100
1000
0010
,
0100
0001
0010
0100
1100
0000
0101
0000
,
0011
0001
1000
0100
0100
0010
1000
0001
,
1000
0100
1000
0100
1100
0000
0101
0000
,
0011
0001
1000
0100
1000
0001
0100
0001
,
1000
0001
1000
0001
1001
0000
0101
0000
,
1100
0010
0100
0001
0010
0100
1000
0001
,
0100
0001
1000
0100
1100
0000
0001
0000
,
1000
0100
1000
0000
0100
0000
0010
0001
1000
0000
0001
0000
0100
0000
0001
0000
,
1000
0100
1000
0000
0001
0000
0100
0001
1000
0000
0100
0000
1100
0000
0000
0000
,
1000
0001
0100
0000
0001
0000
0100
0001
1000
0000
0100
0000
1000
0010
0100
0000
,
0001
0000
1000
0100
1000
0000
0001
0000
0101
0000
0001
0000
1100
0000
0000
0000
,
1000
0001
0100
0000
0001
0000
1000
0100
1000
0000
0010
0000
0100
0001
1000
0000
,
0001
0000
0100
0001
0010
0000
0100
0000
1000
0100
0010
0000
0110
0000
0000
0000
,
0100
0010
0100
0000
0010
0000
0001
1000
0001
0000
0100
0010
1000
0000
0100
0000
,
1001
0000
0001
0000
0101
0000
0001
0000
1100
0000
0100
0000
1000
0010
0010
0000
,
1001
0100
1000
0000
0001
0010
0001
1000
0010
0000
0100
0010
1000
0000
0100
0000
,
1000
0001
0010
0000
0001
1000
0010
0100
0010
0000
1000
0010
1000
0000
0001
0000
,
0010
0001
1000
0000
0100
1000
0100
1000
0001
0000
0010
0001
1000
0000
0010
0000
,
0100
0010
1000
0000
0001
1000
0001
0000
0010
0100
1000
0100
1000
0000
0010
0000
,
0100
0001
0010
0000
0100
1000
0010
1000
0010
0000
0100
0010
1000
0000
0010
0000
,
1000
0001
0010
0000
0001
1000
0001
1000
0010
0000
0100
0010
1000
0000
0100
0000
,
1000
0100
0010
0000
0001
1000
0010
0001
0010
0000
1000
0010
1000
0000
0100
0100
,
1001
0001
0101
0100
1100
0010
1010
0010
,
1001
0101
0110
1100
1001
0110
0101
0000
,
1010
1100
0101
0000
1001
0101
1001
0000
,
0110
1100
0110
0101
0011
1100
1100
0000
,
1001
0011
0101
0000
1100
1010
0110
0000
,
1001
0011
0001
1100
0110
1001
0000
0000
,
0011
0001
1100
0000
1100
0010
0110
0000
,
1010
0110
1001
1001
0110
1010
1001
0000
,
0101
0000
0110
1010
1010
0000
0101
0000
,
1001
0010
0100
0010
1010
1100
1100
0000
,
0101
0001
0010
0000
1100
0010
0100
0000
,
1001
0101
1010
0101
0110
1001
1001
0000
,
0110
0010
1000
0000
1001
0001
0101
0000
,
1001
0101
0110
1100
1100
0011
1010
0000
,
1001
0001
0100
0000
1010
0100
0011
0000
,
1001
1001
0110
1010
1100
0011
1001
0000
,
0101
0000
1010
0100
0110
0000
1001
0000
,
1001
0000
0110
1001
0101
0000
1100
0000
,
0011
0000
1001
0000
0101
0010
1000
0000
,
1000
0100
0010
0000
0001
1000
0001
0100
1000
0000
1000
0001
1000
0000
0010
0000
,
0100
0010
1000
0000
0100
1000
0001
0010
0001
0000
1000
0001
1000
0000
0000
0000
,
0100
0001
1000
0000
0100
0000
1000
0010
1000
0000
0101
0000
0001
0000
0010
0000
,
0100
1000
0010
0000
0100
0000
0001
0010
0101
0000
1000
0000
1100
0000
0000
0000
,
1000
0001
0010
0000
0001
0000
1000
0010
1000
0000
0001
0100
0001
0000
0010
0000
,
0100
1000
0010
0000
0100
0000
0010
1000
0001
0000
0010
0000
1001
0000
0000
0000
,
1000
0100
1000
0000
0001
0000
0010
0001
1000
0000
0001
1000
0001
0000
1000
0000
,
1001
0001
0101
0001
0011
0110
1100
0100
,
1100
0000
1000
0100
1000
0000
0010
0001
1000
0000
0001
0100
0001
0000
1000
0000
,
1000
0100
0010
0000
0001
1000
0001
0100
0001
0000
1000
0001
1000
0000
0100
0000
,
1000
0100
0010
0000
0001
1000
0001
0100
0010
0000
1000
0010
1000
0000
0100
0000
,
0010
0001
1000
0000
0001
1000
0001
1000
0010
0000
0100
0010
1000
0000
0100
0000
,
1000
0100
0010
0000
0001
1000
0001
0100
0001
0000
1000
0001
1000
0000
0100
0000
,
0010
0100
0010
0000
0001
1000
0001
0100
0001
0000
1000
0001
1000
0000
0100
0000
,
0010
0100
1000
0000
0001
1000
0001
0100
0001
0000
1000
0001
1000
0000
0100
0100
,
1001
0100
0101
0010
0011
0001
1100
0010
,
1010
0000
0000
0000
1000
0001
0000
0000
0011
0000
0000
0000
1001
0000
0000
0001
,
1000
0000
0000
0000
1100
0000
0000
0000
0110
0000
0000
0000
1100
0000
0000
1000
,
0100
0000
0000
0000
0011
0000
0001
0000
1000
0000
0000
0000
1100
0000
0000
0100
,
1000
0000
0000
0000
1001
0000
0001
0000
0100
0000
0000
0000
0011
0000
0000
0001
,
0010
0000
1100
0010
0100
0000
1010
0100
,
1000
0000
0000
0000
1100
0000
0000
0100
0010
0000
0000
0000
0011
0000
0001
1000
,
0010
0000
0000
0000
0101
0000
0001
0010
1000
0000
0000
0000
1100
0000
0010
0000
,
0100
0000
0000
0000
0110
0000
0000
0010
1000
0000
0000
0000
1100
0000
0100
0000
,
0010
0000
1001
0001
0100
0001
1000
0100
,
1000
0000
1001
0000
1001
0000
1100
0010
,
0100
0000
0000
0000
1010
0000
0000
0010
1000
0000
0000
0000
1100
0000
0001
0000
,
0010
0000
0000
0000
1001
0000
0000
0001
1000
0000
0000
0000
1100
0000
0000
0000
,
0101
0001
0010
0100
1010
0000
0110
0000
,
1010
0100
1000
0000
0101
0001
0010
0100
,
1000
0010
0100
0001
0011
0000
1001
0000
,
0110
0010
1000
0000
1100
0100
0010
0000
,
0011
0001
0100
0010
1000
0100
0010
0001
,
1000
0001
0100
0010
1000
0100
1000
0001
,
1000
0001
1000
0001
1000
0001
1000
0001
1000
0001
1000
0001
1000
0001
1000
0001
,
0100
0001
0010
0001
1000
0001
0100
0001
0110
1001
0110
1001
1010
1100
1010
0101
,
1001
0000
1100
1100
0000
0011
0011
0000
,
1100
1100
0000
0110
0010
0000
1001
0000
,
0011
0000
1100
1100
0000
0011
1001
0000
,
0101
1010
0000
0011
1001
0000
0110
0000
,
1100
0000
0011
0101
0000
1001
1100
0000
,
0110
1010
0000
1001
0011
0000
1100
0000
,
0110
0000
1001
0110
0000
1001
0101
0000
,
0011
1100
0000
0110
1001
0000
1001
0000
,
1000
0000
0100
1000
0000
1000
0001
0000
,
0101
0001
1100
0100
1100
0010
0110
0000
,
1010
0000
1010
0110
0000
1001
0011
0000
,
0011
0001
0100
0010
1100
0100
1001
0000
,
0101
0000
0011
0100
0000
1010
0110
0000
,
1001
1001
0001
0010
0011
0101
1010
0000
,
1100
0100
0010
0011
0000
0101
1001
0000
,
1100
0100
0010
1001
0101
0000
1001
0000
,
1000
0100
0010
0000
0001
0000
1000
0001
1000
0000
0010
0000
0010
0100
0001
1000
,
0010
0001
1000
0100
1000
0000
0010
0000
0100
0000
0001
0000
1100
0000
0000
0000
,
1000
0001
1000
0000
0001
0000
0100
0001
0010
0000
0100
0000
1000
0010
0100
0000
,
0001
0000
1000
0100
1000
0000
0001
0000
0100
0000
0001
0000
0010
0000
0100
0000
,
1000
0010
1000
0000
0010
0000
0100
0001
0010
0000
0100
0000
1000
0000
0010
0000
,
0100
0001
0010
0000
0100
0000
1000
0100
1000
0000
0001
0000
0101
0000
0000
0000
,
0001
0010
0100
0000
1000
0000
0010
0100
0001
0000
0010
0000
0100
0000
1000
0000
,
1001
0001
0101
0001
0110
0110
1001
0001
,
1000
0100
1000
0000
0001
0010
0001
1000
0010
0000
0100
0010
1000
0000
0100
0000
,
1000
0100
0010
0000
0001
1000
0001
0100
0001
0000
1000
0001
1000
0000
0100
0000
,
0010
0100
1000
0000
0001
0100
0001
1000
0001
0000
1000
0100
1000
0000
0010
0000
,
0100
0001
1000
0000
0001
0010
0001
1000
0100
0000
1000
0010
1000
0000
0001
0000
,
0010
0001
1000
0000
0100
1000
0100
1000
0001
0000
0010
0001
1000
0000
0001
0000
,
0100
0010
1000
0000
0100
1000
0100
0010
0001
0000
1000
0001
1000
0000
0001
0000
,
0100
0001
1000
0000
0100
1000
0100
0010
0001
0000
1000
0001
1000
0000
0001
0000
,
1001
0100
1100
0010
0110
0010
1100
0000
,
0101
0000
0001
0000
1000
0100
1000
0100
1000
0000
0100
1000
0100
0000
1000
0000
,
0001
0100
0001
0000
1000
0100
1000
0100
0010
0000
0001
1000
0001
0000
0100
0000
,
0001
1000
0001
0000
1000
0001
0100
0010
1000
0000
0100
1100
1000
0000
0010
0000
,
0001
1000
0001
0000
0110
0001
1000
0100
1000
0000
0010
1000
0010
0000
0100
0000
,
0001
1000
0100
0000
1000
0100
1001
0000
0010
0000
0001
1000
0010
0100
0000
0000
,
0010
1000
0100
0000
1000
0100
1000
0001
0010
0000
0001
1000
0001
0000
1000
0000
,
0001
1000
0001
0000
0100
0001
1000
0101
1000
0000
0100
1000
0100
0000
1000
0000
,
0001
0100
0001
0000
1000
0001
1000
0000
0001
0100
0001
1000
0100
1000
0100
0000
,
1000
1100
0011
1001
,
1001
0101
1001
0110
,
1001
1100
0011
1001
,
1100
1010
0110
0101
,
0101
1001
0110
0110
,
0011
1001
1001
0101
,
0011
1100
1010
0101
,
1001
0000
1100
0000
1100
0000
0010
0100
,
0010
0001
1000
0001
1000
0001
1000
0001
,
1000
0001
1000
0001
1000
0001
0010
0001
,
0010
0001
1000
0001
0010
0001
0100
0001
,
1000
0001
0100
0001
0100
0001
1000
0000
,
0001
1000
0001
1000
,
0001
0100
0010
1000
,
0001
1000
0100
1000
,
0100
1000
0100
1000
,
0100
1000
0100
0010
,
0001
1000
0001
0100
,
0001
1000
0001
1000
,
0001
0001
1000
1001
,
1001
0110
0011
1100
1001
0110
2002
0000
,
0000
0000
0000
0000
0000
0000
0000
0000
0000
0000
0000
3003
0000
0000
0000
0000
;
