#TITLE:CLASSICAL INSANITY;
#SUBTITLE:;
#ARTIST:DM Ashura;
#TITLETRANSLIT:;
#SUBTITLETRANSLIT:;
#ARTISTTRANSLIT:;
#CREDIT:;
#BANNER:Classical Insanity-bn.png;
#BACKGROUND:Classical Insanity-bg.png;
#LYRICSPATH:;
#CDTITLE:!phenomegaTitle.png;
#MUSIC:Classical Insanity.mp3;
#OFFSET:-0.080;
#SAMPLESTART:46.340;
#SAMPLELENGTH:19.000;
#SELECTABLE:YES;
#BPMS:0.000=175.000;
#STOPS:;
#BGCHANGES:;
// cache tags:
#FIRSTBEAT:0.000;
#LASTBEAT:356.000;
#SONGFILENAME:Songs/new/Classical Insanity/Classical Insanity.sm;
#HASMUSIC:1;
#HASBANNER:1;
#MUSICLENGTH:124.896;
// end cache tags

//---------------dance-single - ----------------
#NOTES:
     dance-single:
     :
     Hard:
     11:
     1.000,1.000,0.336,0.272,1.000,948.000,42.000,34.000,0.000,0.000:
0101
0000
1000
0010
0100
0010
1000
0001
0100
0010
0100
0001
1000
0100
0010
0001
,
0010
0100
1000
0100
0010
0100
1000
0001
0100
0010
0100
0001
2000
3000
0000
0002
,
2003
3000
0001
1000
0010
1000
0001
0100
0010
0100
0001
1000
0100
0010
0100
1000
,
0001
0100
0010
0100
0001
1000
0100
0010
0001
0010
0100
1000
0002
0003
0000
2000
,
3002
0003
1000
0100
0010
0001
0010
0100
1000
0010
0100
0001
1000
0010
0100
0001
,
1000
0010
0100
0010
1000
0001
0100
0010
0100
0001
1000
0100
0010
0100
1000
0001
,
0100
0010
0100
0001
1000
0010
0100
0001
0100
0010
0100
0001
1000
0010
0100
0001
,
0100
0010
0100
0001
1000
0010
0100
0001
0100
0010
1000
0100
0010
0001
0010
0100
,
1000
0010
0100
0001
1000
0100
0010
0001
1000
0010
0100
0010
1000
0100
0010
0001
,
1000
0010
0100
0001
1000
0010
1000
0010
0100
0001
0100
0001
1000
0000
1000
0000
,
0001
0100
0001
0100
0010
1000
0001
0100
0001
0010
0100
1000
0001
0100
0010
1000
,
0001
0100
0001
0100
0010
1000
0010
1000
0001
0100
0010
0100
0001
0000
0001
0000
,
1000
0100
0010
0001
1000
0010
0100
0001
1000
0010
0100
0010
1000
0100
0010
0001
,
1000
0010
0100
0001
1000
0010
1000
0010
0100
0001
0100
0001
1000
0000
1000
0000
,
0001
0010
0100
1000
0100
0010
0001
0010
0100
0000
1000
0100
1000
0000
1000
0000
,
0001
0010
0100
1000
0100
0010
0001
0010
0100
0000
1000
0100
1000
0000
1000
0000
,
0011
0000
0001
1000
0001
0000
0100
0000
0010
0000
1000
0000
0001
0000
1000
0000
,
0010
0100
0010
1000
0010
0100
0001
1000
,
0011
0000
0001
1000
0001
0000
0100
0000
0010
0000
1000
0000
0100
0000
0010
0000
,
0001
0010
0100
1000
0001
0100
0010
0100
,
0011
0010
0110
0100
1100
1000
1001
0001
,
1001
0000
0000
0000
1001
0000
0000
0000
0000
0000
0000
0000
0010
1000
0010
0010
,
1000
0000
0000
0000
0001
0100
0001
0001
0100
0000
0000
0000
0010
1000
0010
0010
,
1000
0010
1000
1000
0010
1000
0010
0010
1000
0000
0000
0000
0001
0000
0100
0000
,
0010
1000
0100
0010
0001
1000
0100
0010
,
0001
0000
1000
0000
0100
0000
0010
0000
0001
0000
0000
0000
1000
0010
1000
1000
,
0010
0000
0000
0000
0100
0001
0100
0100
0001
0000
0000
0000
0100
0010
0100
0100
,
0010
0100
0010
0010
0100
0010
0100
0100
0010
0000
0000
0000
1000
0000
0010
0000
,
1000
0001
0010
0100
1000
0001
0010
0100
,
1000
0001
0010
0100
1000
0000
0000
0000
,
0011
0000
0000
0010
1000
0000
0000
1000
,
0010
0000
0000
0000
0000
0000
0010
0100
0010
0000
0000
0000
0000
0000
0000
0000
,
1000
0000
0000
0000
0000
0000
0001
1000
0001
0000
0000
0000
0000
0000
0000
0000
,
0100
0010
1000
0001
0100
0000
0000
0010
1000
0000
0000
0000
0000
0000
0000
0000
,
0001
0000
0000
0000
0000
0000
0001
1000
0010
0000
0000
0000
0000
0000
1000
0000
,
0010
0000
0000
0000
0000
0000
0010
0100
0010
0000
0000
0000
0000
0000
0000
0000
,
1000
0010
1000
0010
0100
0001
0100
0001
0010
0001
0010
0001
1000
0001
1000
0001
,
0100
0010
1000
0001
0100
0000
0000
0010
1000
0000
0000
0000
0010
0000
0000
0000
,
0101
1010
0110
0000
,
1100
0101
0110
0000
,
0001
0000
1000
0010
0100
0010
1000
0000
,
0010
0000
0100
0001
1000
0001
0100
0000
,
0011
1010
0101
0000
,
1010
0110
1001
0000
,
1000
0010
1000
0000
0001
0100
0001
1000
,
0001
0100
0001
0010
0001
0000
0001
0000
,
1001
0000
0000
0000
0000
0000
0000
0000
0000
0000
0000
0000
0000
1000
0100
0010
,
0001
1000
0100
0010
0001
1000
0100
0010
0001
0001
0010
0100
1000
0001
0010
0100
,
1000
0001
0010
0100
1000
1000
0100
0010
0001
1000
0100
0010
0001
1000
0100
0010
,
0001
0001
0010
0100
1000
0001
0010
0100
1000
0001
0010
0100
1000
1000
0100
0010
,
0001
1000
0100
0010
0001
1000
0100
0010
0001
0001
0010
0100
1000
0001
0010
0100
,
1000
0001
0010
0100
1000
1000
0100
0010
0001
1000
0100
0010
0001
1000
0100
0010
,
0001
0001
0010
0100
1000
0001
0010
0100
1000
0001
0010
0100
1000
1000
0100
0010
,
0001
1000
0100
0010
0001
1000
0100
0010
0001
0001
0010
0100
1000
0001
0010
0100
,
1000
0001
0010
0100
1000
0000
0000
0000
0000
0000
0002
0000
0203
0000
0320
0000
,
2030
0000
0000
0000
0000
0000
0000
0000
0000
0000
0000
0000
3020
0000
0000
0000
0230
0000
0000
0000
0000
0000
0000
0000
0000
0000
0000
0000
0302
0000
0000
1003
,
0020
0000
0000
0000
0000
0000
0000
0000
0000
0000
0000
0000
0000
0000
0000
0130
0002
0000
0000
0000
2003
0000
0000
0000
3020
0000
0000
0000
0230
0000
0000
0310
,
2000
3002
0203
0320
2030
3000
0002
0003
,
2000
0000
0000
0000
0000
3000
0001
0100
,
0001
1000
0002
0000
0000
0000
0000
0000
1003
0000
0000
0000
0010
0000
1000
0000
,
0010
1000
0020
0000
0000
0000
0000
0000
1030
0000
0000
0000
0001
0000
1000
0000
,
0002
0000
1000
2003
3002
0000
1000
2003
,
3020
0000
0000
0030
,
1000
0000
0001
1000
0001
1000
0001
1000
0001
0000
0001
1000
0001
0000
0001
1000
,
0011
0001
0011
0001
0011
0001
0011
0001
,
0001
0000
1000
0001
1000
0001
1000
0001
1000
0000
1000
0001
1000
0000
1000
0001
,
1100
1000
1100
1000
1100
1000
1100
1000
,
1000
0000
0001
1000
0001
1000
0001
1000
0001
0000
0001
1000
0001
0000
0001
1000
,
0011
0001
0011
0001
0011
0001
0011
0001
,
0001
0000
1000
0001
1000
0001
1000
0001
1000
0000
1000
0001
1000
0000
1000
0001
,
1100
1000
1100
1000
1100
1000
1100
1000
,
0001
0010
0100
1000
0100
0010
0001
0010
0100
1000
0100
0010
0001
0010
0100
1000
,
0001
0100
0001
1000
0001
0100
0001
1000
0001
0100
0001
1000
0001
0100
0001
1000
,
0001
0010
0100
1000
0010
1000
0100
0010
0001
0010
0100
1000
0010
1000
0100
0010
,
0001
0010
0100
1000
0010
1000
0100
0010
0001
0010
0100
1000
0010
1000
0100
0010
,
0001
1000
0001
1000
0001
0100
0010
1000
0001
0100
0001
0100
0001
1000
0010
0100
,
0001
1000
0001
1000
0001
0100
0010
1000
0001
0100
0001
0100
0001
1000
0010
0100
,
0001
1000
0001
1000
0010
0100
0010
0100
0001
1000
0100
0010
0001
1000
0001
1000
,
0100
1000
0100
1000
0010
1000
0010
1000
0001
0100
0001
0100
0001
0100
0001
0100
,
0001
1000
0001
1000
0001
0100
0010
1000
0001
0100
0001
0100
0001
1000
0010
0100
,
0001
1000
0001
1000
0001
0100
0010
1000
0001
0100
0001
0100
0001
1000
0010
0100
,
0001
1000
0001
1000
0010
0100
0010
0100
0001
1000
0100
0010
0001
1000
0001
1000
,
0100
1000
0100
1000
0010
1000
0010
1000
0001
0100
0001
0100
0001
0100
0001
0100
,
0010
1000
0010
0100
0010
1000
0010
0100
0010
0000
0100
0001
0100
0001
0100
0001
,
0100
0010
0100
0001
0100
0010
0100
0001
0100
0000
0010
1000
0010
1000
0010
1000
,
0010
0000
0000
0000
0010
1000
0010
1000
0001
0100
0001
0100
0010
1000
0010
1000
,
0100
1000
0100
1000
0001
1000
0001
1000
0010
0100
0010
0100
0001
1000
0001
1000
,
0011
0000
0110
0000
,
2002
0000
0000
0000
,
3003
0000
0000
0000
;
