#TITLE:Blue Army;
#SUBTITLE:;
#ARTIST:DJ Sharpnel;
#TITLETRANSLIT:;
#SUBTITLETRANSLIT:;
#ARTISTTRANSLIT:;
#CREDIT:;
#BANNER:bluearmy.png;
#BACKGROUND:bluearmy-bg.png;
#LYRICSPATH:;
#CDTITLE:!HSTTitle.png;
#MUSIC:BLUE ARMY (Edit).mp3;
#OFFSET:0.020;
#SAMPLESTART:89.998;
#SAMPLELENGTH:12.000;
#SELECTABLE:YES;
#BPMS:0.000=91.080,70.875=182.160,195.000=91.080,197.250=182.160,333.250=91.080,337.000=182.160;
#STOPS:;
#BGCHANGES:;
// cache tags:
#FIRSTBEAT:0.000;
#LASTBEAT:338.000;
#SONGFILENAME:Songs/Fresh Flock of Fantastic Files F4/(HST) Blue Army/bluearmy.sm;
#HASMUSIC:1;
#HASBANNER:1;
#MUSICLENGTH:141.076;
// end cache tags

//---------------dance-single - ----------------
#NOTES:
     dance-single:
     :
     Hard:
     12:
     1.000,1.000,0.624,0.347,1.000,912.000,88.000,49.000,0.000,0.000:
2000
0000
0000
0000
0000
0000
0000
0000
0000
0000
0000
0000
0000
0000
0000
0000
0000
0000
0000
0000
0000
0000
0000
0000
0000
0000
0000
3002
0000
0000
0000
0000
,
0000
0000
0000
0000
0000
0000
0000
0000
0000
0000
0000
0000
0000
0203
0000
0000
,
0000
0000
0000
0000
0000
0000
0000
0320
,
0000
0000
0000
0000
0000
0000
0000
0000
0030
1001
0010
0100
0001
0011
0000
0000
,
0000
0110
1000
0010
0100
0101
0000
0000
0000
1010
0100
0001
0010
1100
0000
0010
,
0001
0011
0000
1010
0000
1001
0000
0000
1010
0100
0001
0010
0100
1100
0000
0000
,
0011
0100
1000
0010
0100
0101
0000
0000
0000
1001
0100
0010
1001
0102
0000
0023
,
0000
0230
0000
2300
3000
2002
3003
0000
0000
1010
0100
0001
0010
0110
0000
0000
,
0000
0011
0100
1000
0001
0101
0000
0000
0000
1001
0100
0010
1000
2010
0000
3020
,
0000
0230
0000
0302
0003
0022
0033
0000
0110
1000
0010
0100
0001
0011
0000
0000
,
1010
0100
0010
1000
0100
1100
0000
0000
0000
0011
0100
0010
1000
2100
0000
3020
,
0000
0230
0000
0302
0003
2002
3003
0000
0000
1010
0100
0001
0010
0011
0000
0000
,
0000
1100
0010
0100
0001
1001
0000
0000
0000
0101
0010
1000
0100
0210
0000
0320
,
0000
0032
0000
0023
0030
0220
0330
0000
1100
0010
0100
0001
0010
0110
0000
0000
,
0011
1000
0010
0100
0001
1001
0000
0000
0000
0101
0010
1000
0100
2100
0000
3020
,
0000
0230
0000
0302
0000
2003
0000
3020
0000
2030
0000
3200
0000
0320
0000
0032
,
0000
0000
0023
0000
0000
0000
0230
0000
0000
0000
0300
0000
0000
0000
0000
0000
0000
2000
0000
3010
0000
0000
0000
0000
0102
0000
0000
0000
0003
0000
0000
0000
,
2002
0000
0000
0000
3003
0000
0000
2000
3000
0000
0000
0000
0000
0000
1010
0000
,
0000
0100
0000
0000
0001
0000
0011
0000
0000
0100
0000
0000
1000
0000
1010
0000
,
0000
0100
0000
0000
0010
0000
0110
0000
0000
1000
0000
0000
0010
0000
1010
0000
,
0000
0100
0000
0000
0001
0000
1001
0000
0000
1000
0000
0000
1000
0000
1100
0000
,
0000
0010
0000
0000
0001
0000
0101
0000
0000
0010
0000
0000
1000
0000
1100
0000
,
0000
0010
0000
0000
0001
0000
0101
0000
0000
0010
0000
0000
1000
0000
1010
0000
,
0000
0100
0000
0000
0001
0000
0101
0000
0000
0010
0000
0000
0100
0000
0110
0000
,
0000
0010
0000
0000
1000
0000
1010
0000
0000
0100
0000
0000
0001
0000
0011
0000
,
0000
0100
0000
0000
0010
0000
0110
0000
0000
0100
0000
0000
1000
0000
1010
0000
,
0000
0100
0000
0000
0010
0000
0011
0000
0000
0001
0000
0000
1000
0000
1001
0000
,
0000
0010
0000
0000
0100
0000
0101
0000
0000
0010
0000
0000
1000
0000
1010
0000
,
0000
0100
0000
0000
0001
0000
0101
0000
0000
0010
0000
0000
1000
0000
1100
0000
,
0000
0010
0000
0000
0100
0000
0101
0000
0000
0010
0000
0000
1000
0000
1100
0000
,
0000
0100
0000
0000
0010
0000
0110
0000
0000
0010
0000
0000
0001
0000
1001
0000
,
0000
1000
0000
0000
1000
0000
1010
0000
0000
0010
0000
0000
0100
0000
0101
0000
,
0000
0010
0000
0000
1000
0000
1010
0000
0000
0100
0000
0000
0001
0000
0011
0000
,
0000
0010
0000
0000
0100
0000
1100
0000
0000
0010
0000
0000
0011
0000
0001
0000
,
0000
1000
0000
0000
0010
0000
0100
0000
0000
0001
0000
0000
0010
0000
0001
0000
,
0000
0100
0000
0000
0010
0000
1000
0000
0000
0010
0000
0000
0100
0000
0001
0000
,
0000
0100
0000
0000
0010
0000
1000
0000
0000
0100
0000
0000
0010
0000
0001
0000
,
0000
0010
0000
0000
0001
0000
0100
0000
0000
0010
0000
0000
1000
0000
0010
0000
,
0000
1000
0000
0000
0100
0000
1000
0000
0000
0100
0000
0000
0010
0000
0100
0000
,
0000
0010
0000
0000
0001
0000
0010
0000
0000
0001
0000
0000
1000
0000
0010
0000
,
0000
1000
0000
0000
0010
0000
0100
0000
0000
0001
0000
0000
0100
0000
0010
0000
,
0000
1000
0000
0000
0100
0000
0010
0000
0000
0001
0000
0000
0010
0000
0100
0000
,
0100
1010
0001
0100
0100
1010
0001
0010
,
0010
0101
0010
0001
0001
1100
1000
0010
,
0010
1100
0100
0001
0001
0011
0100
0100
,
0010
0000
1001
0000
1000
0000
1000
0000
0100
0000
1010
0000
0100
0000
0010
0100
,
1000
0010
0100
0001
1000
0100
1000
0010
0100
0001
0010
0001
0100
0010
1000
0001
,
0010
0001
1000
0010
1000
0100
1000
0010
0100
0001
0010
0001
1000
0010
0100
0001
,
1000
0010
0100
0001
1000
0010
0100
0010
0100
0001
0100
0001
0100
0002
0000
0000
,
0003
1000
0100
1000
0010
0100
0001
0100
0010
1000
0100
1000
0010
0100
0010
1000
,
0100
0010
0001
0100
0010
1000
0100
1000
0010
0100
0010
1000
0100
0010
0001
0010
,
0100
0010
0001
0100
0010
1000
0010
0100
0001
0100
0010
1000
0100
0010
0001
1000
,
0001
0010
0100
1000
0001
1000
0010
0100
0001
0010
0001
0100
0010
1000
0100
0010
,
0001
1000
0010
0100
0010
1000
0100
0010
0001
0100
0001
0010
0100
1000
0100
1000
,
0010
0100
0010
1000
0100
1000
0010
0100
0001
0010
0001
0100
0010
1000
0100
1000
,
0001
1000
0010
0100
0001
0010
0100
1000
0010
0100
0001
0010
0100
1000
0010
0100
,
0001
1000
0010
0100
0010
1000
0100
0010
0001
0010
0100
0010
0001
1000
0010
0100
,
0001
0100
0010
1000
0100
0010
0001
1000
0010
0100
0001
0010
0100
1000
0100
1000
,
0010
1000
0001
0010
0001
0100
0010
0100
0010
1000
0100
1000
0010
0100
0001
0100
,
0010
1000
0100
0010
0001
0010
0001
0100
0010
1000
0100
1000
0001
0010
0001
0100
,
0010
1000
0100
0010
0001
0010
0001
0100
0010
1000
0100
1000
0010
0100
0010
1000
,
0001
1000
0100
1000
0010
0100
0001
0100
0010
1000
0100
1000
0001
0100
0010
1000
,
0100
0010
0001
1000
0001
0010
0001
1000
0010
0100
0001
0100
0010
1000
0100
1000
,
0001
0100
0010
1000
0100
0010
0001
1000
0001
0010
0001
0100
0010
1000
0100
1000
,
0010
0100
0001
0010
0001
0100
0010
1000
0100
1000
0010
0100
0001
0010
0100
1000
,
0001
0010
0100
1000
0001
1000
0100
0010
0001
0100
0010
1000
0100
0010
0001
1000
,
0010
0100
0010
1000
0100
1000
0010
0100
0001
0010
0001
0100
0010
1000
0100
0010
,
0001
1000
0010
0100
0001
0100
0010
1000
0100
1000
0001
0010
0100
1000
0010
0100
,
0001
1000
0010
0100
0010
1000
0100
0010
0001
0100
0010
1000
0100
1000
0001
0100
,
0010
1000
0100
0010
0001
1000
0010
0100
0010
1000
0100
0010
0001
0100
0010
1000
,
0100
1000
0010
0100
0010
1000
0100
0010
0001
0100
0001
0010
0100
1000
0100
1000
,
0010
0100
0010
1000
0100
0010
0001
1000
0001
0100
0010
1000
0100
0010
0001
1000
,
0010
0100
0010
1000
0100
0010
0001
1000
0001
0010
0100
1000
0010
0100
0001
0010
,
0100
1000
0010
0100
0001
0010
0100
1000
0010
0100
0001
0010
0001
0100
0010
1000
,
0100
0010
0001
1000
0010
0100
0001
1000
0010
0100
0010
1000
0100
1000
0010
0100
,
0001
0010
0001
0100
0010
1000
0100
1000
0010
0100
0010
1000
0001
1000
0010
0100
,
0001
0100
0010
1000
0100
0010
0001
0100
0010
1000
0100
0010
0001
1000
0010
0100
,
0001
0100
0010
1000
0100
1000
0010
0100
0001
0010
0100
1000
0010
0100
0001
0010
,
0100
0010
0001
0100
0010
1000
0100
1000
0010
0100
0001
0010
0001
0100
0010
1000
,
0100
0010
0001
1000
0001
0010
0001
0100
0010
1000
0100
1000
0001
1000
0010
0100
,
0010
1000
0100
0010
0001
0100
0010
1000
0100
0010
0001
0010
0100
1000
0010
0100
,
0001
1000
0010
0100
0001
0100
0010
1000
0100
0010
0100
1000
0010
0100
0001
0010
,
0100
1000
0010
0100
0001
1000
0010
1000
0100
1000
0100
1000
0100
1000
0100
0010
,
0001
0010
0001
0010
0001
2002
0000
0000
0000
0000
0000
0000
0000
0000
0000
0000
,
3003
0000
1000
2000
3000
0000
0000
0000
;
