#TITLE:Tanani Tanana;
#SUBTITLE:;
#ARTIST:The Sickest Squad;
#TITLETRANSLIT:;
#SUBTITLETRANSLIT:;
#ARTISTTRANSLIT:;
#CREDIT:;
#BANNER:tanani tanana bn.png;
#BACKGROUND:tanani tanana bg.png;
#LYRICSPATH:;
#CDTITLE:~CDTitle-@@.png;
#MUSIC:The Sickest Squad - Tanani Tanana.ogg;
#OFFSET:-20.993;
#SAMPLESTART:210.539;
#SAMPLELENGTH:19.690;
#SELECTABLE:YES;
#BPMS:0.000=195.000;
#STOPS:;
#BGCHANGES:;
// cache tags:
#FIRSTBEAT:0.000;
#LASTBEAT:748.000;
#SONGFILENAME:Songs/SPEEEDCOOOORE 4/Tanani Tanana - [@@]/Tanani Tanana.sm;
#HASMUSIC:1;
#HASBANNER:1;
#MUSICLENGTH:252.379;
// end cache tags

//---------------dance-single - @@----------------
#NOTES:
     dance-single:
     @@:
     Challenge:
     15:
     1.000,1.000,0.040,0.265,1.000,1963.000,10.000,67.000,5.000,0.000:
1000
0010
1000
0001
0010
0000
0100
1000
0001
0000
1000
0010
0100
0000
0001
0000
,
1000
0000
0000
0000
0100
0000
0000
0000
0010
0000
0001
0000
0400
0300
0000
0000
0040
0030
0000
0000
1000
0000
0000
0000
0001
0000
1000
0000
0001
0000
0000
0000
,
1000
0100
1000
0001
0100
0000
0010
1000
0001
0000
1000
0100
0010
0000
0001
0010
,
0001
1000
0100
0000
0010
0000
0001
1000
0010
0000
0100
0000
0010
0000
1000
0001
,
0010
0000
0100
0000
1000
0000
0001
0000
0400
0300
0000
0000
0001
0000
1000
0000
0100
0000
0000
0000
0010
0000
0001
0000
0010
0000
0000
0000
0100
0000
1000
0000
,
0001
0000
1000
0000
0010
0000
0000
0000
0100
0000
0001
0000
1000
0000
0000
0000
0004
0003
0000
0000
0040
0030
0000
0000
0100
0000
1000
0000
0100
0000
0000
0000
,
1000
0000
0000
0000
0001
0000
0000
0000
0100
0000
0000
0000
0010
0000
0000
0000
1000
0000
0000
0000
0000
0000
0000
0000
0001
0000
0000
0000
1000
0000
0000
0000
0100
0000
0000
0000
0000
0000
0000
0000
0010
0000
0000
0000
0001
0000
0000
0000
4000
3000
0000
0000
0040
0030
0000
0000
4000
3000
0000
0000
0400
0300
0000
0000
,
0040
0030
0000
0000
0004
0003
0000
0000
1000
0000
0000
0000
0000
0000
0000
0000
0010
0000
0000
0000
0400
0000
0300
0000
0001
0000
0000
0000
0000
0000
0000
0000
4000
0000
3000
0000
0000
0000
0000
0000
4000
0000
3000
0000
0000
0000
0000
0000
0001
0000
0000
0000
0010
0000
0000
0000
0001
0000
0000
0000
1000
0000
0000
0000
,
0010
0100
0010
1000
0100
0000
0010
0001
1000
0000
0001
0100
0010
0000
1000
0001
,
0010
0100
0010
0001
1000
0010
1000
0001
0100
0010
0100
0001
1000
0100
1000
0001
,
0010
0100
1000
0001
0100
0000
0010
1000
0001
0000
0010
0100
1000
0001
0010
0001
,
0100
0010
1000
0000
0001
0000
0010
0000
0001
0100
0001
1000
0001
0010
0100
1000
,
0001
0100
0010
0100
0001
1000
0100
0010
0001
0000
0100
0010
1000
0001
0100
0001
,
0010
0100
1000
0001
0100
0000
0010
1000
0001
0000
1000
0000
0100
0010
0001
1000
,
0010
1000
0001
0010
0100
0000
1000
0001
0010
0000
0001
0100
0010
1000
0100
0000
,
0010
0001
1000
0100
0010
0100
0000
0000
1000
0010
0000
0000
0100
0001
1000
0010
,
0400
0000
0000
0000
,
0000
0000
0000
0000
,
0000
0000
0000
0000
,
0000
0000
0300
0000
,
0001
0010
0001
0010
0000
0000
0000
0000
0000
0000
0000
0000
0000
0000
0000
0000
,
0000
0000
0000
0000
0000
0001
0001
0001
,
1000
0010
0100
0001
0100
0010
1000
0001
,
1000
0000
0100
0000
0010
0000
0001
0000
1000
0000
0100
0000
4000
3000
0004
0003
,
0100
0010
0100
0001
1000
0010
0100
0010
,
1000
0000
0001
0000
0010
0000
0100
0000
1000
0000
0001
1000
0010
0000
M01M
0000
,
0001
1000
0100
1000
0001
0010
0100
1000
,
0001
0000
0100
0000
0010
0000
1000
0000
0001
0000
0100
0000
0001
0010
0100
1000
,
0001
0000
0100
0000
0001
0000
0100
0000
0001
0000
0000
1000
0100
0000
0000
1000
,
0010
0100
0001
0000
0010
0100
1000
0000
0001
0000
1000
0010
0M00
0000
0000
0000
,
1000
0100
0110
0010
0001
1000
1010
0010
,
1000
0000
0001
0000
1001
0000
1000
0000
0100
0000
0010
0000
0014
0003
0004
0003
,
1000
0010
1010
1000
0001
0010
0011
0001
,
1000
0000
0010
0000
0110
0000
0100
0000
0001
0000
1000
0100
0010
0000
M01M
0000
,
0100
0001
1001
1000
0100
0010
0011
0001
,
1000
0000
0010
0000
1010
0000
1000
0000
0001
0000
0100
0000
0001
0100
0010
1000
,
0100
0000
1000
0000
0100
0000
1000
0000
0100
0000
0000
1000
0001
0000
0000
1000
,
0010
0000
0100
0000
0001
1000
0010
1000
0001
0100
0010
1000
0100
0010
0001
0100
,
0001
1000
0100
1000
0010
0100
0001
1000
0001
0010
0100
1000
0001
0000
1000
0100
,
1000
0010
0100
0001
1000
0001
0010
0100
1000
0001
1000
0010
1000
0001
0010
0001
,
0010
0100
1000
0001
1000
0010
0100
0001
0010
0100
1000
0001
1000
0100
0010
0001
,
1000
0001
0100
0010
1000
0100
0010
0100
1000
0001
1000
0001
0100
0010
0100
0010
,
1000
0001
0010
0001
0100
0010
1000
0010
0100
0001
1000
0100
1000
0000
0001
0010
,
0001
1000
0100
0010
0001
0100
0010
1000
0001
1000
0010
0100
0001
0010
0001
0010
,
0100
1000
0001
1000
0010
0100
0001
0100
0010
1000
0100
0010
0100
1000
0010
1000
,
0001
0100
0001
1000
0100
0010
0100
1000
0010
0100
0010
1000
0001
0010
0001
1000
,
0001
0100
0010
1000
0100
0010
0001
0010
0100
1000
0010
1000
0001
0000
1000
0010
,
1000
0100
0010
0001
1000
0100
1000
0010
0100
0001
1000
0001
0010
0100
0010
0100
,
1000
0001
0010
0001
0100
0010
1000
0010
0100
0001
0010
0100
1000
0100
0010
0001
,
1000
0010
1000
0001
0010
0001
1000
0001
0100
0010
0100
0010
1000
0001
1000
0001
,
0010
0100
0010
0001
1000
0100
1000
0010
0100
0001
0100
0010
1000
0000
0001
0100
,
0001
0010
0100
1000
0100
0010
0001
1000
0010
0100
0010
1000
0100
0010
0100
0010
,
0001
0100
0001
1000
0001
0010
0001
1000
0100
1000
0010
0100
0001
0100
0010
1000
,
0100
1000
0001
0100
0010
1000
0010
0100
0001
1000
0001
1000
0100
0010
0001
1000
,
0001
0000
0000
1000
0010
1000
0010
1000
,
0002
0000
0000
0003
1000
0000
0001
2000
,
0000
3000
0000
0001
0010
0001
0010
0001
,
2000
3000
0000
0000
0020
0030
0000
0000
2000
3000
0000
0000
0020
0000
0000
0000
0000
0000
0000
0000
0000
0000
0000
0000
0030
0000
0000
0000
0000
0000
0000
0000
2000
0000
0000
0000
0000
0000
0000
0000
3000
0000
0000
0000
0000
0000
0000
0000
0001
0000
0000
0000
0000
0000
0000
0000
0020
0000
0000
0000
0000
0000
0000
0000
,
0000
0000
0000
0000
0030
0001
0001
0001
,
1000
0001
1000
0010
1000
0100
0010
0001
1000
0001
0010
0100
1000
0010
1000
0001
,
0100
0010
0100
0001
0010
0100
0010
0001
1000
0100
0010
0001
0100
0001
1000
0010
,
1000
0001
0100
0010
1000
0100
0010
0001
0100
0010
0100
0001
1000
0001
0010
0100
,
1000
0100
0010
0001
0100
0001
0100
0010
1000
0001
1000
0010
1000
0001
0010
0100
,
1000
0001
0010
0001
0100
0010
0100
0001
1000
0010
0100
0001
0010
0100
0010
0001
,
1000
0100
0010
0100
1000
0010
1000
0001
0100
0010
0100
0001
0010
0001
0010
0001
,
1000
0100
1000
0001
1000
0010
0100
0001
0010
0100
1000
0010
1000
0001
0010
0001
,
0100
0010
0100
0001
1000
0001
0010
0100
1000
0010
1000
0001
1000
0001
0010
0001
,
0100
0010
0100
0001
1000
0001
0010
0100
1000
0001
0100
0001
1000
0100
0010
0001
,
0100
0010
0100
0001
1000
0001
0010
0100
1000
0001
0100
0001
1000
0100
1000
0001
,
1000
0100
0010
0001
1000
0001
0100
0010
1000
0001
0010
0001
1000
0010
0100
0001
,
0010
0100
0010
0100
1000
0001
0100
0010
1000
0001
0010
0001
0100
0010
0100
0001
,
1000
0100
1000
0001
1000
0010
1000
0001
0010
0001
1000
0001
0100
0001
1000
0010
,
1000
0001
0010
0001
1000
0001
0100
0001
1000
0100
1000
0001
1000
0010
1000
0100
,
0010
0001
0100
0001
1000
0100
1000
0001
0100
0010
0100
0001
1000
0001
0010
0001
,
0100
0010
1000
0001
1000
0100
0010
0001
0100
0001
1000
0100
1000
0010
0100
0001
,
4000
0000
0000
0000
,
0000
0000
0000
0000
,
0000
0000
0000
0000
,
0000
0000
0000
3000
,
0001
0010
0001
0010
0100
1000
0001
1000
0010
0100
0000
0000
0000
0000
0000
0000
,
0000
0000
0000
0000
,
0000
0000
0000
0000
,
0000
0000
0000
0000
,
0020
0000
0000
0030
2000
3000
0001
2000
,
0000
0000
3000
0001
1000
0001
1000
0001
,
0200
0000
0000
0300
0002
0003
1000
0002
,
0000
0003
0000
1000
0001
1000
0001
1000
,
0200
0000
0000
0300
2000
3000
0001
2000
,
0000
0000
3000
0001
1000
0001
1000
0001
,
0020
0000
0000
0030
0002
0003
1000
0002
,
0000
0003
0000
1000
0001
1000
0001
1000
,
0020
0000
0000
0030
2000
3000
0001
2000
,
0000
0000
3000
0001
1000
0001
1000
0001
,
0200
0000
0000
0300
0002
0003
1000
0002
,
0000
0003
0000
1000
0001
1000
0001
1000
,
0200
0000
0000
0300
2000
3000
0001
2000
,
0000
0000
3000
0001
1000
0001
1000
0001
,
0200
0000
0000
0000
,
0000
0000
0000
0300
,
0002
0000
0000
0003
0020
0030
0100
2000
,
0000
3000
0000
0001
0100
0001
0100
0001
,
2000
0000
0000
3000
0020
0030
0100
0002
,
0000
0003
0000
1000
0100
1000
0100
1000
,
0002
0000
0000
0003
0020
0030
0100
2000
,
0000
3000
0000
0001
0100
0001
0100
0001
,
2000
0000
0000
3000
0020
0030
0100
0002
,
0000
0003
0000
1000
0100
1000
0100
1000
,
0002
0000
0000
0003
0200
0300
0010
2000
,
0000
3000
0000
0001
0010
0001
0010
0001
,
2000
0000
0000
3000
0200
0300
0010
0002
,
0000
0003
0000
1000
0010
1000
0010
1000
,
0002
0000
0000
0003
0200
0300
0010
2000
,
0000
3000
0000
0001
0010
0001
0010
0001
,
0200
0000
0000
0000
,
0000
0300
0000
0001
1000
0100
0010
0001
,
0100
0010
0100
0001
1000
0000
0100
0010
0001
0010
0100
1000
0001
0000
1000
0000
,
0010
0100
0010
0100
0001
1000
0100
0010
0001
0100
0010
1000
0001
0000
1000
0000
,
0010
0100
0010
1000
0100
0000
0010
0001
1000
0100
1000
0010
0100
0000
0010
0000
,
1000
0000
0001
0000
1000
0000
0010
0000
1000
0000
0000
0000
0001
0000
0010
0000
0001
0000
1000
0000
0001
0000
0000
0000
4000
3000
0000
0000
0040
0030
0000
0000
,
1000
0001
1000
0001
0010
0100
1000
0001
1000
0010
0100
0001
1000
0000
0001
0000
,
0010
0100
1000
0001
1000
0000
0010
0100
0010
1000
0001
0000
1000
0100
1000
0100
,
0010
0001
0010
0001
1000
0010
0100
0001
1000
0100
0010
0001
0100
0010
1000
0001
,
1000
0000
0000
0000
0001
0000
0010
0000
0100
1000
0001
1000
0010
0000
0100
0000
,
0001
1000
0001
0100
0001
0010
0100
1000
0100
0010
0001
1000
0010
0000
1000
0000
,
0001
0000
1000
0100
1000
0000
0001
1000
0001
0100
0010
1000
0001
1000
0001
0000
,
0010
0000
0100
0000
1000
0000
0100
0000
0010
0000
0001
0000
1000
0000
0010
0000
0100
0000
0010
0000
1000
0000
0100
0000
4000
3000
0000
0000
0004
0003
0000
0000
,
1000
0000
0010
0000
1000
0000
0001
0000
0010
0000
0001
0000
1000
0010
0100
0001
,
0010
0100
1000
0100
0010
0001
1000
0010
0100
0001
0100
0010
1000
0001
1000
0000
,
0100
0010
0001
0010
0100
1000
0100
1000
0010
0100
0001
1000
0001
0100
0001
1000
,
0100
0010
0001
0100
0001
0010
0100
1000
0010
1000
0001
0100
0001
0010
0100
1000
,
0100
0010
0001
1000
0001
0100
0010
0100
0001
0010
0100
1000
0100
0010
0001
1000
,
0001
0100
0010
1000
0100
0000
1000
0001
1000
0010
1000
0100
0010
0001
0100
0001
,
1000
0010
1000
0100
0010
0100
1000
0001
0010
0100
1000
0010
0100
0001
1000
0000
,
0010
0000
0100
0010
0100
0010
1000
0100
0010
0001
1000
0010
0100
0010
1000
0001
,
0100
0001
0010
0000
0100
0000
1000
0001
1000
0010
1000
0100
0010
0001
1000
0000
,
0001
0100
0010
0100
0001
0010
0100
1000
0001
0000
1000
0010
1000
0000
0001
0000
,
0010
0100
0010
0001
1000
0010
1000
0000
0001
0000
1000
0010
1000
0100
1000
0001
,
0100
0010
0100
0001
1000
0001
0010
0001
1000
0010
1000
0010
0100
0001
0100
0000
,
0010
1000
0100
0000
0010
0000
0001
0000
1000
0000
0001
0100
0001
0000
1000
0000
,
0001
0010
0001
0010
0100
1000
0001
1000
0010
0100
0010
1000
0001
0000
1000
0000
,
0001
0000
0100
0000
0001
0000
0010
0000
0100
0000
1000
0000
0100
0000
0010
0000
0004
0003
0000
0000
0400
0300
0000
0000
0010
0000
1000
0000
0001
0000
1000
0000
,
0010
0000
1000
0000
0100
0000
0010
0000
0001
0000
0010
0000
0100
0000
1000
0000
0001
0000
1000
0000
0010
0000
0100
0000
0004
0003
0000
0000
4000
3000
0000
0000
,
0010
0100
0001
0010
0100
0000
1000
0001
1000
0001
0100
0010
0100
0001
0010
0100
,
0010
0001
1000
0100
0010
0001
1000
0010
0100
0001
1000
0001
0100
0010
1000
0001
,
0010
0100
1000
0100
0010
0000
0001
0100
0010
1000
0001
0100
0001
0010
0100
1000
,
0001
1000
0010
0100
0001
0010
0100
0010
0001
1000
0100
0010
0001
0100
0010
1000
,
0001
0100
0001
0010
0100
1000
0001
1000
0010
1000
0001
0010
0100
0010
0001
1000
,
0002
0003
1000
0020
0000
0030
2000
3000
,
0001
0010
0001
1000
0002
0003
2000
3000
,
0010
1000
0001
2000
0000
3000
0200
0300
,
0010
0001
1000
0002
0000
0003
2000
0000
,
0000
0000
0000
0000
,
3000
0000
0000
0000
,
0000
0000
0000
0001
1000
0001
1000
0001
,
0010
0100
0010
0100
1000
0001
1000
0010
0100
0001
0100
0001
1000
0100
1000
0001
,
0010
0100
1000
0001
0010
0001
1000
0010
1000
0001
1000
0010
1000
0001
1000
0010
,
0100
0001
0100
0001
1000
0010
1000
0001
0010
0100
0010
0100
1000
0001
1000
0010
,
0100
0001
0100
0010
1000
0010
0100
0001
1000
0001
0010
0001
0100
0001
1000
0001
,
0100
0010
0100
0010
1000
0001
1000
0100
0010
0001
0010
0001
1000
0010
1000
0001
,
0100
0010
1000
0001
0100
0001
1000
0100
1000
0001
1000
0100
1000
0001
1000
0100
,
0010
0001
0010
0001
1000
0100
1000
0001
0100
0010
0100
0010
1000
0001
1000
0100
,
0010
0001
0100
0010
1000
0100
0010
0001
1000
0001
0100
0001
0010
0001
0100
0010
,
1000
0100
1000
0100
0010
0001
1000
0001
0100
0010
0100
0010
1000
0001
0010
0100
,
0010
0001
1000
0100
0010
0100
1000
0001
0100
0001
1000
0001
0100
0001
0010
0001
,
0100
0010
0100
0010
1000
0001
1000
0100
0010
0001
0010
0001
1000
0010
0100
0001
,
0100
0010
1000
0100
0010
0001
1000
0100
1000
0001
1000
0100
1000
0010
0100
0001
,
1000
0010
1000
0010
0100
0001
1000
0001
0010
0100
0010
0100
1000
0001
0100
0010
,
0100
0001
1000
0010
0100
0010
1000
0001
0010
0001
1000
0001
0010
0001
1000
0001
,
0010
0100
0010
0001
0100
0010
1000
0010
0100
0001
0010
0100
1000
0100
0010
0001
,
0100
0010
0100
0010
1000
0001
1000
0100
0010
0000
0001
0000
1000
0000
0010
0000
,
0100
0001
0100
0001
0010
0100
1000
0001
0100
0010
0100
0010
1000
0100
1000
0001
,
0100
0001
1000
0010
1000
0100
0010
0001
1000
0001
0100
0001
0010
0001
1000
0001
,
0100
0010
0100
0010
1000
0100
0010
0001
1000
0010
1000
0010
0100
0001
0010
0001
,
1000
0010
0100
0001
0010
0100
1000
0001
1000
0010
1000
0100
1000
0001
1000
0100
,
0010
0001
0010
0001
0100
0010
1000
0001
0010
0100
0010
0100
1000
0010
1000
0001
,
0010
0001
1000
0100
1000
0010
0100
0001
1000
0001
0010
0001
0100
0001
1000
0001
,
0010
0100
0010
0100
1000
0010
0100
0001
1000
0100
1000
0100
0010
0001
0100
0001
,
1000
0100
0010
0001
0100
0010
1000
0001
1000
0100
1000
0001
1000
0010
1000
0100
,
0010
0001
0010
0001
0100
0010
1000
0010
0100
0001
0100
0001
0010
0100
1000
0001
,
0100
0001
1000
0010
1000
0100
0010
0001
0100
0001
1000
0001
0100
0001
0010
0001
,
0100
0010
0100
0010
1000
0100
0010
0001
1000
0100
1000
0100
0010
0001
0100
0010
,
1000
0010
0100
0001
0010
0100
1000
0001
1000
0010
1000
0100
1000
0010
1000
0001
,
0010
0100
0010
0100
1000
0010
0100
0001
1000
0010
1000
0010
0100
0001
0010
0100
,
1000
0100
0010
0001
0100
0010
1000
0001
1000
0100
1000
0010
1000
0100
1000
0001
,
0200
0000
0000
0300
0002
0003
0010
0200
,
0000
0000
0300
1000
0001
1000
0200
0300
,
2002
0000
0000
0000
,
3003
0000
0000
0000
;
