#TITLE:No. 13;
#SUBTITLE:;
#ARTIST:TAKA Respect for JSB;
#TITLETRANSLIT:;
#SUBTITLETRANSLIT:;
#ARTISTTRANSLIT:;
#CREDIT:;
#BANNER:No. 13-bn.png;
#BACKGROUND:No. 13-bg.png;
#LYRICSPATH:;
#CDTITLE:;
#MUSIC:dj Taka respect for JSB - No. 13.mp3;
#OFFSET:-0.396;
#SAMPLESTART:24.100;
#SAMPLELENGTH:11.300;
#SELECTABLE:YES;
#BPMS:0.000=172.000;
#STOPS:;
#BGCHANGES:;
// cache tags:
#FIRSTBEAT:4.000;
#LASTBEAT:335.000;
#SONGFILENAME:Songs/IzzySM Keyboard Mega Pack/No. 13/No. 13.sm;
#HASMUSIC:1;
#HASBANNER:1;
#MUSICLENGTH:121.812;
// end cache tags

//---------------dance-single - ----------------
#NOTES:
     dance-single:
     :
     Challenge:
     11:
     1.000,1.000,0.599,0.049,1.000,1045.000,73.000,6.000,0.000,0.000:  // measure 1
0000
0000
0000
0000
,  // measure 2
1000
0100
0010
0001
1000
0010
0100
0001
1000
0100
0010
0100
1000
0001
0100
0010
,  // measure 3
0001
0010
0100
1000
0010
0100
0001
0010
0001
1000
0100
0010
0100
0010
0001
1000
,  // measure 4
0001
0010
0100
1000
0001
0100
0010
1000
0001
0100
0001
1000
0001
0100
0001
0010
,  // measure 5
0001
0100
0010
1000
0001
0100
0010
1000
0001
0010
0100
1000
0001
0010
0100
0010
,  // measure 6
1001
0100
0010
0100
0010
1000
0010
0100
0001
0100
0010
0100
0010
0100
0010
1000
,  // measure 7
0010
0100
0001
0100
0010
0100
0010
0001
1000
0100
0010
0001
0100
0010
1000
0100
,  // measure 8
0010
0001
0010
0100
1000
0100
0010
0001
1000
0010
0100
0001
0100
0010
1000
0100
,  // measure 9
0010
0001
0010
0100
1000
0100
0010
0001
0010
0100
1000
0100
0010
0001
1000
0100
,  // measure 10
0000
1000
0100
0000
1100
0000
0010
0001
0100
0010
1000
0010
0000
0110
0000
1100
,  // measure 11
0000
0010
0100
0010
0000
1100
0000
0011
0000
1000
0010
0100
0000
1100
0000
1000
,  // measure 12
0010
0100
0001
0000
0001
0100
0010
0100
0000
0100
0010
0100
0000
0010
1000
0001
,  // measure 13
0000
1000
0010
0100
0001
0100
0010
1000
0100
0010
0100
0000
0100
0000
1001
0000
,  // measure 14
0000
0001
0100
0010
1000
0010
0100
0001
0010
0100
0010
0000
0010
0000
1001
0000
,  // measure 15
0000
1000
0100
0010
0001
0010
0100
1000
0100
0010
0001
0000
0010
0000
0110
0000
,  // measure 16
0000
1000
0100
0010
0100
0000
0011
0000
0000
0001
1000
0010
0100
0000
0110
0000
,  // measure 17
0000
0010
1000
0010
0000
0001
0010
0001
0000
1000
0100
1000
0001
0000
0100
0000
,  // measure 18
1001
0000
0100
0010
1000
0010
0100
0001
0100
0010
0100
0010
1000
0000
0010
0000
,  // measure 19
1000
0001
0100
0010
1000
0100
0010
0001
1000
0010
0100
0001
0100
0000
0011
0000
,  // measure 20
0001
0100
0010
1000
0010
1000
0100
0010
0001
0010
0100
1000
0001
0100
0000
0000
,  // measure 21
0100
0000
0100
0001
0010
0100
1000
0100
0010
0000
0001
0000
0010
0100
0010
0000
,  // measure 22
1000
0100
1000
0010
0100
0001
0010
0100
1000
0010
0100
0001
0010
0000
0110
0000
,  // measure 23
0001
0100
0001
0100
0010
1000
0010
1000
0100
0010
0100
0010
0001
0000
0001
0000
,  // measure 24
1000
0001
0100
0010
1000
0010
0100
0001
0010
0100
1000
0010
0100
0001
0000
0100
,  // measure 25
0010
1000
0010
0100
0001
0100
0010
1000
0100
0010
0100
1000
0001
0100
0010
0100
,  // measure 26
0001
0000
1000
0010
0100
0000
0001
0000
0100
0001
0100
0010
1000
0010
0100
0001
,  // measure 27
1010
0000
0100
0001
1100
0000
0010
0100
1001
0000
1000
0100
0011
0000
1000
0100
,  // measure 28
1000
0010
0100
0010
0100
0001
0010
0100
1000
0010
0100
0001
0010
0000
1000
0010
,  // measure 29
1001
0000
0010
0000
1001
0000
0100
0000
1001
0000
0010
0000
1000
0100
0010
0001
,  // measure 30
0100
0010
0100
0001
1000
0010
0100
0001
0100
0000
0010
0000
0110
0000
0000
1000
,  // measure 31
0001
0100
0010
0100
0001
1000
0100
0010
0001
0000
1000
0000
1001
0010
0001
0100
,  // measure 32
0010
1000
0100
1000
0100
0010
0100
0010
0001
0010
0100
1000
0001
0100
0010
0100
,  // measure 33
1001
0000
0010
0000
0101
0000
0010
0000
1100
0000
0010
0000
1001
0000
0000
0100
,  // measure 34
0001
1000
0010
0100
0001
0010
0100
1000
0010
0100
0010
0100
0001
0000
0110
0000
,  // measure 35
0010
0000
0100
0000
0011
0000
0100
0001
1000
0010
0100
0001
0010
0000
0010
0000
,  // measure 36
1010
0000
0100
0010
1000
0010
0100
0001
0100
0010
0100
0001
1000
0100
0000
0010
,  // measure 37
0000
1000
0100
1000
0010
0100
0001
0100
0010
1000
0100
1000
0010
0000
0101
0000
,  // measure 38
0100
0010
1000
0010
1000
0000
0100
0000
0010
0001
0100
0001
0100
0000
0100
0000
,  // measure 39
1001
0100
1100
0100
0011
0100
1001
0100
,  // measure 40
0010
0001
0100
0010
1000
0000
0010
0000
0100
0001
0010
1000
0001
0000
0010
0000
,  // measure 41
1010
0000
0100
0001
0110
0000
0001
0010
1100
0000
0010
0100
1001
0000
1000
0000
,  // measure 42
0100
0010
0001
1000
0100
0010
0001
1000
0100
0000
0010
0000
0100
0000
1000
0001
,  // measure 43
1000
0010
0100
0010
1000
0001
0100
0010
0100
0000
0010
0000
0010
1000
0100
0010
,  // measure 44
0100
1000
0100
0010
0001
1000
0010
0100
0001
0100
0010
0100
0001
0010
0100
1000
,  // measure 45
0220
0000
0000
0000
0000
0000
0000
0330
,  // measure 46
0001
0100
0010
0100
0001
0100
0010
1000
,  // measure 47
0110
0010
0100
0001
,  // measure 48
1000
0100
0010
0001
1000
0100
0010
0001
,  // measure 49
0100
0010
1000
0100
,  // measure 50
1001
0000
0010
0000
0100
0000
0001
0000
0010
0000
0100
1000
0010
0000
0100
0000
,  // measure 51
0010
0100
0001
0010
0100
0010
0001
0100
0010
1000
0010
0100
0010
0000
0100
0000
,  // measure 52
0010
0000
0010
0100
0010
0000
0010
1000
0010
0000
0010
0000
0100
0000
0001
0000
,  // measure 53
0100
0000
0001
0100
0001
0000
1000
0100
1000
0000
0010
1000
0010
0000
0010
0100
,  // measure 54
0010
1000
0010
0100
0001
0010
0100
1000
0001
0100
0001
1000
0010
0100
0001
0010
,  // measure 55
0100
0010
0001
1000
0100
0010
0100
1000
0010
0100
0001
1000
0010
0100
0010
1000
,  // measure 56
0100
1000
0010
0100
0001
0010
0001
0100
0010
1000
0100
0010
0001
0100
0010
1000
,  // measure 57
0100
0010
0001
0010
0100
0010
0001
1000
0001
0010
0100
0010
0001
0010
0100
1000
,  // measure 58
0010
1000
0001
0100
0001
0010
0100
0010
0001
0010
0100
1000
0100
0010
0001
0100
,  // measure 59
2002
0000
0000
3003
,  // measure 60
0001
0100
0001
0100
0010
1000
0010
1000
0100
0010
0100
0010
0001
0010
0100
1000
,  // measure 61
0001
0010
0001
1000
0010
0100
0010
1000
0010
0100
0010
0100
0001
0010
0100
1000
,  // measure 62
0010
1000
0100
0010
0001
0010
0100
1000
0100
0010
0001
0010
0100
1000
0100
0010
,  // measure 63
0001
0010
0100
1000
0100
0010
0001
0100
1001
0000
0110
0000
1100
0000
0011
0000
,  // measure 64
1001
0100
0010
1000
0100
0010
0001
0100
0010
0100
1000
0001
0100
0010
0100
0001
,  // measure 65
0010
0001
1000
0100
1000
0010
0100
0001
1010
0000
0110
0000
0101
0000
1010
0000
,  // measure 66
1010
0100
0010
0001
0100
0010
1000
0100
1000
0100
0010
0100
1000
0010
0100
0010
,  // measure 67
1000
0100
1000
0010
1000
0100
0010
0100
1001
0000
0110
0000
1001
0000
0110
0000
,  // measure 68
1001
0100
1000
0010
1000
0100
0010
0001
,  // measure 69
1000
0100
0010
0100
1000
0010
0100
0010
,  // measure 70
1001
1100
0110
1100
0011
0110
0101
1010
,  // measure 71
1001
0000
1010
0000
1100
0000
0101
0000
1000
0100
1000
0100
0010
0001
0010
0001
,  // measure 72
0010
1000
0010
0100
0010
1000
0010
0100
,  // measure 73
0001
0100
0010
1000
0010
0100
0001
0100
,  // measure 74
0001
0100
0001
0100
0001
0100
0001
0100
0001
0100
0001
0100
0001
0100
0001
0100
,  // measure 75
0010
1000
0010
1000
0010
1000
0010
1000
0010
1000
0010
1000
0010
1000
0010
1000
0010
1000
0010
1000
0010
1000
0010
1000
,  // measure 76
0010
0100
0010
0001
1000
0010
0100
0001
0100
0010
1000
0100
0010
0100
1000
0100
,  // measure 77
0010
0100
0001
0100
0010
1000
0010
0100
0010
1000
0001
0100
0010
0100
0001
0010
,  // measure 78
0100
0010
0001
1000
0100
1000
0010
0100
0001
0100
0010
1000
0010
0100
0010
0100
,  // measure 79
0001
0010
0100
1000
0001
0010
0100
1000
0001
0100
0010
1000
0001
0100
0010
1000
,  // measure 80
0100
0001
0010
0001
1000
0100
1000
0001
0100
0001
1000
0010
1000
0100
0010
1000
,  // measure 81
0100
0001
0100
0010
1000
0100
0010
0100
0001
0100
0010
1000
0010
0100
0001
0100
,  // measure 82
0010
1000
0010
0100
0010
0001
1000
0010
1000
0100
0010
0100
0001
0100
1000
0100
,  // measure 83
1001
0100
1000
0001
2200
0000
0000
0000
,  // measure 84
0000
0000
0000
3300
;
