#TITLE:Black Betty;
#SUBTITLE:;
#ARTIST:SPIDERBAIT;
#TITLETRANSLIT:;
#SUBTITLETRANSLIT:;
#ARTISTTRANSLIT:;
#CREDIT:;
#BANNER:Black_Betty_BN.jpg;
#BACKGROUND:Black_Betty_BG.jpg;
#LYRICSPATH:;
#CDTITLE:;
#MUSIC:Black Betty.mp3;
#OFFSET:-0.300;
#SAMPLESTART:17.440;
#SAMPLELENGTH:12.000;
#SELECTABLE:YES;
#BPMS:0.000=124.020,144.000=124.100,256.000=124.000,312.000=123.900,344.000=248.000,406.000=240.500,408.000=244.500;
#STOPS:;
#BGCHANGES:;
// cache tags:
#FIRSTBEAT:16.000;
#LASTBEAT:448.000;
#SONGFILENAME:Songs/new/Black Betty/Black Betty.sm;
#HASMUSIC:1;
#HASBANNER:1;
#MUSICLENGTH:196.324;
// end cache tags

//---------------dance-single - ----------------
#NOTES:
     dance-single:
     :
     Hard:
     9:
     0.459,0.570,0.143,0.051,0.214,593.000,28.000,10.000,0.000,0.000:
0000
0000
0000
0000
,
0000
0000
0000
0000
,
0000
0000
0000
0000
,
0000
0000
0000
0000
,
1000
0100
1000
0000
0001
0100
0001
0000
,
0010
0020
0000
0000
0100
0000
0130
0000
,
0001
0100
0001
0000
1000
0100
1000
0000
,
0010
0020
0000
0000
0100
0000
1000
0000
,
0001
0000
1000
0000
0100
0000
1030
0001
,
0100
0000
0001
0000
0010
0100
0000
0000
1000
0000
0000
1000
0000
0000
1000
0000
,
0010
0000
0100
0000
0010
1000
0000
0000
0001
0000
0000
0001
0000
0000
0001
0000
,
0100
0000
0001
0000
0010
0000
0000
0000
0100
0000
0000
0100
0000
0000
0100
0000
,
1000
0000
0010
0000
0100
0000
0000
0000
0001
0000
0000
0001
0000
0000
0010
0000
,
0100
0000
1000
0000
0001
1000
0000
0000
0100
0000
0000
0010
0000
0000
0100
0000
,
1000
0000
0010
0000
0100
0001
0000
0000
1000
0000
0000
0001
0000
0000
1000
0000
,
0010
0000
0100
0000
0001
0010
0000
0000
0100
0000
0000
1000
0000
0000
0100
0000
,
0010
0000
0001
0000
1000
0001
0000
0000
1000
0000
0000
0010
0000
0000
1000
0000
,
0001
0100
0001
0001
1000
0100
1000
1000
,
0010
1000
0010
0010
0100
0001
0100
0100
,
0001
1000
0010
0010
1000
0001
0010
0010
,
0100
0000
1000
0000
0001
0000
0000
0100
0000
0000
1000
0000
0010
0000
0100
0000
,
0001
0000
0010
0000
0100
0000
0000
0010
0000
0000
0001
0000
1000
0000
0010
0000
,
0100
0000
0010
0000
1000
0000
0000
0001
0000
0000
0010
0000
0100
0000
0010
0000
,
0001
0000
1000
0000
0001
0000
0000
1000
0000
0000
0010
0000
0100
0000
0001
0000
,
1001
1001
1010
1010
,
0011
0011
1001
0110
,
0010
0000
1000
0000
0100
0010
0000
0000
0001
0000
0000
0001
0000
0000
0001
0000
,
0100
0000
0010
0000
0100
0001
0000
0000
1000
0000
0000
1000
0000
0000
1000
0000
,
0010
0000
1000
0000
0100
0000
0000
0000
0010
0000
0000
0010
0000
0000
0010
0000
,
0001
0000
0100
0000
0010
0000
0000
0000
1000
0000
0000
1000
0000
0000
0100
0000
,
0010
0000
0001
0000
1000
0001
0000
0000
0010
0000
0000
0100
0000
0000
0010
0000
,
0001
0000
0100
0000
0010
1000
0000
0000
0001
0000
0000
1000
0000
0000
0001
0000
,
0100
0000
0010
0000
1000
0100
0000
0000
0010
0000
0000
0001
0000
0000
0010
0000
,
0100
0000
1000
0000
0001
1000
0000
0000
0001
0000
0000
0100
0000
0000
0001
0000
,
1000
0000
0000
0000
0100
0010
0100
0000
1000
0000
0001
0000
0100
0000
0001
0000
,
0010
0000
0000
0000
0100
1000
0100
0000
0010
0000
0000
0000
0000
0000
0000
0000
,
2002
0000
0000
0000
,
0000
0000
0000
3003
,
0000
0100
0000
0000
0000
0001
0000
0000
0000
0100
0000
0000
0000
1000
0000
0000
0000
0000
0000
0000
0010
0000
0000
0000
0100
0000
0001
0000
0100
0000
0000
0000
,
0001
0000
0000
0001
0010
0000
0000
0000
0100
0000
0000
0100
1000
0000
0000
0000
,
0202
0303
2200
3300
,
1001
0000
0110
0000
1001
0000
0010
0100
,
1000
0000
1000
0000
1000
0000
1000
0010
,
0100
0000
0100
0000
0100
0000
0100
0001
,
0010
0000
0010
0000
0010
0000
0010
0100
,
0001
0000
0001
0000
0001
0000
0001
0100
,
0010
0000
0010
0000
0010
0000
0010
1000
,
0001
0000
0001
0000
0001
0000
0001
0010
,
0100
0000
0100
0000
0100
0000
0100
0010
,
1000
0000
0010
0000
0001
0000
0100
0000
0110
0000
0000
1010
0000
0000
1001
0000
,
0100
0000
0001
0000
0010
0100
0000
0000
1000
0000
1000
0010
0000
0010
0100
0000
,
0010
0000
1000
0000
0100
0010
0000
0000
0001
0000
0001
0100
0000
0100
0010
0000
,
1000
0000
0001
0000
0100
0001
0000
0000
1000
0000
1000
0100
0000
0100
1000
0000
,
0001
0000
1000
0000
0010
1000
0000
0000
0001
0000
0001
0010
0000
0010
0001
0000
,
0010
0000
1000
0000
0100
0010
0000
0000
0001
0000
0001
0100
0000
0100
0010
0000
,
0100
0000
0001
0000
0010
0100
0000
0000
1000
0000
1000
0010
0000
0010
0100
0000
,
0001
0000
1000
0000
0010
1000
0000
0000
0001
0000
0001
0010
0000
0010
0001
0000
,
1000
0000
0001
0000
0100
0001
0000
0000
1100
0000
0000
0101
0000
0000
1001
0000
,
0100
0000
0000
0000
0010
0000
0000
0001
0000
0000
0010
0000
0100
0000
1000
0000
,
0010
0000
0000
0000
0100
0000
0000
1000
0000
0000
0100
0000
0010
0000
0001
0000
,
0100
0000
0000
0000
0001
0000
0000
1000
0000
0000
0001
0000
0100
0000
0001
0000
,
1000
0000
0010
0100
0010
1000
0001
0000
,
0010
0000
0000
0000
0100
0000
0000
1000
0000
0000
0100
0000
0010
0000
0001
0000
,
0100
0000
0000
0000
0010
0000
0000
0001
0000
0000
0010
0000
0100
0000
1000
0000
,
0010
0000
0000
0000
1000
0000
0000
0001
0000
0000
1000
0000
0010
0000
1000
0000
,
0001
0000
0000
0000
0100
0000
0010
0000
0100
0000
0000
0101
0000
0000
1100
0000
,
1001
0001
0001
0001
,
1001
1000
1000
1000
,
0110
0010
0010
0010
,
0110
0000
0100
0000
0100
0000
0100
1000
,
0010
0000
1000
0000
0100
0010
0000
0000
0001
0000
0000
0001
0000
0000
0001
0000
,
0100
0000
0010
0000
0100
0001
0000
0000
1000
0000
0000
1000
0000
0000
1000
0000
,
0010
0000
1000
0000
0100
0000
0000
0000
0010
0000
0000
0010
0000
0000
0010
0000
,
0001
0000
0100
0000
0010
0000
0000
0000
1000
0000
0000
1000
0000
0000
0100
0000
,
0010
0000
0001
0000
1000
0000
0000
0000
0010
0000
0000
0100
0000
0000
0010
0000
,
1000
0000
0100
0000
0010
0000
0000
0000
0001
0000
0000
1000
0000
0000
0001
0000
,
0100
0000
0010
0000
1000
0100
0000
0000
0010
0000
0000
0001
0000
0000
0010
0000
,
0100
0000
1000
0000
0001
1000
0000
0000
0001
0000
0000
0100
0000
0000
0001
0000
,
1000
0010
1000
1000
0001
0010
0001
0001
,
0100
0001
0100
0100
0010
1000
0010
0010
,
1000
0001
0100
0100
0001
1000
0100
0100
,
0010
0001
0010
0010
0010
1000
0010
0010
,
0100
0001
0010
0010
0100
1000
0010
0010
,
0100
1000
0001
0001
0100
0001
1000
1000
,
0010
1000
0100
0100
0010
0001
0100
0100
,
0001
1000
0010
0010
1000
0001
0010
0010
,
0100
0000
1000
0000
0001
0000
0001
0100
,
0000
0000
0001
0000
0010
0100
0010
0000
,
0100
0000
1000
0000
0010
0000
0010
0100
,
0000
0000
0010
0000
1000
0100
1000
0000
,
0010
0000
0100
0000
0001
0000
0010
0100
,
0000
0000
0010
0000
0001
0100
0001
0000
,
1000
0000
0100
0000
1000
0000
0010
0100
,
0000
0000
0010
0000
1000
0001
1000
0000
,
0010
0000
0001
0000
1000
0000
1000
0010
,
0000
0000
1000
0000
0100
0010
0100
0000
,
0010
0000
0001
0000
0100
0000
0100
0010
,
0000
0000
0100
0000
0001
0010
0001
0000
,
0100
0000
0010
0000
1000
0000
0100
0010
,
0000
0000
0100
0000
1000
0010
1000
0000
,
0001
0000
0010
0000
0001
0000
0100
0010
,
0000
0100
0001
0000
,
0220
0000
0000
0000
,
0000
0000
0000
0000
,
0000
0000
0000
0000
,
0000
0000
0000
0000
,
0000
0000
0000
0000
,
0000
0000
0000
0000
,
0000
0000
0000
0000
,
0000
0000
0000
0000
,
0000
0000
0000
0000
,
0000
0000
0000
0330
,
1001
0000
0000
0000
;

//---------------dance-single - ----------------
#NOTES:
     dance-single:
     :
     Challenge:
     10:
     0.606,0.713,0.275,0.046,0.464,770.000,54.000,9.000,0.000,0.000:
0000
0000
0000
0000
,
0000
0000
0000
0000
,
0000
0000
0000
0000
,
0000
0000
0000
0000
,
1000
0100
1000
0000
0100
0000
0100
0000
0010
0001
0010
0000
0001
0000
0001
0000
,
1000
0010
1000
0000
0010
0000
0010
0000
0100
0001
0100
0000
0001
0000
0001
0000
,
0010
0100
1000
0000
0001
0000
0001
0000
1000
0010
0100
0000
0010
0000
0010
0000
,
1000
0100
0010
0000
0001
0000
0001
0000
0100
0010
1000
0000
0001
0000
0001
0000
,
1000
0100
1000
0000
0001
0000
0001
0000
0001
0100
0001
0000
1000
0000
0010
0000
,
0100
0000
0010
0000
1000
0010
0000
0000
0100
0000
0100
0001
0000
0000
0010
0000
,
0100
0000
1000
0000
0001
1000
0000
0000
0001
0000
0001
0100
0000
0000
0010
0000
,
1000
0100
1000
0100
0010
0000
0000
0000
0001
0000
0001
0100
0000
0000
0010
0000
,
1000
0000
0101
0000
1100
0000
0000
0000
0010
0000
0010
0100
0000
0000
0100
0010
,
0000
0000
0001
0000
0100
0001
0000
0000
1000
0000
1000
0100
0000
0000
0010
0001
,
0000
0000
0010
0000
0100
1000
0000
0000
0001
0000
0001
0100
0000
0000
0010
0000
,
1000
0000
0010
0000
0100
0001
0000
0000
1000
0000
1000
0100
0000
0000
0010
0000
,
0001
0000
0010
0000
0100
1000
0000
0000
0001
0000
0001
0100
0000
0000
0010
0000
,
1000
0100
0010
0000
0001
0000
0001
0000
0001
0100
0010
0000
1000
0000
1000
0000
,
1000
0010
0100
0000
0001
0000
0001
0000
0001
0100
0010
0000
1000
0000
1000
0000
,
0001
0100
0001
0000
0001
0000
0001
0000
1000
0100
1000
0000
1000
0000
1000
0000
,
0001
0000
0100
0000
0001
0000
0001
1000
0000
0000
0100
0000
1000
0010
1000
0000
,
1000
0000
0100
0000
1000
0000
1000
0001
0000
0000
0100
0000
0001
0010
0001
0000
,
0001
0000
0010
0000
0001
0000
0001
1000
0000
0000
0010
0000
1000
0100
1000
0000
,
1000
0000
0010
0000
1000
0000
1000
0001
0000
0000
0010
0000
0001
0100
0001
0000
,
1100
0000
1000
0001
0101
0000
0001
1000
,
1010
1000
1100
0100
0110
0110
0011
0001
,
0010
0000
0100
0000
1000
0100
0000
0000
0010
0000
0010
1000
0000
0000
0100
0000
,
0010
0000
0001
0000
1000
0001
0000
0000
1000
0000
1000
0010
0000
0100
0001
0010
,
0001
0000
0100
0000
0010
0000
0000
0000
1000
0000
1000
0010
0000
0000
0100
0000
,
0001
0000
1000
0000
0010
0000
0000
0000
0100
0000
0100
0010
0000
0000
0010
0100
,
0000
0000
1000
0000
0010
1000
0000
0000
0001
0000
0001
0010
0000
0000
0100
1000
,
0000
0000
0100
0000
0010
0001
0000
0000
1000
0000
1000
0010
0000
0000
0100
0000
,
0001
0000
0100
0000
0010
1000
0000
0000
0001
0000
0001
0010
0000
0000
0100
0000
,
1000
0000
0100
0000
0010
0001
0000
0000
1000
0000
1000
0010
0000
0000
0100
0000
,
0001
0000
0000
0000
1000
0010
0100
0000
0001
0000
1000
0100
1000
0000
0010
0000
,
0200
0000
0000
0000
0301
0100
0001
0000
2002
0000
0000
0000
3003
0000
0000
0000
,
1000
0000
0000
0000
0000
0000
0000
0000
1000
0000
0000
0000
0100
0000
0000
0000
0000
0000
0000
0000
1000
0000
0000
0000
0100
0000
0000
0000
0000
0000
0000
0000
1000
0000
0000
0000
0010
0000
0000
0000
0000
0000
0000
0000
0010
0000
0000
0000
0000
0000
0000
0100
0000
0000
0001
0000
0000
0100
0000
0000
0000
0000
0000
0000
,
0000
0000
0000
0100
0000
0000
0000
0000
0000
0000
0000
0000
0000
0000
0000
0000
0000
0000
0000
0000
0000
0010
0000
0000
0000
0000
0000
0000
0000
0000
1000
0000
0000
0000
0000
0000
0000
0000
0000
0010
0000
0000
0000
0000
0000
0000
0000
0000
0000
0000
0000
0000
0000
0000
0000
0000
0000
0010
0000
0000
0000
0000
0000
0000
0000
0000
0100
0000
0000
0000
0000
0000
0000
0000
0000
0010
0000
0000
0000
0000
0000
0000
0000
0000
0000
0000
0000
0000
0000
0000
0000
0000
0000
1000
0000
0000
0000
0000
0000
0000
0000
0000
0000
0000
0001
0000
0000
0000
0000
0000
0000
0000
0000
0000
0000
0000
0000
0000
0000
0000
0010
0000
0000
0000
0000
0000
0000
0000
0000
0000
0000
0000
0000
0000
0000
0000
0001
0000
0000
0000
0000
0000
0000
0000
0000
0000
0000
0000
0000
0000
0000
0000
1000
0000
0000
0000
0000
0000
0000
0000
0000
0000
0000
0000
0000
0000
0000
0000
0010
0000
0000
0000
0000
0000
0000
0000
0000
0000
0000
0000
0000
0000
0000
1000
0000
0000
0000
0000
0000
0000
0000
0000
,
0000
0100
0000
0000
0000
0001
0000
0000
0000
0100
0000
0000
0000
1000
0000
0000
0000
0000
0000
0000
0001
0000
0000
0000
1000
0000
0100
0000
1000
0000
0000
0000
,
0010
0000
0000
0010
0100
0000
0000
0000
0001
0000
0000
0001
1000
0000
0000
0000
,
0220
0330
2002
3003
,
1100
0000
0101
0000
1010
0000
0011
0001
,
1100
0000
1000
0000
1100
0000
0100
0010
,
0011
0000
0001
0000
0011
0000
0010
0100
,
0110
0000
0100
0000
0110
0000
0010
0001
,
0101
0000
0100
0000
0101
0000
0001
1000
,
1010
0000
0010
0000
1010
0000
1000
0001
,
1001
0000
0001
0000
1001
0000
1000
0010
,
0110
0000
0010
0000
0110
0000
0100
0010
,
1000
0000
0010
0000
0001
0000
1000
0000
0001
0000
0000
1100
0000
0000
0101
0000
,
1000
0100
1000
0000
0001
0100
0000
0010
1000
0000
1000
0100
0000
0100
0010
0100
,
1000
0010
1000
0000
0001
1000
0000
0000
0100
0000
0100
1000
0000
0010
0100
0010
,
0001
0010
0001
0000
1000
0010
0000
0100
0001
0000
0001
0010
0000
0010
0100
0010
,
0001
0100
0001
0000
1000
0001
0000
0000
0010
0000
0010
0001
0000
0001
0100
0000
,
0001
0010
0001
0000
1000
0010
0000
0100
0001
0000
0001
0010
0000
0010
0100
0010
,
0001
0100
0001
0000
1000
0001
0000
0000
0010
0000
0010
0001
0000
0100
0010
0100
,
1000
0100
1000
0000
0001
0100
0000
0010
1000
0000
1000
0100
0000
0100
0010
0100
,
1000
0010
1000
0000
0001
1000
0000
0000
0100
0000
0100
1000
0000
1000
0010
0000
,
0101
0000
0000
0000
1000
0000
1000
0100
0000
0100
1000
0000
0010
0000
0100
0000
,
0010
0000
0000
0000
0100
0000
0100
0001
0000
0001
0100
0000
0010
0000
1000
0000
,
0010
0000
0000
0000
0100
0000
0100
0010
0000
0010
0100
0000
0001
0000
0100
0000
,
0001
0000
0000
0000
1000
0000
0100
1000
0010
0000
0000
0101
0000
0000
1100
0000
,
1001
0000
0000
0000
0001
0000
0001
0010
0000
0010
0001
0000
0100
0000
0010
0000
,
0100
0000
0000
0000
0010
0000
0010
1000
0000
1000
0010
0000
0100
0000
0001
0000
,
0100
0000
0000
0000
0010
0000
0010
0100
0000
0100
0010
0000
1000
0000
0010
0000
,
1000
0000
0000
0000
0001
0000
0010
0001
0100
0000
0000
1010
0000
0000
0011
0000
,
1001
1000
0001
1000
0001
1000
0001
1000
,
0110
0010
0100
0010
0100
0010
0100
0010
,
0011
0001
0010
0001
0010
0001
0010
0001
,
0101
0100
0001
0100
0001
0100
0001
0100
,
0010
0000
0100
0000
0001
0100
0000
0000
0010
0000
0010
1000
0000
0000
0100
0000
,
0010
0000
0001
0000
1000
0001
0000
0000
1000
0000
1000
0010
0000
0000
0100
0000
,
0001
0000
0001
0010
0100
0000
0000
0000
1000
0000
1000
0010
0000
0000
0100
0001
,
0000
0000
0010
0100
0010
0000
0000
0000
0100
0000
0100
0010
0000
0000
0100
0000
,
0001
1000
0010
0100
0010
0000
0000
0000
0001
0000
0001
0010
0000
0000
0100
0000
,
1000
0000
0100
0000
0010
0001
0000
0000
1000
0000
1000
0010
0000
0000
0100
0000
,
0001
0000
0100
0000
0010
1000
0000
0000
0001
0000
0001
0010
0000
0000
0100
0000
,
1000
0000
0100
0000
0010
0001
0000
0000
1000
0000
1000
0010
0000
0000
0100
0000
,
0001
0010
0100
0000
1000
0000
1000
0000
1000
0010
0100
0000
0001
0000
0001
0000
,
0001
0100
0010
0000
1000
0000
1000
0000
1000
0010
0100
0000
0001
0000
0001
0000
,
1000
0010
1000
0000
1000
0000
1000
0000
0001
0010
0001
0000
0001
0000
0001
0000
,
0001
0010
0001
0000
0010
0000
0010
0000
0100
1000
0100
0000
1000
0000
1000
0000
,
0001
0100
0001
0000
0100
0000
0100
0000
0010
1000
0010
0000
1000
0000
1000
0000
,
0100
0010
0001
0000
1000
0000
1000
0000
0001
0100
0010
0000
0100
0000
0100
0000
,
0001
0010
0100
0000
1000
0000
1000
0000
0010
0100
0001
0000
1000
0000
1000
0000
,
0001
0010
0001
0000
1000
0000
1000
0000
1000
0010
1000
0000
0001
0000
0100
0000
,
0010
0000
1000
0000
0001
0100
0001
0100
,
0001
1100
0101
1100
,
0010
0000
1000
0000
0001
0010
0001
0010
,
0001
0100
0010
0100
,
0010
0000
1000
0000
0100
1000
0100
1000
,
0100
0011
1010
0011
,
0100
0000
1000
0000
0010
0100
0010
0100
,
0010
1000
0001
1000
,
0001
0000
0100
0000
0010
1000
0100
1000
,
0010
0101
0110
1010
,
1000
0000
0100
0000
0010
0001
0100
0001
,
0010
0100
0001
0100
,
0010
0000
0001
0000
0100
0001
0010
0001
,
0100
0001
0100
1000
,
0100
0000
0001
0000
0010
0100
1000
0100
,
0010
0001
1001
0000
,
0220
0000
0000
0000
,
0000
0000
0000
0000
,
0000
0000
0000
0000
,
0000
0000
0000
0000
,
0000
0000
0000
0000
,
0000
0000
0000
0000
,
0000
0000
0000
0000
,
0000
0000
0000
0000
,
0000
0000
0000
0000
,
0000
0000
0000
0330
,
1001
0000
0000
0000
;

//---------------dance-single - ----------------
#NOTES:
     dance-single:
     :
     Medium:
     7:
     0.372,0.485,0.204,0.051,0.079,461.000,40.000,10.000,0.000,0.000:
0000
0000
0000
0000
,
0000
0000
0000
0000
,
0000
0000
0000
0000
,
0000
0000
0000
0000
,
1000
0001
1000
0000
1000
0001
1000
0000
,
0001
1000
0001
0000
0001
1000
0001
0000
,
0100
0010
0100
0000
0100
0010
0100
0000
,
0010
0100
0010
0000
0010
0100
0010
0000
,
0010
0100
0010
0100
0010
0100
0010
0000
,
1000
0000
0100
0000
1000
0000
0000
0000
0001
0000
0000
0001
0000
0000
0000
0000
,
0001
0000
0100
0000
0001
0000
0000
0000
1000
0000
0000
1000
0000
0000
0000
0000
,
1000
0000
0010
0000
1000
0000
0000
0000
0100
0000
0000
0100
0000
0000
0000
0000
,
0001
0000
0010
0000
0001
0000
0000
0000
0010
0000
0000
0010
0000
0000
0000
0000
,
0100
0000
1000
0000
0001
0000
0000
0000
1000
0000
0000
1000
0000
0000
0000
0000
,
0100
0000
1000
0000
0001
0000
0000
0000
1000
0000
0000
1000
0000
0000
0000
0000
,
0010
0000
1000
0000
0100
0000
0000
0000
1000
0000
0000
1000
0000
0000
0000
0000
,
0010
0000
0001
0000
0100
0000
0000
0000
0001
0000
0000
0001
0000
0000
0000
0000
,
1000
0010
0100
0000
0010
1000
0010
0000
,
0100
0001
0010
0000
0001
0010
0001
0000
,
0001
1000
0001
1000
0001
1000
0001
0000
,
1000
0100
1100
0010
,
0001
0100
0101
0010
,
1000
0001
1001
0010
,
0100
1000
1010
1001
,
0011
0101
1010
1100
,
1001
0110
1001
0110
,
0001
0000
0010
0000
0001
0000
0000
0000
1000
0000
0000
1000
0000
0000
0000
0000
,
1000
0000
0010
0000
1000
0000
0000
0000
0001
0000
0000
0001
0000
0000
0000
0000
,
0001
0000
0100
0000
0001
0000
0000
0000
0010
0000
0000
0010
0000
0000
0000
0000
,
1000
0000
0100
0000
1000
0000
0000
0000
0100
0000
0000
0100
0000
0000
0000
0000
,
0010
0000
0001
0000
1000
0000
0000
0000
0001
0000
0000
0001
0000
0000
0000
0000
,
0010
0000
0001
0000
1000
0000
0000
0000
0001
0000
0000
0001
0000
0000
0000
0000
,
0100
0000
0001
0000
0010
0000
0000
0000
0001
0000
0000
0001
0000
0000
0000
0000
,
0100
0000
1000
0000
0010
0000
0000
0000
1000
0000
0000
1000
0000
0000
0000
0000
,
0001
0000
1000
0100
1000
0001
0100
0000
,
0110
1001
0220
0330
,
2002
0000
0000
0000
,
0000
0000
0000
3003
,
0000
1000
0000
0000
0000
0001
0000
0000
0000
1000
0000
0000
0000
0001
0000
0000
0000
0000
0000
0000
0100
0000
0000
0000
0010
0000
0000
0000
0000
0000
0000
0000
,
1000
0101
0001
1100
,
0220
0330
2002
3003
,
1100
0101
1100
0101
,
0010
0000
0010
0000
0010
0000
0010
0010
,
1000
0000
1000
0000
1000
0000
1000
1000
,
0001
0000
0001
0000
0001
0000
0001
0001
,
0100
0000
0100
0000
0100
0000
0100
0010
,
1000
0000
1000
0000
1000
0000
1000
0100
,
0010
0000
0010
0000
0010
0000
0010
0001
,
0100
0000
0100
0000
0100
0000
0100
0001
,
0010
0000
0100
0000
0010
0000
0100
0000
1000
0000
0000
0001
0000
0000
1000
0000
,
0001
0100
0001
0000
1000
0000
1000
0000
,
1000
0100
1000
0000
0001
0000
0001
0000
,
0010
0100
0010
0000
1000
0000
1000
0000
,
0010
0100
0010
0000
0001
0000
0001
0000
,
1000
0100
0010
0000
0001
0000
0001
0000
,
0001
0100
0010
0000
1000
0000
1000
0000
,
1000
0010
0100
0000
0010
0000
0010
0000
,
0001
0000
0010
0000
0100
0000
0000
0000
1000
0000
0000
1000
0000
0000
1000
0000
,
0001
0000
0101
0000
1100
0000
0010
0100
,
0010
0000
1100
0000
0101
0000
0100
0010
,
0100
0000
1010
0000
0011
0000
1000
0001
,
1000
0000
0010
0100
0010
0100
0010
0000
,
0100
0000
0101
0000
0011
0000
0001
1000
,
0001
0000
1100
0000
1010
0000
0010
0100
,
0010
0000
1100
0000
0101
0000
0010
0100
,
0010
0000
1000
0000
0010
0000
0100
0000
0010
0000
0000
0010
0000
0000
1000
0000
,
0100
0010
0100
0010
,
0001
1000
0001
1000
,
0010
0100
0010
0100
,
0001
1000
0001
1000
,
0001
0000
0100
0000
0001
0000
0000
0000
0001
0000
0000
1000
0000
0000
0000
0000
,
1000
0000
0100
0000
1000
0000
0000
0000
0001
0000
0000
0001
0000
0000
0000
0000
,
0001
0000
0010
0000
0001
0000
0000
0000
0100
0000
0000
0100
0000
0000
0000
0000
,
1000
0000
0010
0000
1000
0000
0000
0000
0010
0000
0000
0010
0000
0000
0000
0000
,
0100
0000
0001
0000
1000
0000
0000
0000
0001
0000
0000
0001
0000
0000
0000
0000
,
0100
0000
0001
0000
1000
0000
0000
0000
0001
0000
0000
0001
0000
0000
0000
0000
,
0010
0000
0001
0000
0100
0000
0000
0000
0001
0000
0000
0001
0000
0000
0000
0000
,
0010
0000
1000
0000
0100
0000
0000
0000
1000
0000
0000
1000
0000
0000
0000
0000
,
0001
1000
0001
0000
0001
1000
0001
0000
,
1000
0001
1000
0000
1000
0001
1000
0000
,
0010
0100
0010
0000
0010
0100
0010
0000
,
0100
0010
0100
0000
0100
0010
0100
0000
,
0001
0100
0010
0000
0100
0001
0100
0000
,
0010
1000
0100
0000
1000
0100
1000
0000
,
1000
0100
0010
0000
0100
1000
0100
0000
,
0010
0001
0100
0001
0010
0100
0010
0000
,
0100
1000
0010
0000
,
0100
0100
0100
0000
,
0100
0001
0010
0000
,
0100
0100
0100
0000
,
0010
1000
0100
0000
,
1000
1000
1000
0000
,
0010
0001
0100
0000
,
0001
0001
0001
0000
,
0010
0100
0010
0000
,
0100
0010
0100
0000
,
1000
0001
1000
0000
,
0001
1000
0001
0000
,
1000
0100
0010
0000
,
0001
0100
0010
0000
,
1000
0100
0010
0001
,
1000
0000
0110
0000
,
2002
0000
0000
0000
,
0000
0000
0000
0000
,
0000
0000
0000
0000
,
0000
0000
0000
0000
,
0000
0000
0000
0000
,
0000
0000
0000
0000
,
0000
0000
0000
0000
,
0000
0000
0000
0000
,
0000
0000
0000
0000
,
0000
0000
0000
3003
,
0110
0000
0000
0000
;

//---------------dance-single - ----------------
#NOTES:
     dance-single:
     :
     Easy:
     5:
     0.296,0.485,0.234,0.041,0.023,353.000,46.000,8.000,0.000,0.000:
0000
0000
0000
0000
,
0000
0000
0000
0000
,
0000
0000
0000
0000
,
0000
0000
0000
0000
,
1000
0100
1000
1000
,
0001
0100
0001
0001
,
1000
0010
1000
1000
,
0001
0010
0001
0001
,
1000
0001
1000
0001
,
1000
0010
0100
0100
,
0001
0010
0100
0100
,
1000
0001
1000
1000
,
0001
1000
0001
0001
,
0010
0100
1000
1000
,
0010
0100
0001
0001
,
1000
0100
1000
1000
,
0001
0100
0001
0001
,
0010
1000
0100
1000
,
0010
0100
0001
0010
,
0001
1000
1001
0110
,
1000
0100
1000
0000
,
0001
0100
0001
0000
,
1000
0010
1000
0000
,
0001
0010
0001
0000
,
1001
0000
0100
0000
,
0110
0000
0010
1000
,
0001
0100
0010
0010
,
1000
0100
0010
0010
,
0001
1000
0001
0001
,
1000
0001
1000
1000
,
0100
0010
0001
0001
,
0100
0010
1000
1000
,
0001
0010
0001
0001
,
1000
0010
1000
1000
,
0100
0110
0001
1000
,
0110
1001
0110
0000
,
2002
0000
0000
0000
,
0000
0000
0000
3003
,
0000
0100
0000
0000
0000
0010
0000
0000
0000
0100
0000
0000
0000
0010
0000
0000
0000
0000
0000
0000
0001
0000
0000
0000
0100
0000
0000
0000
0000
0000
0000
0000
,
0110
1010
0011
1001
,
0220
0330
2002
3003
,
1100
1010
0101
0011
,
1000
1000
1000
1000
,
0100
0100
0100
0100
,
0010
0010
0010
0010
,
0001
0001
0001
0001
,
0010
0010
0010
0010
,
0100
0100
0100
0100
,
1000
1000
1000
1000
,
0010
0000
0000
0000
0010
0000
0000
0000
0010
0000
0000
0010
0000
0000
0010
0000
,
0100
0001
0101
0101
,
0100
1000
1100
1100
,
0100
0001
0011
0011
,
0010
0000
0000
0000
0100
0000
0000
0000
1000
0000
0000
1000
0000
0000
1000
0000
,
0100
0010
0011
0011
,
0100
0010
1010
1010
,
1000
0001
1001
1001
,
0010
0000
0000
0000
0100
0000
0000
0000
0010
0000
0000
0010
0000
0000
0010
0000
,
0010
1000
1010
1010
,
0010
0001
0011
0011
,
0010
1000
1100
1100
,
0100
0000
0000
0000
0010
0000
0000
0000
0001
0000
0000
0001
0000
0000
0001
0000
,
0010
0100
1100
1100
,
0010
0100
0101
0101
,
0001
1000
1001
1001
,
0100
0000
0000
0000
0010
0000
0000
0000
0100
0000
0000
0100
0000
0000
0100
0000
,
0001
0001
0001
0001
,
1000
1000
1000
1000
,
0010
0010
0010
0010
,
0100
0100
0100
0100
,
0001
0100
0010
0010
,
1000
0100
0010
0010
,
0001
1000
0001
0001
,
1000
0001
1000
1000
,
0100
0010
0001
0001
,
0100
0010
1000
1000
,
0001
0010
0001
0001
,
1000
0010
1000
1000
,
0001
0010
0001
0001
,
1000
0010
1000
1000
,
0001
0100
0001
0001
,
1000
0100
1000
1000
,
0100
0001
0010
0001
,
0100
0010
1000
0100
,
1000
0001
1000
0010
,
0001
0100
0010
1000
,
0001
0000
1000
0000
,
0010
0000
0010
0000
,
1000
0000
0001
0000
,
0010
0000
0010
0000
,
0100
0000
1000
0000
,
0001
0000
0001
0000
,
0100
0000
0001
0000
,
1000
0000
1000
0000
,
0010
0000
0100
0000
,
0001
0000
0001
0000
,
0010
0000
0100
0000
,
1000
0000
1000
0000
,
0010
0000
1000
0000
,
0001
0000
0001
0000
,
0010
0000
0100
1000
,
0100
0000
1001
0000
,
0220
0000
0000
0000
,
0000
0000
0000
0000
,
0000
0000
0000
0000
,
0000
0000
0000
0000
,
0000
0000
0000
0000
,
0000
0000
0000
0000
,
0000
0000
0000
0000
,
0000
0000
0000
0000
,
0000
0000
0000
0000
,
0000
0000
0000
0330
,
1001
0000
0000
0000
;
