#TITLE:Scarlet ballet;
#SUBTITLE:Hidan no Aria;
#ARTIST:May'n;
#TITLETRANSLIT:;
#SUBTITLETRANSLIT:;
#ARTISTTRANSLIT:;
#CREDIT:;
#BANNER:bn.jpg;
#BACKGROUND:bg.jpg;
#LYRICSPATH:;
#CDTITLE:bombastik.png;
#MUSIC:Scarlet ballet.mp3;
#OFFSET:-0.360;
#SAMPLESTART:27.520;
#SAMPLELENGTH:12.000;
#SELECTABLE:YES;
#BPMS:0.000=155.100;
#STOPS:;
#BGCHANGES:;
// cache tags:
#FIRSTBEAT:2.000;
#LASTBEAT:226.583;
#SONGFILENAME:Songs/FUCK ANIME PACK/Scarlet ballet/Scarlet ballet.sm;
#HASMUSIC:1;
#HASBANNER:1;
#MUSICLENGTH:89.460;
// end cache tags

//---------------dance-single - Blank----------------
#NOTES:
     dance-single:
     Blank:
     Challenge:
     11:
     1.000,1.000,1.000,0.503,0.799,566.000,288.000,45.000,44.000,90.000:

0000
0000
0000
0000
1001
0010
0100
0001
,
1100
0010
1000
0100
0101
0010
1100
0001
,
1100
0001
0110
1001
0110
1000
0101
0010
,
1100
0001
1010
0100
1100
0001
0100
0010
,
0101
1000
0011
0110
1100
0001
0100
1000
,
0101
0010
1000
0100
1001
0010
1000
0001
,
1100
0010
0100
1000
1001
0010
0100
0001
,
1100
0010
0101
2MMM
0MMM
0MMM
0MMM
0MMM
,
3MMM
0000
MMMM
0000
MMMM
0000
MM1M
0010
1101
0010
0100
0001
0110
0001
1000
0010
,
1100
0001
1000
0010
0101
1000
0001
0100
0011
1000
0010
0100
1001
0010
0100
0001
,
2220
0000
3330
0000
0000
0000
0001
0001
1110
0001
0100
1000
0101
0010
0001
0100
,
1010
0100
0001
1000
0011
1000
0001
0010
2100
0000
0001
0010
0101
0000
0010
0000
,
0101
0000
0010
0001
0110
0000
0001
0000
0110
0000
0001
0100
0011
0000
0100
0000
,
0011
0000
3100
0010
1001
0000
0110
0000
1110
0000
0111
0000
1011
0000
1110
0000
,
1101
1011
0111
1101
0110
0110
1001
1100
,
0011
0000
0011
0000
0110
0000
1001
0010
1101
0000
0111
0000
1011
0000
0111
0000
,
1110
1101
0111
1011
1100
1100
0110
0011
,
1001
0000
1001
0000
1010
0000
0011
0000
1011
0000
0100
0010
1001
0000
0101
0000
,
1110
0000
0000
0000
0001
0000
0100
0000
1001
0000
0000
0000
0220
0330
0000
0000
2200
3300
0000
0000
0011
0000
0000
0000
1110
0000
0000
0000
1100
0000
0000
0000
,
0222
0333
0000
0000
1000
0000
0001
0000
0110
0000
0000
0000
1001
0000
0000
0000
1011
0000
0000
0000
0100
0000
0010
0000
1100
0000
0000
0000
0011
0000
0000
0000
,
1110
0000
0001
1000
0110
0000
0101
0000
1110
0000
0001
0001
1100
0000
0010
0000
,
1101
0000
0010
0010
0101
0000
0010
0000
1001
0010
0100
0010
1001
0010
0100
0010
,
1001
0010
0100
0010
1001
0010
0100
0010
1001
0000
0100
0000
1011
0000
0100
0000
,
1001
0100
1101
0010
1001
0100
1011
0100
,
0011
0000
0110
1001
0220
0330
0001
0100
1010
0000
0100
0000
0110
0000
1000
0000
,
1101
0010
0101
1000
0111
0010
0101
1000
,
0111
0000
1000
0010
0101
0000
1000
0000
0111
0000
0010
0000
0101
0000
1000
0000
,
0111
0000
1000
0000
0101
0000
0010
0000
1101
0000
0100
0000
0011
0000
1100
0011
,
2200
0000
3301
0000
0101
0000
1000
0100
1011
0000
0100
0000
1010
0000
0001
0000
,
1110
0000
0001
0000
1010
0000
0100
0000
2022
3033
0000
0220
0330
0000
2200
3300
,
0022
1000
0133
0010
0001
1000
0110
0001
0110
0000
2000
3000
0022
0033
1100
0011
,
1100
0000
2000
3000
0022
0033
0100
0010
1101
0000
0000
0110
0000
0000
1000
0100
,
1011
0000
0200
0300
0200
0300
0001
0010
1101
0000
0020
0030
0020
0030
1001
0110
,
2002
3003
2200
3300
0011
1000
0110
1000
,
0102
0000
0000
1000
0000
0000
0010
0000
0000
1000
0000
0000
0100
0000
0000
0013
0000
0000
1000
0000
0100
0000
0010
0000
1001
0000
0000
0000
0000
0000
0110
0000
0000
0000
0000
0000
0000
0000
0000
0000
0000
0000
1100
0000
0000
0000
0000
0000
,
0000
0011
1001
0110
1101
0000
0000
MMM0
,
0MMM
0000
0MMM
0000
MM0M
0000
MMM0
0000
1110
0001
1000
0010
0101
1000
0010
0100
,
1011
0100
0001
1000
0101
0010
1000
0001
1110
0001
0100
1000
0011
0000
1100
0011
,
1100
0000
0101
0000
0110
0000
1100
0000
0111
1000
0001
0100
1010
0001
0100
0010
,
1101
0010
0100
0001
1010
0100
1000
0010
1101
0010
0100
0001
1010
0000
0110
1001
,
0110
0000
1100
0000
0011
0000
0110
0001
1110
0001
0100
0010
1001
0100
1000
0010
,
1101
0010
1000
0001
1100
0010
0001
0100
1011
0100
1000
0001
0110
0000
1001
0110
,
1001
0000
0011
0000
0101
0000
1100
0000
1110
0001
0100
1000
0101
0010
1000
0001
,
1110
0001
1000
0010
0101
1000
0010
0100
1011
0100
0010
1000
0011
0000
0110
1001
,
0110
0000
0110
0000
0110
0000
1100
0010
1101
0000
0010
0000
0101
0000
1000
0000
,
0111
0000
1000
0000
0101
0000
0010
0000
1110
0000
0001
0000
0101
0000
1100
0011
,
1100
0110
0011
0110
1110
0100
1001
0010
,
0111
0000
1000
0000
1001
0000
0100
0000
1011
0000
0100
0000
1010
0000
0011
1100
,
0011
0110
1100
0110
0111
1100
0101
0110
,
0111
0000
1001
0000
1010
0000
0110
0000
1101
0000
0110
0000
0101
0000
1100
0011
,
1100
0101
0110
1100
0111
1010
0101
1100
,
1110
0000
0101
0000
1100
0000
0110
0000
2110
0000
0101
0000
0011
3000
0110
0000
,
0111
0000
1100
0000
1001
0000
0110
0001
1110
0001
0100
0010
1101
0010
0100
0001
,
1110
0001
1000
0010
1101
0010
1000
0100
1011
0100
0001
1000
0111
1000
0010
0100
,
2022
0000
3033
0000
0000
0000
0110
1001
0110
0001
0100
0010
1001
0100
0010
1000
,
0101
0010
1000
0001
0110
1000
0010
0100
2010
0001
0100
0010
0101
0010
0001
0100
,
0011
0000
0000
0100
0000
0000
0001
0000
0000
0010
0000
0000
0101
0000
0000
0010
0000
0000
3101
0000
0000
1010
0000
0000
0101
0000
0000
0000
0000
0000
0000
0110
0000
0000
0000
0000
0000
0000
0000
0000
0000
0000
0000
0000
0000
0000
0000
0000
;
