#TITLE:Gensokyo Millennium;
#SUBTITLE:~ History of the Moon;
#ARTIST:Yuu;
#TITLETRANSLIT:;
#SUBTITLETRANSLIT:;
#ARTISTTRANSLIT:;
#CREDIT:;
#BANNER:hotm-bn.png;
#BACKGROUND:hotm-bg.png;
#LYRICSPATH:;
#CDTITLE:!HSTTitle.png;
#MUSIC:12. uNz@` History of the Moonv.mp3;
#OFFSET:0.640;
#SAMPLESTART:149.867;
#SAMPLELENGTH:12.000;
#SELECTABLE:YES;
#BPMS:0.000=150.000,410.000=75.000,424.000=150.000;
#STOPS:;
#BGCHANGES:;
// cache tags:
#FIRSTBEAT:4.000;
#LASTBEAT:570.000;
#SONGFILENAME:Songs/juju step2/Yuu_History of the Moon (Solo)/hotm.sm;
#HASMUSIC:1;
#HASBANNER:1;
#MUSICLENGTH:237.479;
// end cache tags

//---------------dance-solo - ----------------
#NOTES:
     dance-solo:
     :
     Hard:
     13:
     1.000,1.000,1.000,0.059,0.910,1468.000,552.000,14.000,0.000,88.000:
000000
000000
000000
000000
,
100000
000000
100000
000000
000000
000000
100000
010000
100000
000000
000000
000000
010000
010000
010000
000000
,
001000
000000
001000
000000
000000
000000
001000
000100
001000
000000
000000
000000
000100
000100
000100
000000
,
000010
000000
000010
000000
000000
000000
000010
000001
000010
000000
000000
000000
000001
000001
000001
000000
,
100000
000000
100000
000000
000000
000000
100000
010000
100000
000000
000000
000000
010000
010000
010000
000000
,
100100
000000
100100
000000
000000
000000
100100
011000
100100
000000
000020
000000
010130
010100
010100
000000
,
001100
000000
001100
000000
000000
000000
001001
000110
001001
000000
020000
000000
030110
000110
000110
000000
,
000011
000000
000011
000000
000000
000000
000110
001001
000110
000000
200000
000000
300111
000111
000111
000000
,
001100
000000
001100
000000
000001
000010
010100
000010
001001
000101
000000
001001
000111
000000
100000
000000
,
100001
010010
101000
000001
000011
000100
110000
010000
,
001001
000001
100010
000100
100001
010000
101000
000001
,
000011
000100
110000
010000
001001
000001
100010
000100
,
100001
010000
101000
000001
000011
000100
110000
010000
,
001001
000001
100010
000100
100001
010000
101000
000001
,
100111
001000
000100
000000
000100
000000
000100
000100
010000
000100
000100
001000
100100
001000
010010
000100
,
001001
000000
100000
000000
000000
000000
010001
000000
000010
000000
001001
000010
000100
000000
001010
000000
,
010000
100000
000000
100000
000000
001000
100000
010100
,
001000
000000
000010
000000
000000
000000
001001
000000
000010
000000
010001
000010
000100
000000
001001
000000
,
000010
000000
010000
000000
000000
000000
010000
000000
000000
001000
000010
001000
100001
000010
010100
100000
,
001100
000000
010000
000000
000000
000000
001001
000000
000010
000000
010001
000010
000100
000000
001010
000000
,
010000
000000
000011
000100
001000
000000
010010
000000
100000
000000
001000
000000
100000
000000
010010
000000
,
001000
000000
010000
000000
000000
000000
001001
000000
000010
000000
100001
000010
000100
000000
011000
000000
,
000011
000000
000100
000000
001000
000000
010000
000000
100000
000000
000001
000000
000010
000000
000100
000000
001000
000000
010000
000000
100000
000000
000000
000000
000000
000000
000000
000010
000000
000000
010000
000000
000000
000010
000000
000000
100001
000000
000100
000010
010000
000000
001001
000000
000010
010000
001000
000000
,
000101
000000
100000
000000
000000
000000
010001
000000
000010
000000
001001
000010
000100
000000
001010
000000
,
010000
100000
000000
100000
000000
001000
100000
010100
,
001000
000000
000010
000000
000000
000000
001001
000000
000010
000000
010001
000010
000100
000000
001001
000000
,
000010
000000
010000
000000
000000
000000
010000
000000
000000
001000
000010
001000
100001
000010
010100
100000
,
001100
000000
010000
000000
000000
000000
001001
000000
000010
000000
010001
000010
000100
000000
001010
000000
,
010000
000000
000011
000100
001000
000000
010010
000000
100000
000000
001000
000000
100000
000000
010010
000000
,
001000
000000
010000
000000
000000
000000
001001
000000
000010
000000
100001
000010
001100
100000
011010
100000
,
000011
000100
001000
100000
000001
000100
001000
100000
000000
000010
010000
000010
100000
000010
001000
000100
,
011000
000000
000000
110000
001000
000000
000100
000000
000000
011001
000000
000000
000100
000000
000000
111000
000010
000000
000100
000000
000000
001011
000000
000000
,
010000
000111
001000
110010
000100
110001
000100
100011
,
011000
000000
000000
010011
001000
000000
000100
000000
000000
100011
000000
000000
010000
000000
000000
100110
000000
000000
001000
000000
000000
110010
000000
000000
,
001000
000000
010110
000000
000100
000000
011001
000000
000110
100000
001001
000010
010100
001000
100010
000000
,
010000
000000
000000
010000
001000
000000
000100
000000
000000
111000
000000
000000
000100
000000
000000
011100
000010
000000
000100
000000
000000
001011
000000
000000
,
010000
000111
001000
110010
000100
000011
000000
000011
,
010001
000000
000010
000000
000100
000000
110000
000000
001100
000000
000001
000000
010010
000000
000000
000000
000000
000000
100000
000000
000000
000000
000000
000000
010010
000000
000000
000100
000000
000000
100010
000000
000000
000100
000000
000000
011010
000000
000000
000101
000000
000000
110010
000000
000000
001000
000000
000000
,
100001
010000
001000
000001
000011
000100
110000
010000
,
001001
000001
100010
000100
100001
010000
101000
000001
,
000011
000100
110000
010000
001001
000001
100010
000100
,
100011
010000
101010
000001
001011
000100
110010
010000
,
001101
000001
110010
000100
100011
011000
101100
000011
,
020020
000000
000000
030030
110000
000000
001100
000000
000110
000000
000011
000000
001100
000000
110000
000000
,
000010
010000
000100
001000
000001
100000
000010
010000
000100
001000
000010
100000
000002
000000
000000
000003
000000
000000
010000
000000
000000
001000
000000
000000
,
111000
000000
010000
000000
001110
001000
100000
010000
,
000111
000000
100000
000010
100010
000000
000011
000000
,
110000
000000
000010
000100
010010
001000
010000
001000
,
000110
000000
001000
000000
110000
000000
000100
000000
100010
000100
011000
000010
010100
000000
000000
000000
,
110000
000100
001000
000000
110000
000100
001000
000000
000110
100000
001010
000000
100100
001000
010001
000000
,
000110
000000
100000
000001
000000
000000
011000
000000
000100
000011
000000
000000
010010
000000
001000
000001
000000
000000
001100
000000
000000
000010
000000
000000
,
100011
000000
000000
000100
001000
000000
000000
000000
000001
000000
000000
000100
000000
000000
001000
000000
,
000000
001000
000100
000000
000100
000000
001000
000100
000000
000100
000100
001000
000001
000010
010100
001000
,
110000
000000
001000
000000
010100
100000
000010
000000
000100
000000
001010
000000
100100
000010
011000
000000
,
000100
000000
000010
000000
100000
000100
001010
000000
000010
000000
010000
000000
000010
010000
001100
000000
,
100000
000000
010000
000000
000011
100000
001100
000000
000000
000000
001010
000000
010010
000100
101000
000000
,
000000
000000
001100
000000
110000
001000
000110
000000
100001
000010
001100
000010
010100
000010
001000
000100
,
110000
000000
000010
000000
010100
100000
001010
000000
000100
000000
001010
000000
100010
000100
011000
000000
,
000100
000000
001000
000000
000100
010000
100010
000000
000010
000000
001000
000000
010100
001000
100010
000000
,
010010
000000
100001
000010
000100
000010
100100
001000
010000
000100
101000
000100
010000
001000
110000
000100
,
000001
000000
000010
000000
000100
000000
001000
000000
010000
000000
100000
000000
000001
000000
000010
000000
000100
000000
001000
000000
010000
000000
100000
000000
001000
000000
000000
000010
000000
000000
010100
000000
000000
000010
000000
000000
001001
000000
000010
000000
000100
000000
001010
000000
010000
000000
000100
000000
,
100000
000000
001000
000000
010100
001000
000001
000000
000010
000000
001100
000000
010010
000100
101000
000000
,
000100
000000
000010
000000
001000
000100
010010
000000
000010
000000
100000
000000
001000
010000
000110
000000
,
100000
000000
010000
000000
001010
100000
000101
000000
000000
000000
001100
000000
100010
001000
010100
000000
,
000000
000000
001100
000000
100100
001000
010010
000000
001100
010000
000110
100000
010001
000100
001000
000000
,
100000
000000
001000
000000
010010
001000
000100
000000
000010
000000
001100
000000
010100
000001
001010
000000
,
000100
000000
100000
000000
001000
010000
001010
000000
000010
000000
000100
000000
110000
000100
001010
000000
,
000001
000000
100000
000000
001000
000100
100000
000000
000000
000000
100000
000000
001000
000100
100000
000000
,
000001
000000
000010
000000
000100
000000
001000
000000
010000
000000
100000
000000
000001
000000
000010
000000
000100
000000
001000
000000
010000
000000
100000
000000
000000
000000
000000
000010
000000
000000
010000
000000
000000
000010
000000
000000
001001
000000
000000
010010
000000
000000
001100
000000
000000
010001
000000
000000
,
100000
000000
001000
000000
010100
001000
000001
000000
000010
000000
001100
000000
010010
000100
101000
000000
,
000100
000000
000010
000000
001000
000100
010010
000000
000010
000000
100000
000000
001000
010000
000110
000000
,
100000
000000
010000
000000
001010
100000
000101
000000
000000
000000
001100
000000
100010
001000
010100
000000
,
000000
000000
001100
000000
100100
001000
010010
000000
001100
010000
000110
100000
010001
000100
001000
000000
,
100000
000000
001000
000000
010010
001000
000100
000000
000010
000000
001100
000000
010100
000001
001010
000000
,
000100
000000
100000
000000
001000
010000
001010
000000
000010
000000
000100
000000
110000
000100
001010
000000
,
010000
000000
100000
000000
001000
000100
010000
000000
000001
000000
100000
000000
001000
000100
100000
000000
,
010001
000000
000010
000000
000100
000000
001000
000000
010000
000000
100000
000000
000101
000000
000010
000000
000100
000000
001000
000000
010000
000000
100000
000000
000001
000000
000000
010000
000000
000000
000010
000000
000000
010000
000000
000000
000001
000000
000000
000100
000000
000000
001000
000000
000000
100000
000000
000000
,
000100
001000
010100
000010
101000
010001
001010
000100
000010
000000
010000
000100
001010
010000
001100
000000
,
000010
000000
100100
001000
000100
010000
001010
000000
000100
001000
100000
000000
001100
000010
011000
000000
,
000100
001000
010000
000010
100100
010000
001010
000100
000000
000000
011000
000100
001010
100000
010100
000000
,
000010
000000
000101
001000
010000
000100
001010
000000
000100
001010
010000
000010
000101
000010
010100
001000
,
000100
001000
000010
010000
100100
010000
001010
000100
000000
000000
011000
000000
000110
010000
001100
000000
,
000001
000000
100100
001000
000100
010000
001010
000000
000100
001000
000010
000000
001100
000010
011000
000000
,
000100
001000
010000
000010
100100
010000
001010
000100
000000
000000
001100
000000
100100
001000
000110
000000
,
100001
000100
001010
010100
001001
010010
100100
011000
000011
010100
001010
010001
000010
000100
001000
010000
,
100000
000000
001000
000000
010100
001000
000001
000000
000010
000000
001100
000000
010010
000100
101000
000000
,
000100
000000
000010
000000
001000
000100
010010
000000
000010
000000
100000
000000
001000
010000
000110
000000
,
100000
000000
010000
000000
001010
100000
000101
000000
000000
000000
001100
000000
100010
001000
010100
000000
,
000000
000000
001100
000000
100100
001000
010010
000000
001100
010000
000110
100000
010001
000100
001000
000000
,
100000
000000
001000
000000
010010
001000
000100
000000
000010
000000
001100
000000
010100
000001
001010
000000
,
000100
000000
100000
000000
001000
010000
001010
000000
000010
000000
000100
000000
110000
000100
001010
000000
,
010000
000000
100000
000000
001000
000100
010000
000000
000001
000000
100000
000000
001000
000100
100000
000000
,
010001
000000
000010
000000
000100
000000
001000
000000
010000
000000
100000
000000
000101
000000
000010
000000
000100
000000
001000
000000
010000
000000
100000
000000
000001
000000
000000
010000
000000
000000
000010
000000
000000
010000
000000
000000
000100
000000
000000
000001
000000
000000
000010
000000
000000
000100
000000
000000
,
110000
001110
000000
110000
000111
000000
110000
001110
000001
000010
000100
001000
010010
000100
001000
010000
,
100000
000000
100000
000000
000000
000000
100000
010000
100000
000000
000000
000000
010000
010000
010000
000000
,
001000
000000
001000
000000
000000
000000
001000
000100
001000
000000
000000
000000
000100
000100
000100
000000
,
000010
000000
000010
000000
000000
000000
000010
000001
000010
000000
000000
000000
000001
000001
000001
000000
,
100000
000000
100000
000000
000000
000000
100000
010000
100000
000000
000000
000000
010000
010000
010000
000000
,
100100
000000
100100
000000
000000
000000
100100
011000
100100
000000
000020
000000
010130
010100
010100
000000
,
001100
000000
001100
000000
000000
000000
001001
000110
001001
000000
020000
000000
030110
000110
000110
000000
,
000011
000000
000011
000000
000000
000000
000110
001001
000110
000000
200000
000000
300111
000111
000111
000000
,
001100
000000
001100
000000
000001
000010
010100
000010
001001
000101
000000
001001
000111
000000
000000
000000
,
200022
000000
000000
000000
000000
000000
000030
300003
100000
000000
001000
000000
100010
000100
100000
000001
,
000101
000000
000010
001001
010100
000000
101000
000000
110000
000000
000100
000000
001000
000100
001000
000000
100001
000000
000010
010000
001100
010000
000100
000000
101010
000100
000000
101000
000100
000000
010001
000000
,
000110
000000
000000
000000
000001
000000
000100
000000
001010
000000
000000
000000
011100
000000
000000
000000
010110
000000
000000
000000
000100
000000
000000
000000
000100
000000
000000
000000
000000
000000
000000
000000
100010
000000
000000
000000
000000
000000
000100
000000
001000
000000
000000
000000
010000
000000
000000
000000
100001
010000
001000
000100
010000
001000
000100
000010
001000
000100
000010
000001
100000
000000
000000
000000
,
000101
100000
010000
001000
100001
010000
001010
000100
010001
001000
000100
000010
001000
000000
000000
000000
101000
000000
000100
000000
001010
000000
000101
000000
101000
000000
000100
000000
011000
000000
000001
000000
100100
000000
000000
000000
000000
000000
000000
000000
101000
000000
000000
000000
001100
000000
000010
000000
010100
000000
000000
000000
010000
000000
000000
000000
010001
000000
000000
000000
010100
000000
000000
000000
,
000110
000002
000000
000000
100103
001000
010010
000100
001001
000000
100000
000000
000000
000000
010001
000000
,
000010
000000
001001
000010
000100
000000
001010
000000
010000
000000
100000
000000
000000
000000
100000
000000
,
000000
001000
100000
010100
001000
000010
000000
001001
,
000010
000000
010001
000010
000100
000000
001001
000000
000010
000000
010000
000000
000000
000000
010000
000000
,
000000
001000
000010
001000
100001
000010
010100
100000
001100
000000
010000
000000
000000
000000
001001
000000
,
000010
000000
010001
000010
000100
000000
001010
000000
010000
000000
000011
000100
001000
000000
010010
000000
,
100000
001000
100000
010010
001000
010000
000000
001001
,
000010
000000
000000
000000
000000
000000
100001
000000
000000
000010
000000
000000
000100
000000
000000
000000
000000
000000
011000
000000
000000
000000
000000
000000
000011
000000
000100
000000
001000
000000
010000
000000
100000
000000
000001
000000
000010
000000
000100
000000
001000
000000
010000
000000
100000
000000
000000
000000
,
000000
000000
000000
000010
000000
000000
010000
000000
000000
000010
000000
000000
100001
000000
000100
000010
010000
000000
001001
000000
000010
010000
001000
000000
000101
000000
000000
000000
000000
000000
100000
000000
000000
000000
000000
000000
000000
000000
000000
000000
000000
000000
010001
000000
000000
000000
000000
000000
,
000010
000000
001001
000010
000100
000000
001010
000000
010000
000000
100000
000000
000000
000000
100000
000000
,
000000
001000
100000
010100
001000
000010
000000
001001
,
000010
000000
010001
000010
000100
000000
001001
000000
000010
000000
010000
000000
000000
000000
010000
000000
,
000000
001000
000010
001000
100001
000010
010100
100000
001100
000000
010000
000000
000000
000000
001001
000000
,
000010
000000
010001
000010
000100
000000
001010
000000
010000
000000
000011
000100
001000
000000
010010
000000
,
100000
001000
100000
010010
001000
010000
000000
001001
,
000010
000000
100001
000010
001100
100000
011010
100000
000011
000100
001000
100000
000001
000100
001000
100000
,
000000
000010
010000
000010
100000
000010
001000
000100
110000
000000
000100
000000
100000
000000
001001
000000
,
100010
000000
010001
001010
110100
000000
001010
000000
110000
000000
000100
000000
101000
000000
000001
000000
,
110000
000000
000010
000100
101000
000000
010000
000000
101000
000000
000100
000000
100010
000000
000001
000000
,
100010
000000
001001
010010
100100
000000
010010
000000
101000
000000
010000
000000
100000
000000
000010
000000
,
100100
000010
001000
000000
110000
000000
001000
000000
110001
000000
010000
000000
100100
000000
010001
001000
,
100010
010000
001001
000010
100101
000000
001010
000000
110100
000000
010010
000100
101001
000000
010010
000000
,
101100
000000
000010
000000
011100
000000
100010
000000
011100
000000
001000
000111
100000
000000
010101
000000
,
100011
000100
001001
010010
101100
000010
010100
000010
101100
000000
000011
100100
001000
010100
001000
100100
,
000010
000000
000000
010000
000000
000000
000100
000000
000000
001000
000000
000000
000001
000000
000000
100000
000000
000000
000001
000000
000000
000100
000000
000000
011000
000000
000000
000000
000000
000000
110000
000000
001000
000000
000000
000000
000100
000000
000000
000000
000000
000000
011001
000000
000000
000000
000000
000000
,
000100
000000
000000
111000
000010
000000
000100
000000
000000
001011
000000
000000
010000
000000
000000
000111
000000
000000
001000
000000
000000
110010
000000
000000
,
000100
000000
000000
110001
000000
000000
000100
000000
000000
100011
000000
000000
011000
000000
000000
010011
001000
000000
000100
000000
000000
100011
000000
000000
,
010000
100110
001000
110010
001000
010110
000100
011001
,
000110
000000
000000
100000
000000
000000
001001
000000
000000
000010
000000
000000
010100
000000
000000
001000
000000
000000
100010
000000
000000
000000
000000
000000
010000
000000
000000
000000
000000
000000
010000
000000
001000
000000
000000
000000
000100
000000
000000
000000
000000
000000
111000
000000
000000
000000
000000
000000
,
000100
000000
000000
011100
000010
000000
000100
000000
000000
001011
000000
000000
010000
000000
000000
000111
000000
000000
001000
000000
000000
110010
000000
000000
,
000100
000000
000000
000011
000000
000000
000000
000000
000000
000011
000000
000000
010001
000010
000100
110000
001100
000001
010010
000000
000000
100000
000000
000000
,
010010
000100
100010
000100
011010
000101
110010
001000
100000
000000
010000
000000
001000
000000
000001
000000
,
000010
000100
100000
010000
001000
000001
000010
000100
,
100000
010000
001000
000001
000010
000100
100000
010000
,
001000
000001
000010
000100
100000
010000
001000
000001
,
000010
000100
100000
010000
001000
000001
000010
000100
,
100000
010000
001000
000002
000003
000000
000000
000000
;
