#TITLE:Sacred Secret;
#SUBTITLE:;
#ARTIST:muryokuP;
#TITLETRANSLIT:;
#SUBTITLETRANSLIT:;
#ARTISTTRANSLIT:;
#CREDIT:M.L-INS;
#BANNER:../Tachyon DIVA.png;
#BACKGROUND:../Tachyon DIVA-bg.png;
#LYRICSPATH:;
#CDTITLE:;
#MUSIC:Sacred Secret.ogg;
#OFFSET:-2.023;
#SAMPLESTART:100.000;
#SAMPLELENGTH:12.000;
#SELECTABLE:YES;
#BPMS:0.000=134.002,12.000=134.003,16.000=134.002,140.000=67.003,144.000=134.022;
#STOPS:;
#BGCHANGES:;
// cache tags:
#FIRSTBEAT:8.000;
#LASTBEAT:248.000;
#SONGFILENAME:Songs/Tachyon DIVA/Sacred Secret[M.L-INS]/Sacred Secret.sm;
#HASMUSIC:1;
#HASBANNER:1;
#MUSICLENGTH:117.527;
// end cache tags

//---------------dance-single - Blank----------------
#NOTES:
     dance-single:
     Blank:
     Challenge:
     12:
     1.000,0.923,0.179,0.536,1.000,794.000,21.000,63.000,62.000,0.000:
0000
0000
0000
0000
,
0000
0000
0000
0000
,
0002
0000
0000
0000
0000
0000
0000
0000
0000
0000
0000
0000
0000
0000
0000
0000
0000
0000
0000
0000
0000
0000
0000
0000
0103
0000
0000
0000
0000
0000
0000
0000
0000
0000
0000
0000
0000
0000
0000
0000
0000
0000
0000
0000
0000
0000
0000
0000
0001
0000
0000
0000
0000
0000
0000
0000
0100
0000
0000
0000
0000
0000
0000
0000
0010
0000
0000
0000
0000
0000
0000
0000
2000
0000
0000
0000
0000
0000
0000
0000
0000
0000
0000
0000
0000
0000
0000
0000
0000
0000
0000
0000
0000
0000
0000
0000
3100
0000
0000
0000
0000
0000
0000
0000
0000
0000
0000
0000
0010
0000
0000
0000
0000
0000
0000
0000
0000
0000
0000
0000
0001
0000
0000
0000
0000
0000
0000
0000
0000
0000
0000
0000
1000
0000
0000
0000
0000
0000
0000
0000
0000
0000
0000
0000
0010
0000
0000
0000
0000
0000
0000
0000
0000
0000
0000
0000
1000
0000
0000
0000
0000
0000
0000
0000
0000
0000
0000
0000
0001
0000
0000
0000
0000
0000
0100
0000
0000
0000
0000
0000
0001
0000
0000
0000
0000
0000
0100
0000
0000
0000
0000
0000
,
0001
0100
0001
0100
0010
1000
0010
1000
0100
0010
0001
1000
0001
1000
0100
0010
,
0001
0010
0001
0010
0100
1000
0100
1000
0001
0100
0001
0100
0001
0010
0100
1000
,
0010
0100
0010
0100
0001
0010
0001
0010
0100
1000
0100
1000
0001
0100
0001
0100
,
0010
1000
0001
0100
0010
1000
0010
0100
0001
0100
0010
1000
0010
0100
0001
0010
,
0001
0100
0001
0100
0010
1000
0010
1000
0100
0010
0001
1000
0001
1000
0100
0010
,
0001
0010
0001
0010
0100
1000
0100
1000
0001
0100
0001
0100
0001
0010
0100
1000
,
0010
0100
0010
0100
0001
0010
0001
0010
0100
1000
0100
1000
0001
0100
0001
0100
,
0010
1000
0100
0000
000M
0000
0100
0000
0010
0000
0100
0000
1000
0000
0001
0000
0100
0010
1000
0000
0100
0000
0010
0000
M001
0100
0010
0000
1000
0000
0010
0000
,
1000
0010
1000
0010
0100
0001
0100
0001
0010
0100
1000
0001
1000
0001
0010
0100
,
1000
0100
1000
0100
0010
0001
0010
0001
1000
0010
1000
0010
1000
0100
0010
0001
,
0100
0010
0100
0010
1000
0100
1000
0100
0010
0001
0010
0001
1000
0010
1000
0010
,
0100
0001
1000
0010
0100
0001
0100
0010
1000
0010
0100
0001
0100
0010
1000
0100
,
1000
0010
1000
0010
0100
0001
0100
0001
0010
0100
1000
0001
1000
0001
0010
0100
,
1000
0100
1000
0100
0010
0001
0010
0001
1000
0010
1000
0010
1000
0100
0010
0001
,
0100
0010
0100
0010
1000
0100
1000
0100
0010
0001
0010
0001
1000
0010
1000
0010
,
0100
0001
0010
0000
M000
0000
0010
0000
0100
0000
0010
0000
0001
0000
1000
0000
0010
0100
0001
0000
0010
0000
0100
0000
100M
0010
0100
0000
0001
0000
0010
0000
,
0100
1000
0100
0010
0001
1000
0010
1000
0001
0100
0001
0010
0100
0010
0001
1000
,
0010
1000
0100
0010
0001
0100
0010
1000
0001
0010
0100
1000
0001
0100
0010
1000
,
0002
0000
1003
0100
2000
0000
3100
0010
0001
0010
0100
1000
0M02
0000
1003
0100
,
0010
0100
1000
0001
20M0
0000
3100
0010
0001
1000
0010
1000
0M02
0000
0103
0010
,
1000
0001
0010
0100
200M
0000
3001
0100
0010
1000
0010
0100
M002
0000
1003
0100
,
0010
0100
1000
0001
0M20
0000
0130
1000
0001
0100
0010
1000
020M
0000
0310
0001
,
1000
0010
1000
0001
02M0
0000
0310
1000
0001
0100
0001
1000
0M20
0000
0130
0001
,
1000
0010
0100
0010
200M
0000
3100
0010
0001
0010
0100
1000
00M2
0000
1003
0010
,
0100
0001
0010
0100
200M
0000
3100
0010
0001
1000
0010
1000
020M
0000
0310
0001
,
1000
0010
1000
0001
M200
0000
0310
1000
0001
0100
0010
0100
M002
0000
1003
0100
,
1000
0001
0100
0010
2M00
0000
3001
0100
0010
1000
0010
0100
0001
0010
0001
1000
,
0010
0100
0001
0010
020M
0000
1300
0001
0100
0010
1000
0100
1000
0001
0100
0001
,
0100
0010
1000
0001
0M20
0000
0130
1000
0001
0100
0010
1000
0010
1000
0100
0010
,
0001
0100
0010
1000
0M02
0000
1003
0010
0100
0001
0100
0010
1000
0100
0010
0001
,
0100
0010
1000
0001
02M0
0000
0310
1000
0001
0100
0001
1000
0010
1000
0100
0010
,
0001
0010
0100
1000
0001
1000
0001
1000
0100
0010
0001
1000
0001
1000
0010
0100
,
0020
0000
0000
0000
0M0M
0000
0000
0000
0M0M
0000
0000
0000
0030
0000
0000
0000
1000
0002
1000
0000
01M0
0000
0100
0000
1003
0010
2000
0000
0M01
0000
3001
0000
,
1000
0000
0000
0000
0000
0000
0000
0000
0120
0000
0000
0000
0000
0000
0000
0000
1000
0000
0000
0000
1030
0000
0000
0000
0000
0000
0000
0000
0001
0010
0000
0000
0000
0000
0000
0000
0010
0100
0000
0000
0000
0000
0000
0000
0100
1000
0000
0000
0000
0000
0000
0000
0000
0000
0000
0000
2010
0000
0000
0000
0000
0000
0000
0000
,
3001
0000
0000
0000
0000
0000
0000
0000
0000
0000
0000
0000
0000
0000
0000
0000
0000
0000
0000
0000
0000
0000
0000
0000
0210
0000
0000
0000
0000
0000
0000
0000
0000
0000
0000
0000
0000
0000
0000
0000
0000
0000
0000
0000
0000
0000
0000
0000
0001
0000
0000
0000
0000
0000
0000
0000
0000
0000
0000
0000
0301
0000
0000
0000
0000
0000
0000
0000
0000
0000
0000
0000
0000
0000
0000
0000
0000
0000
0000
0000
0000
0000
0000
0000
1000
0000
0100
0000
0000
0000
0000
0000
0000
0000
0000
0000
0000
0000
0000
0000
0000
0000
0000
0000
0000
0000
0000
0000
0100
0000
0010
0000
0000
0000
0000
0000
0000
0000
0000
0000
0000
0000
0000
0000
0000
0000
0000
0000
0000
0000
0000
0000
0010
0000
0000
0001
0000
0000
0000
0000
0000
0000
0000
0000
0000
0000
0000
0000
0000
0000
0000
0000
0000
0000
0000
0000
0000
0000
0000
0000
0000
0000
0000
0000
0000
0000
0000
0000
0102
0000
0000
0000
0000
0000
0000
0000
0000
0000
0000
0000
0000
0000
0000
0000
0000
0000
0000
0000
0000
0000
0000
0000
,
1003
0000
0000
0000
0000
0000
0000
0000
0210
0000
0000
0000
0000
0000
0000
0000
0001
0000
0000
0000
0301
0000
0000
0000
0000
0000
0000
0000
0001
0100
0000
0000
0000
0000
0000
0000
0100
0010
0000
0000
0000
0000
0000
0000
0010
1000
0000
0000
0000
0000
0000
0000
0000
0000
0000
0000
1001
0000
0000
0000
0000
0000
0000
0000
,
0MM2
0000
0000
0020
0003
0000
0200
0030
0000
2000
0300
0000
0001
3000
0001
1000
,
0001
0000
0000
0000
0000
0000
0000
0000
0210
0000
0000
0000
0000
0000
0000
0000
0001
0000
0000
0000
0301
0000
0000
0000
0000
0000
0000
0000
1000
0100
0000
0000
0000
0000
0000
0000
0100
0010
0000
0000
0000
0000
0000
0000
0010
0001
0000
0000
0000
0000
0000
0000
0000
0000
0000
0000
0102
0000
0000
0000
0000
0000
0000
0000
,
1003
0000
0000
0000
0000
0000
0000
0000
0000
0000
0000
0000
0000
0000
0000
0000
0000
0000
0000
0000
0000
0000
0000
0000
0120
0000
0000
0000
0000
0000
0000
0000
0000
0000
0000
0000
0000
0000
0000
0000
0000
0000
0000
0000
0000
0000
0000
0000
1000
0000
0000
0000
0000
0000
0000
0000
0000
0000
0000
0000
1030
0000
0000
0000
0000
0000
0000
0000
0000
0000
0000
0000
0000
0000
0000
0000
0000
0000
0000
0000
0000
0000
0000
0000
0001
0000
0010
0000
0000
0000
0000
0000
0000
0000
0000
0000
0000
0000
0000
0000
0000
0000
0000
0000
0000
0000
0000
0000
0010
0000
0100
0000
0000
0000
0000
0000
0000
0000
0000
0000
0000
0000
0000
0000
0000
0000
0000
0000
0000
0000
0000
0000
0100
0000
0000
1000
0000
0000
0000
0000
0000
0000
0000
0000
0000
0000
0000
0000
0000
0000
0000
0000
0000
0000
0000
0000
0000
0000
0000
0000
0000
0000
0000
0000
0000
0000
0000
0000
2010
0000
0000
0000
0000
0000
0000
0000
0000
0000
0000
0000
0000
0000
0000
0000
0000
0000
0000
0000
0000
0000
0000
0000
,
3M02
0000
0000
2003
0000
0000
0020
3000
0000
0200
0030
0000
0002
0300
1000
0000
,
0023
0000
0000
0000
0100
0000
0100
0000
0000
0000
0030
0000
1000
0000
0001
0000
1000
0000
0001
0000
00M0
0000
0001
0000
1000
0000
0100
0000
0010
0001
0010
0000
,
0001
0000
0000
0000
0000
0000
0000
0000
0210
0000
0000
0000
0000
0000
0000
0000
0001
0000
0000
0000
0301
0000
0000
0000
0000
0000
0000
0000
1000
0100
0000
0000
0000
0000
0000
0000
0100
0010
0000
0000
0000
0000
0000
0000
0010
0001
0000
0000
0000
0000
0000
0000
0000
0000
0000
0000
0102
0000
0000
0000
0000
0000
0000
0000
,
1003
0000
0000
0000
0000
0000
0000
0000
0000
0000
0000
0000
0000
0000
0000
0000
0000
0000
0000
0000
0000
0000
0000
0000
0120
0000
0000
0000
0000
0000
0000
0000
0000
0000
0000
0000
0000
0000
0000
0000
0000
0000
0000
0000
0000
0000
0000
0000
1000
0000
0000
0000
0000
0000
0000
0000
0000
0000
0000
0000
1030
0000
0000
0000
0000
0000
0000
0000
0000
0000
0000
0000
0000
0000
0000
0000
0000
0000
0000
0000
0000
0000
0000
0000
0001
0000
0010
0000
0000
0000
0000
0000
0000
0000
0000
0000
0000
0000
0000
0000
0000
0000
0000
0000
0000
0000
0000
0000
0010
0000
0100
0000
0000
0000
0000
0000
0000
0000
0000
0000
0000
0000
0000
0000
0000
0000
0000
0000
0000
0000
0000
0000
0100
0000
0000
1000
0000
0000
0000
0000
0000
0000
0000
0000
0000
0000
0000
0000
0000
0000
0000
0000
0000
0000
0000
0000
0000
0000
0000
0000
0000
0000
0000
0000
0000
0000
0000
0000
2010
0000
0000
0000
0000
0000
0000
0000
0000
0000
0000
0000
0000
0000
0000
0000
0000
0000
0000
0000
0000
0000
0000
0000
,
3001
0000
0000
0000
0000
0000
0000
0000
0120
0000
0000
0000
0000
0000
0000
0000
1000
0000
0000
0000
1030
0000
0000
0000
0000
0000
0000
0000
1000
0010
0000
0000
0000
0000
0000
0000
0010
0100
0000
0000
0000
0000
0000
0000
0100
0001
0000
0000
0000
0000
0000
0000
0000
0000
0000
0000
1001
0000
0000
0000
0000
0000
0000
0000
,
2MM0
0000
0000
0200
3000
0000
0020
0300
0000
0002
0030
0000
1000
0003
1000
0001
,
1000
0100
1000
0001
0100
0001
0010
0100
1000
0100
0010
0001
1000
0010
0100
0001
,
0020
0130
0010
0001
2000
3010
1000
0100
0020
0130
1000
0001
0200
0000
0010
0310
,
0M00
0M00
0M00
0000
0001
0100
0010
1000
0010
0100
0001
0010
0100
1000
0100
0010
,
0001
1000
0100
1000
0001
0100
0001
1000
0010
0100
0001
0010
0100
0010
0001
1000
,
0100
1000
0010
1000
0001
0100
0001
0010
0001
1000
0100
0010
0001
0100
0010
1000
,
0010
0100
0001
0010
0100
1000
0100
0010
0001
1000
0010
0100
0001
0010
0100
1000
,
1010
0000
0000
0000
1010
0000
0000
0000
1010
0000
0000
0000
0202
0000
0000
0000
0000
0000
0303
0000
M0M0
0000
0000
0000
0100
0000
0000
0001
0000
0000
1000
0000
0000
0010
0000
0000
1000
0000
0000
0100
0000
0000
0010
0000
0000
0001
0000
0000
,
0100
0010
1000
0010
0100
0001
0010
0100
1000
0100
0010
0001
1000
0010
1000
0100
,
1000
0001
0100
0001
0010
0001
1000
0010
2000
3001
0100
0001
2000
3100
0010
0001
,
1000
0100
1000
0000
0001
0000
0100
0000
M00M
0000
0100
0000
1000
0000
0100
0000
1000
0001
1000
0000
0100
0000
0010
0000
0001
0000
0100
0010
0100
0000
M004
0000
,
0400
M000
0000
0000
0000
0000
0000
0000
0000
0000
0000
0000
0000
0000
0000
0000
,
0000
0000
0000
M000
,
M303
0000
0M00
000M
0M00
000M
0M00
000M
,
0M00
000M
0M00
000M
0M00
000M
0M00
000M
,
0M00
0000
0000
0000
;
