#TITLE:Hearts On Fire;
#SUBTITLE:Crimson Thunder (2002);
#ARTIST:Hammerfall;
#TITLETRANSLIT:;
#SUBTITLETRANSLIT:;
#ARTISTTRANSLIT:;
#CREDIT:SulferDragon;
#BANNER:Hearts on Fire-banner.png;
#BACKGROUND:Hearts on Fire-bg.png;
#LYRICSPATH:;
#CDTITLE:!SulferDragon.png;
#MUSIC:02 - Hearts On Fire.mp3;
#OFFSET:-0.037;
#SAMPLESTART:113.720;
#SAMPLELENGTH:15.840;
#SELECTABLE:YES;
#BPMS:0.000=182.000,66.000=91.000,81.000=182.000,197.500=91.000,199.500=182.000,233.000=91.000,248.000=182.000,364.500=91.000,366.500=182.000,463.000=91.000,523.000=182.000,579.500=91.000,581.500=182.000;
#STOPS:527.500=0.990
;
#BGCHANGES:;
// cache tags:
#FIRSTBEAT:0.500;
#LASTBEAT:595.500;
#SONGFILENAME:Songs/Astronomic Metal Collection/Hearts On Fire (SulferDragon)/02 - Hearts On Fire.sm;
#HASMUSIC:1;
#HASBANNER:1;
#MUSICLENGTH:231.894;
// end cache tags

//---------------dance-single - ----------------
#NOTES:
     dance-single:
     :
     Hard:
     11:
     1.000,1.000,1.000,0.586,0.188,1057.000,434.000,136.000,0.000,60.000:
0000
0210
0000
1302
1003
1000
0010
1000
,
1000
1000
0100
1000
1000
1000
0010
1000
,
0100
0002
0003
1000
1000
1000
0010
1000
,
1000
1000
0100
1000
1000
1000
0010
1000
,
0100
0012
0000
1203
1300
1000
0010
1000
,
1000
1000
0100
1000
1000
1000
0010
1000
,
0210
1302
0000
1000
1000
0100
0010
1000
,
1000
1000
0010
1000
0010
1000
0010
0100
,
0003
0021
0000
1230
1300
1000
0010
1000
,
1000
0000
1000
0000
0100
0000
1000
0000
1000
0000
1000
0000
0020
0030
1000
0000
,
0210
0300
1002
0000
0000
0000
1003
0000
1000
0000
1000
0000
0010
0000
1000
0000
,
1000
1000
0100
1000
1000
1000
0010
1000
,
0100
0012
0000
1203
1300
1000
0010
1000
,
1000
1000
0100
1000
1000
1000
0010
1000
,
0210
1302
0000
1000
1000
0100
0010
1000
,
1000
0000
1000
0000
0013
0100
0010
1000
0001
0100
0010
1000
0011
0000
0011
0000
,
0011
2100
0000
3010
1001
0001
1001
0001
,
1001
0000
0001
0000
2001
3120
0001
0000
1031
0000
0001
0000
1001
0000
0001
0000
,
1001
0000
0000
0000
0001
0000
0000
0000
1001
0000
0210
0000
0001
0300
0120
0000
1031
0000
0000
0000
0001
0000
0000
0000
1001
0000
0000
0000
0001
0000
0000
0000
,
1001
0000
0001
0000
1002
0213
0000
1000
0001
0000
0010
0000
0001
0000
0310
1100
,
1100
1100
1100
1100
1100
0000
0012
0000
0000
0000
2103
0000
3011
0000
0010
0000
,
0010
0010
0011
0010
0010
0010
0011
0010
,
2100
3010
1002
0213
0000
0310
0011
0010
,
0010
0010
0011
0010
0010
0010
0011
0010
,
0010
0010
0011
0102
0000
2013
3011
0010
,
0010
0010
0011
0010
0010
0010
0011
0010
,
0010
0010
2100
3012
0000
1003
1001
1000
,
0010
1000
1001
1000
0110
1001
1001
0100
,
0010
0100
0010
0201
0000
1320
1130
0100
,
0002
0103
1100
0020
0000
0130
1100
0100
,
0001
1000
0011
1100
0001
1000
1010
1000
,
0010
1000
1010
0100
0010
0001
0101
0001
,
1000
0100
1010
0201
0000
1320
1031
1000
,
0200
1300
1001
0020
0000
1030
1001
1000
,
0001
0100
0011
2100
0000
0000
3011
0001
,
1000
0010
1100
0012
0000
0000
1000
0000
,
0010
1103
1100
1100
0011
0001
0101
0010
,
1010
1001
0100
0011
0001
0001
0101
0010
,
1010
1100
0010
1001
0100
0000
0110
0000
,
1001
0001
0110
1010
0100
0010
0101
0000
,
0011
1001
0010
1000
0011
0001
0101
0010
,
1010
1001
0100
0011
0001
0001
0101
0010
,
1010
1100
0010
1001
0100
0001
1010
0000
,
0101
0000
1010
1100
0001
1000
0011
0000
,
0101
1001
0100
0001
0110
0010
1010
0100
,
0101
0011
1000
0110
0010
0010
1010
0100
,
0101
1001
0010
1100
0001
1000
0101
0000
,
0110
0100
1010
1100
0001
1000
0011
0000
,
0110
1010
0001
0000
0011
0000
1010
0000
,
0101
0000
1010
0000
1010
0000
2020
3030
0000
0000
0000
0000
0000
0000
0012
0000
,
0000
1003
1001
1000
0010
1000
1001
1000
,
0100
1000
1001
1000
0010
1000
0110
0002
,
0003
1000
1001
1000
0010
1000
1001
1000
,
0100
1000
1001
1000
0010
1000
0021
0132
,
0000
1003
1001
1000
0010
1000
1001
1000
,
0100
1000
1001
1000
0010
1000
0210
1302
,
0000
1003
1001
0100
0010
1000
1001
1000
,
0010
1100
1100
0010
0100
0010
0100
0012
,
0000
0103
1010
0010
1010
0010
1010
0010
,
1020
0231
0010
0000
1310
0000
0010
0000
1010
0000
0010
0000
1010
0000
0010
0000
,
1010
0000
0102
0000
0010
0003
1200
0000
1310
0000
0000
0000
0010
0000
0000
0000
1010
0000
0000
0000
0010
0000
0000
0000
1010
0000
0000
0000
0010
0000
0000
0000
,
2010
3102
0000
1000
0010
0000
0100
0100
0010
0000
0103
0011
0011
0011
0011
0011
,
0011
2100
0000
3012
1103
0100
0100
0100
,
1100
0100
0100
0100
1100
0100
0012
0103
,
2001
3120
0000
0130
1100
0100
0100
0100
,
1100
0100
0100
0100
1100
0100
0100
0100
,
1100
2010
0000
3102
1103
0100
0100
0100
,
1100
0100
0100
0100
1100
0100
0100
0100
,
0012
2103
0000
3001
1001
0001
0100
0001
,
1001
0000
0001
0000
0010
0000
1001
0110
1001
0000
0010
0100
1000
0000
0100
0000
,
0010
0201
0000
1320
1031
0001
2000
3001
,
1001
0020
0000
0130
0101
0100
0001
1000
,
0011
1100
0010
1000
1001
0010
0100
0001
,
1001
0010
0100
1000
1001
1000
0001
0100
,
0011
2100
0000
3012
0113
0100
0020
0130
,
0101
2000
0000
3010
1010
0010
0100
0001
,
1100
0012
0000
0000
1103
1000
0001
0100
,
0011
2100
0000
0000
0001
0000
3011
0011
,
0011
0011
1100
1000
1010
0001
0101
0110
,
0001
1100
1000
1000
1010
0001
0101
0011
,
0100
1001
0010
0001
0110
0000
1001
0001
,
1010
0011
0100
0010
1100
0000
1010
1001
,
0010
0001
1100
1000
1010
0001
0101
0110
,
0001
1100
1000
1000
1010
0001
0101
0011
,
0100
1001
0010
0001
1100
0000
1010
1000
,
0011
0000
0101
0000
1000
0000
0001
0000
1010
0000
0000
0000
1001
0000
0011
0100
,
0010
1000
0110
0100
0101
0010
1010
1100
,
0001
0110
0100
0100
0101
0010
1010
1001
,
0100
0011
1000
0000
1010
0000
0110
0010
,
0101
0011
1000
0001
1100
0000
0110
0101
,
0010
0000
1100
0000
0101
0000
1010
0101
,
0101
0000
0202
0303
0000
0000
0000
0000
0000
0000
1002
0000
0000
0000
0000
0000
,
0000
0000
0000
0003
0000
0200
0000
0301
,
0001
0000
0000
0000
0000
0000
0000
0000
0000
0000
0000
0000
0000
0000
0000
0000
0000
0000
0000
0000
0000
0000
0000
0000
0001
0000
0000
0000
0000
0000
0000
0000
0000
0000
0000
0000
0000
0000
0000
0000
0000
0000
0000
0000
0000
0000
0000
0000
0010
0000
0000
0000
0000
0000
0000
0000
0000
0000
0000
0000
0000
0000
0000
0000
0000
0000
0000
0000
0000
0000
0000
0000
0001
0000
0000
0000
0000
0000
0000
0000
0000
0000
0000
0000
0000
0000
0000
0000
0000
0000
0000
0000
0000
0000
0000
0000
0000
0000
0000
0000
0000
0000
0000
0000
0000
0000
0000
0000
0000
0000
0000
0000
0000
0000
0000
0000
0000
0000
0000
0000
0100
0000
0000
0000
0000
0000
0000
0000
0020
0000
0000
0000
0000
0000
0000
0000
0000
0000
0000
0000
0000
0000
0000
0000
0000
0000
0000
0000
0000
0000
0000
0000
0000
0000
0000
0000
0000
0000
0000
0000
0000
0000
0000
0000
0000
0030
0000
0000
1000
0000
0000
0000
0000
0000
0000
0000
0000
0000
0000
0000
0000
0000
0000
0000
0000
0000
0000
0000
0000
0000
0000
0000
,
0001
0001
0010
0100
1000
0002
0000
0000
,
0000
0000
0000
0000
0000
0000
0000
0000
0000
0003
2100
0000
0000
0000
0000
0000
,
0000
0000
0000
0000
0000
0000
0000
0000
0000
3020
0000
0000
0000
0000
0000
0000
0000
0000
0000
0000
0000
0000
0000
0030
1000
0000
0000
0000
0000
0000
0002
0000
0000
0000
0000
0000
0000
0000
0000
0000
0000
0000
0103
0000
0000
0000
0000
0000
,
1000
0000
0000
0000
0001
0000
0000
0000
0020
0000
0000
0000
0000
0000
0000
0000
0000
0000
0000
0030
1200
0000
0000
0000
0000
0000
0000
0000
0000
0000
0000
0000
,
0000
0000
0000
0300
0000
0000
2010
0000
0000
0000
0000
0000
0000
0000
0000
3000
0000
0000
0010
0000
0000
0000
0000
0000
0002
0000
0000
0000
0000
0000
2000
3000
0000
0000
0000
0000
0000
0000
0000
0000
0000
0000
0103
0000
0000
0000
0000
0000
,
0010
0000
0000
0000
0000
0000
0000
0000
0000
0000
0000
0000
0000
0000
0000
0000
0000
0000
0000
0000
0000
0000
0000
0000
2001
0000
0000
0000
0000
0000
0000
0000
0000
0000
0000
0000
0000
0000
0000
0000
0000
0000
0000
0000
0000
0000
0000
0000
0000
0000
0000
0000
0000
0000
0000
0000
0000
0000
0000
0000
0000
0000
0000
0000
0000
0000
0000
0000
0000
0000
0000
0000
0000
0000
0000
0000
0000
0000
0000
0000
0000
0000
0000
0000
0000
0000
0000
0000
0000
0000
0000
0000
0000
0000
0000
0000
0000
0000
0000
0000
0000
0000
0000
0000
0000
0000
0000
0000
0000
0000
0000
0000
0000
0000
3000
0000
0000
0000
0000
0000
0011
0000
0000
0000
0000
0000
0000
0000
0000
0000
0000
0000
0000
0000
0000
0000
0100
0000
0000
0000
0000
0000
0000
0000
0010
0000
0000
0000
0000
0000
0000
0000
0000
0000
0000
0000
0000
0000
0000
0000
1000
0000
0000
0000
0000
0000
0000
0000
0000
0000
0000
0000
0000
0000
0000
0000
0001
0000
0000
0000
0000
0000
0000
0000
0000
0000
0000
0000
0000
0000
0000
0000
,
0000
0000
0000
0000
0010
0000
0000
0000
0000
0000
0000
0000
0000
0000
0000
0000
0000
0000
0000
0000
0000
0000
0000
0000
0100
0000
0000
0000
0000
0000
0000
0000
0000
0000
0000
0000
1000
0000
0000
0000
0000
0000
0000
0000
0000
0000
0000
0000
0100
0000
0000
0000
0000
0000
0000
0000
0000
0000
0000
0000
0010
0000
0000
0000
0000
0000
0000
0000
0000
0000
0000
0000
0001
0000
0000
0000
0000
0000
0000
0000
0000
0000
0000
0000
0000
0000
0000
0000
0000
0000
0000
0000
0000
0000
0000
0000
0010
0000
0000
0000
0000
0000
0000
0000
0000
0000
0000
0000
0100
0000
0000
0000
0000
0000
0000
0000
0000
0000
0000
0000
1000
0000
0000
0000
0000
0000
0000
0000
0000
0000
0000
0000
0000
0000
0000
0000
0000
0000
0001
0000
0000
0000
0000
0000
0100
0000
0000
0000
0000
0000
0000
0000
0000
0000
0000
0000
0010
0000
0000
0000
0000
0000
0000
0000
0000
0000
0000
0000
1000
0000
0000
0000
0000
0000
0000
0000
0000
0000
0000
0000
0001
0000
0000
0000
0000
0000
0000
0000
0000
0000
0000
0000
,
0010
0000
0000
0000
1000
0000
0000
0000
0100
0000
0000
0000
0010
0000
0000
0000
0001
0000
1000
0000
0010
0000
0000
0000
0100
0000
0000
0000
0010
0000
0000
0000
1000
0000
0000
0000
0001
0000
0000
0000
0100
0000
0000
0000
0000
0000
0000
0000
0001
0000
0000
0000
0010
0000
0000
0000
0000
0000
0001
0000
0000
0100
0000
0000
,
0010
0000
0000
0000
0000
0000
0000
0000
0000
0000
0000
0000
1000
0000
0000
0000
0000
0000
0000
0000
0000
0000
0000
0000
0100
0000
0000
0000
0000
0000
0000
0000
0000
0000
0000
0000
0000
0000
0000
0000
0010
0000
0000
0000
0000
0000
0000
0000
0000
0000
0000
0000
0000
0000
0000
0000
0100
0000
0000
0000
0000
0000
0000
0000
0010
0000
0000
0000
0000
0000
0000
0000
0001
0000
0000
0000
0000
0000
0000
0000
0000
0000
0000
0000
1000
0000
0000
0000
0000
0000
0000
0000
0000
0000
0000
0000
0010
0000
0000
0000
0000
0000
0000
0000
0000
0000
0000
0000
0100
0000
0000
0000
0000
0000
0000
0000
0000
0000
0000
0000
0001
0000
0000
0000
0000
0000
0000
0000
0000
0000
0000
0000
0000
0000
0000
0000
0100
0000
0000
0000
0000
0010
0000
0000
0000
0000
0000
0000
0000
0000
1000
0000
0000
0000
0000
0000
0001
0000
0000
0000
0000
0000
0000
0000
0000
0000
0000
0000
1000
0000
0000
0000
0000
0000
0000
0000
0000
0000
0000
0000
0100
0000
0000
0000
0000
0000
0000
0000
0000
0000
0000
0000
,
0010
0001
1000
0010
0100
0001
1000
0100
0010
0001
0100
0000
0020
0000
0000
0000
,
0000
0000
0000
0000
0030
0002
0000
0000
,
0000
0000
0000
0000
0000
0000
2003
0000
0000
0000
0000
0000
0000
0000
0000
3101
0000
0010
0000
1000
0000
0001
0000
0100
,
0000
0000
0000
0000
0000
0000
0000
0000
0010
0000
0000
0000
0000
0000
0000
0000
1000
0000
0000
0000
0000
0000
0000
0000
0011
0000
0000
0000
0000
0000
0000
0000
0000
0000
0000
0000
0000
0000
0000
0000
0100
0000
0000
0000
0000
0000
0000
0000
0000
0000
0000
0000
0000
0000
0000
0000
0000
0000
0000
0000
0001
0000
0000
0000
0000
0000
0000
0000
0000
0000
0000
0000
0000
0000
0000
0000
0000
0000
0000
0000
0000
1000
0000
0000
0000
0000
0000
0000
0000
0000
0000
0000
0000
0000
0000
0000
0000
0000
0000
0000
0010
0000
0000
0000
0000
0000
0000
0000
0100
0000
0000
0000
0000
0000
0000
0000
0000
0000
0000
0000
1001
0000
0000
0000
0000
0000
0000
0000
0000
0000
0000
0000
0000
0000
0000
0000
0000
0000
0010
0000
0000
0000
0000
0000
0100
0000
0000
0000
0000
0000
0000
0000
0000
0000
0000
0000
0001
0000
0000
0000
0000
0000
0000
0000
0000
0000
0000
0000
1000
0000
0000
0000
0000
0000
0000
0000
0000
0000
0000
0000
0000
0000
0000
0000
0000
0000
0001
0000
0000
0000
0000
0000
,
0100
0000
0000
0000
0000
0000
0000
0000
0000
0000
0000
0000
0010
0000
0000
0000
0000
0000
0000
0000
0000
0000
0000
0000
1100
0000
0000
0000
0000
0000
0000
0000
0000
0000
0000
0000
0001
0000
0000
0000
0000
0000
0100
0000
0000
0000
0000
0000
0010
0000
0000
0000
0000
0000
0000
0000
0000
0000
0000
0000
1000
0000
0000
0000
0000
0000
0000
0000
0000
0000
0000
0000
0001
0000
0000
0000
0000
0000
0000
0000
0000
0000
0000
0000
0000
0000
0000
0000
0100
0000
0000
0000
0000
0000
0000
0000
0000
0000
0000
0000
0000
0000
0000
0000
0000
0000
0000
0000
0000
0000
0000
0000
0000
0000
0000
0000
0000
0000
0000
0000
0120
0000
0000
0000
0000
0000
0000
0000
0000
0000
0000
0000
0000
0000
0000
0000
0000
0000
0000
0000
0000
0000
0000
0000
0000
0000
0000
0000
0000
0000
0000
0000
0000
0000
0000
0000
0000
0000
0000
0000
0000
0000
0000
0000
0000
0000
0000
0000
0000
0000
0000
0000
0000
0000
0000
0000
0000
0000
0000
0000
0000
0000
0000
0000
0000
0000
0000
0000
0000
0000
0000
0000
,
1000
0000
2030
3002
1203
0320
0000
0032
,
1000
0000
2003
3002
1023
1230
0000
0000
,
1000
0000
0000
0000
0000
0000
0000
0000
0000
0000
0000
0000
0000
0000
0000
0000
1000
0000
0000
0000
0302
0000
0000
0000
0000
0000
0000
0003
1000
0000
0000
0000
,
1001
0100
0100
0010
0011
0201
0000
0000
,
0001
0000
0320
2030
3102
0023
0000
0230
,
0001
0000
2300
3020
0231
1302
0000
0000
,
1000
0000
0000
0000
1013
0001
1000
0000
1000
0000
2002
0000
0000
0000
0000
0000
,
0000
0000
0000
0000
0000
3003
0101
0010
,
0000
0010
0000
0010
0000
0010
0000
0010
,
0000
0010
0000
0010
0000
0010
0000
0010
,
0000
0010
0000
0010
0000
0010
0000
0010
,
0000
0010
0000
0010
0000
0010
1000
0011
,
0000
0011
0000
0011
0000
0011
1000
0011
,
0000
0011
0000
0011
0000
0011
1000
0011
,
0000
0011
0000
0011
0000
0011
1000
0011
,
0000
0011
0000
0011
0000
0011
2001
3011
,
0000
0000
0011
0000
0000
0000
0011
0000
0000
0000
0011
0000
0000
1000
0011
0100
,
0000
1000
0011
0000
0000
1000
0011
0000
0100
0100
0011
0000
2001
0000
3011
0000
,
0000
0000
0011
0000
0000
0000
0011
0000
0000
1000
0011
0000
0100
0000
0011
0000
,
0000
0011
0000
0011
0000
0011
2001
3011
,
0000
0011
0000
0011
0000
0011
2001
3011
,
0000
0011
0000
0011
0000
0011
2001
3011
,
2001
3011
2001
3011
2001
3011
1100
1100
,
1100
1100
1100
1100
1100
1001
0000
1001
,
1010
0010
0110
0001
1001
1100
0001
1010
,
0010
0010
0110
0001
1001
0101
1000
0011
,
0100
0001
1100
0000
0011
0001
0110
0101
,
1000
0000
0100
0000
1010
0000
0000
0000
0110
0000
0011
1000
0001
0000
0001
0000
,
1010
0010
0110
0001
1001
1100
0001
1010
,
0010
0010
0110
0001
1001
0101
1000
0011
,
0100
0000
1010
0000
0110
0010
0101
1001
,
0010
0001
0110
0000
0011
0101
0101
0010
,
1100
1000
1001
0100
0110
1010
0001
1100
,
1000
1000
1001
0100
0110
0011
1000
0101
,
0010
0000
0110
0000
1100
0100
1001
0101
,
0010
0001
1010
0000
1100
1001
0010
0000
,
1010
0000
0000
0000
1001
0000
0000
0000
0110
0000
1001
0000
1001
0000
2002
3003
,
0000
0000
0000
0102
0000
0123
0130
0100
,
0010
0100
1000
0102
0000
0123
0130
0100
,
0010
0100
1000
0102
0000
0123
0130
0100
,
0010
0100
1020
0232
0000
0000
0000
0303
;
