#TITLE:Friday;
#SUBTITLE:~Speedcore Remix~;
#ARTIST:m1dlet;
#TITLETRANSLIT:;
#SUBTITLETRANSLIT:;
#ARTISTTRANSLIT:;
#CREDIT:Happy Feet;
#BANNER:Bn-Friday.png;
#BACKGROUND:Bg-Friday.png;
#LYRICSPATH:;
#CDTITLE:;
#MUSIC:Friday ~Speedcore Remix~.ogg;
#OFFSET:0.013;
#SAMPLESTART:30.420;
#SAMPLELENGTH:12.000;
#SELECTABLE:YES;
#DISPLAYBPM:240.000;
#BPMS:0.000=240.063,384.000=14.100,384.063=240.063;
#STOPS:;
#BGCHANGES:;
// cache tags:
#FIRSTBEAT:32.000;
#LASTBEAT:415.000;
#SONGFILENAME:Songs/SPEEEDCOOOORE/Friday ~Speedcore Remix~ - [Happy Feet!]/Friday ~Speedcore Remix~.sm;
#HASMUSIC:1;
#HASBANNER:1;
#MUSICLENGTH:104.332;
// end cache tags

//---------------dance-single - Happy Feet----------------
#NOTES:
     dance-single:
     Happy Feet:
     Challenge:
     15:
     1.000,1.000,0.115,0.546,0.901,810.000,12.000,57.000,31.000,0.000:

0000
0000
0000
0000
,
0000
0000
0000
0000
,
0000
0000
0000
0000
,
0000
0000
0000
0000
,
0000
0000
0000
0000
,
0000
0000
0000
0000
,
0000
0000
0000
0000
,
0000
0000
0000
0000
,
0001
0000
0010
0000
0100
1000
0000
1000
,
0010
0100
0101
0000
0000
1010
0010
0100
,
0001
0000
0001
0000
0101
0000
0000
0100
,
0001
1000
0100
0010
0110
0100
0000
0010
,
0001
0000
1000
0000
0010
0100
0000
0100
,
0010
1000
1100
0000
0000
0011
0001
0100
,
0010
0000
0010
0000
0101
0000
0000
0010
,
1000
0100
1000
0010
1010
1000
0000
0001
,
0020
0032
0203
0302
,
0023
0230
0320
0032
,
2003
3200
0320
0032
,
0203
0302
2003
3002
,
0203
0320
2030
3020
,
0230
0302
2003
3200
,
0310
0000
0001
0000
1001
0000
0000
1000
,
0001
0010
0100
1000
0002
0000
0003
0000
,
1000
0100
1000
0100
0010
0001
0010
0100
1000
0001
1000
0010
0100
0000
0001
0000
,
0100
0001
0100
0010
1000
0010
1000
0001
0100
0001
0100
0010
1000
0000
0001
0000
,
1000
0001
0100
0001
0100
0010
1000
0010
1000
0100
0010
0001
0010
0000
0001
0000
,
1000
0100
0010
0001
1000
0010
1000
0010
0100
0001
0100
0010
1000
0001
1000
0001
,
1000
0010
0100
0001
1000
0100
1000
0010
,
0100
0010
1000
0001
0100
0001
1000
0100
,
1000
0010
0100
0010
1000
0001
0010
0001
,
0100
0010
1000
0100
1000
0001
0010
0100
,
0010
0001
1000
0001
0100
0001
1000
0100
,
1000
0010
0100
0010
1000
0001
2000
0000
,
3001
0000
0000
0000
0000
0000
0100
0010
1000
0000
0100
0000
0010
0000
0000
0000
,
0001
1000
0010
0200
0000
0000
0000
0000
,
0301
1000
0001
1000
0010
0100
0001
0100
0001
1000
0010
1000
0010
0000
1000
0000
,
0001
0100
0001
0100
0010
1000
0100
1000
0001
0100
0001
1000
0010
0000
0100
0000
,
000M
0000
M000
0000
0M00
0000
00M0
000M
0000
000M
0M00
0000
00M0
0000
M000
0000
,
0M00
0000
M000
0000
00M0
0000
M000
0M00
0000
0M00
00M0
0000
000M
0000
M000
0000
,
0010
0100
0010
1000
0001
0100
0001
1000
0010
1000
0010
0100
0001
0000
0100
0000
,
0001
0010
0001
0010
0100
1000
0100
1000
0001
0100
0001
0100
0001
0000
1000
0000
,
0100
1000
0100
1000
0001
0010
0001
1000
0010
0100
0010
1000
0001
0000
1000
0000
,
0001
0100
0001
0100
0010
1000
0010
1000
0001
0100
0010
1000
0001
0100
0010
0100
,
0010
1000
0001
1000
0001
0010
0001
0010
0100
1000
0100
1000
0001
0000
1000
0000
,
0010
0100
0010
1000
0001
0100
0010
1000
0001
1000
0010
0100
0010
0000
0100
0000
,
0001
0010
0001
0010
0100
1000
0100
1000
0001
0100
0001
1000
0001
0000
0100
0000
,
0001
1000
0001
1000
0100
0010
0001
0010
0001
1000
0001
0100
0010
0100
0001
1000
,
0001
0000
0100
0000
0010
0000
1000
0000
0100
0000
0100
0000
0010
0001
0010
0001
,
0010
0000
0001
0000
0100
0000
0010
0000
1000
0000
1000
0000
0001
0100
0001
0100
,
0001
0000
1000
0000
0001
0000
0010
0000
0100
0000
0100
0000
1000
0010
1000
0010
,
1000
0000
0010
0000
0100
0000
0001
0000
0010
0000
0010
0000
0100
1000
0100
1000
,
0100
0000
1000
0000
0010
0000
0100
0000
0001
0000
0001
0000
0100
0010
0100
0010
,
0100
0000
0001
0000
0010
0000
0100
0000
0010
0000
0010
0000
0001
0010
0001
0010
,
0001
0000
1000
0000
0100
0000
0010
0000
0001
0000
0001
0000
1000
0100
1000
0100
,
1000
0000
0010
0000
0100
0000
0001
0000
0100
0000
0100
0000
0010
1000
0010
1000
,
0010
0000
1000
0000
0100
0000
0010
0000
0001
0000
0001
0000
0010
0001
1000
0001
,
0010
0000
0100
0000
1000
0000
0010
0000
0100
0000
0100
0000
0010
1000
0001
1000
,
0010
0000
1000
0000
0010
0000
0100
0000
0001
0000
0001
0000
0100
0010
0100
0001
,
1000
0000
0010
0000
0100
0000
0001
0000
0010
0000
0010
0000
0001
0010
0100
1000
,
0001
0000
0100
0000
0010
0000
1000
0000
0100
0000
0100
0000
0010
0001
1000
0001
,
0100
0000
0010
0000
1000
0000
0100
0000
1000
0000
1000
0000
0001
0010
0001
1000
,
0010
0000
1000
0000
0100
0000
0010
0000
0001
0000
0001
0000
1000
0010
1000
0010
,
0100
0000
0001
0000
1000
0000
0100
0000
1000
0000
2000
0000
0000
0000
0000
3000
,
0101
0000
0000
0000
0100
0000
0001
0000
1000
0001
1000
0000
0010
0000
0100
0000
,
0010
0000
1000
0000
0100
0000
0010
0000
0001
0100
0001
0000
1000
0000
0010
0000
,
0100
0000
0001
0000
0010
0000
0100
0000
1000
0010
1000
0000
0010
0000
0100
0000
,
0001
0000
1000
0000
0100
0000
1000
0000
0100
0010
0100
0000
1000
0000
0001
0000
,
0100
0000
0010
0000
1000
0000
0001
0000
0010
0100
0010
0000
0001
0000
0100
0000
,
0010
0000
1000
0000
0001
0000
0100
0000
0001
0100
0001
0000
0100
0000
0001
0000
,
0010
0000
0001
0000
1000
0000
0100
0000
1000
0100
1000
0000
0010
0000
0100
0000
,
0001
0000
1000
0000
0100
0000
0010
0000
0001
1000
0001
0000
0100
0000
0010
0000
,
1000
0000
0010
0000
0100
0000
0001
0000
1000
0100
0010
0000
0100
0000
1000
0000
,
0010
0000
0100
0000
0001
0000
1000
0000
0001
0100
0010
0000
1000
0000
0001
0000
,
0010
0000
0001
0000
1000
0000
0010
0000
0100
0010
1000
0000
0100
0000
1000
0000
,
0010
0000
0100
0000
0001
0000
1000
0000
0001
0010
0100
0000
0010
0000
0001
0000
,
1000
0000
0010
0000
0100
0000
0001
0000
1000
0010
0100
0000
0010
0000
1000
0000
,
0001
0000
1000
0000
0100
0000
1000
0000
0001
0100
0010
0000
1000
0000
0001
0000
,
0010
0000
0001
0000
0100
0000
0010
0000
1000
0001
0100
0000
0010
0000
1000
0000
,
0001
1000
0100
1000
0002
0000
0000
0003
,
0100
0001
0100
0001
1000
0010
1000
0010
0100
0001
0100
0001
1000
0000
0010
0000
,
1000
0100
0010
0001
0010
0001
1000
0001
1000
0010
0100
0010
0100
0000
0001
0000
,
0010
0001
0010
0100
1000
0100
1000
0001
0100
0001
0100
0010
1000
0000
0100
0000
,
1000
0100
1000
0001
0100
0001
1000
0010
0100
0010
0100
0001
1000
0001
1000
0100
,
0010
0001
2000
0000
3001
0000
0010
0100
,
0010
0000
0100
1000
0020
0000
0230
0000
,
0310
1000
0001
0000
1001
0000
1000
0010
,
0200
0320
0230
M3MM
,
0001
1000
0100
1000
0010
0000
0100
0010
,
1000
0000
0001
0100
0020
0000
0030
0000
,
0100
0010
1000
0001
0020
0000
0230
0000
,
2300
0000
0000
0000
3002
0000
0000
0000
1003
0000
0010
0100
0001
0000
1000
0000
,
0001
0000
M010
020M
0000
M310
020M
0000
,
1300
0100
1000
0010
0200
0000
0302
0000
,
MMM3
0000
0010
0100
2000
0000
3002
0000
,
0023
0230
2300
0000
,
3002
0000
MMM3
0000
1000
0001
0200
0000
,
0320
2030
3000
0002
,
0203
0320
2030
0000
,
0000
0000
0000
0000
3001
0000
0100
0010
0100
0000
0001
0000
0100
0001
0100
0010
,
1000
0010
1000
0001
0010
0001
0010
0100
1000
0000
0100
0000
1000
0100
1000
0100
,
0010
0001
0010
0001
1000
0100
1000
0001
0100
0000
0010
0000
0100
0001
0100
0010
,
1000
0010
0100
0001
0100
0001
1000
0010
0100
0001
1000
0100
4000
0400
0000
0000
,
0000
0000
0000
3300
;
