#TITLE:Anything Could Happen;
#SUBTITLE:Flinch Remix;
#ARTIST:Ellie Goulding;
#TITLETRANSLIT:;
#SUBTITLETRANSLIT:;
#ARTISTTRANSLIT:;
#CREDIT:;
#BANNER:../Wubstream - ban.png;
#BACKGROUND:../Wubstream - bg.png;
#LYRICSPATH:;
#CDTITLE:;
#MUSIC:Ellie Goulding - Anything Could Happen (Flinch Remix).ogg;
#OFFSET:-0.294;
#SAMPLESTART:100.452;
#SAMPLELENGTH:12.000;
#SELECTABLE:YES;
#BPMS:0.000=145.000;
#STOPS:;
#BGCHANGES:;
// cache tags:
#FIRSTBEAT:30.000;
#LASTBEAT:482.000;
#SONGFILENAME:Songs/Wubstream/Anything Could Happen - [Rynker]/anything could happen.sm;
#HASMUSIC:1;
#HASBANNER:1;
#MUSICLENGTH:201.455;
// end cache tags

//---------------dance-single - Rynker----------------
#NOTES:
     dance-single:
     Rynker:
     Challenge:
     17:
     1.000,1.000,0.000,0.000,1.000,1881.000,0.000,0.000,0.000,0.000:

0000
0000
0000
0000
,
0000
0000
0000
0000
,
0000
0000
0000
0000
,
0000
0000
0000
0000
,
0000
0000
0000
0000
,
0000
0000
0000
0000
,
0000
0000
0000
0000
,
0000
0000
0000
0000
1000
0100
1000
0000
,
0001
0100
0001
0000
1000
0100
1000
0000
,
0001
0010
0001
0000
1000
0010
1000
0000
,
0001
0100
0001
0000
1000
0100
1000
0000
,
0001
0100
0001
0000
1000
0100
1000
0100
,
0010
0001
1000
0010
1000
0001
0100
0010
,
1000
0100
1000
0001
0010
0000
0100
0000
,
1000
0000
0000
0000
0000
0000
0001
0000
0000
0000
0000
0000
0100
0000
0000
0010
0000
0000
1000
0000
0001
0000
0010
0000
,
0100
0000
0000
0000
0000
0000
0000
0000
0000
0000
0000
0000
1000
0001
0100
0010
1000
0010
0100
0001
0100
0010
1000
0001
,
1000
0000
0000
0000
0000
0000
0000
0000
0000
0000
0000
0000
0001
0010
0100
1000
0100
0010
0001
1000
0001
0010
0100
1000
,
0001
0100
0010
1000
0001
0010
0100
1000
0001
0100
0010
1000
0001
1000
0100
0010
0001
1000
0100
0010
0001
0010
0100
1000
,
0001
0000
0000
0000
0000
0000
0000
0000
0000
0000
0000
0000
1000
0001
0100
0010
0100
0001
1000
0001
0100
0010
0100
0001
,
1000
0100
0010
0001
1000
0010
0100
0001
1000
0100
0010
0001
1000
0010
0100
0001
0100
0010
1000
0001
0100
0001
1000
0010
,
0100
0000
0000
0000
0000
0000
0000
0000
0000
0000
0000
0000
0001
1000
0100
0010
0001
0010
0100
1000
0001
1000
0001
0010
,
0100
1000
0001
0100
0010
1000
0001
0010
0100
1000
0100
0010
0001
1000
0001
0100
0010
0100
0001
1000
0010
0100
0001
1000
,
0001
0000
0000
0000
0000
0000
0000
0000
0000
0000
0000
0000
1000
0001
0100
0001
1000
0010
1000
0001
0100
0001
1000
0100
,
1000
0100
0010
0001
0010
0100
1000
0001
1000
0001
0010
0100
1000
0001
0100
0010
0100
0001
1000
0010
0100
0001
1000
0001
,
0010
0100
1000
0100
0010
0001
1000
0100
1000
0001
0010
0100
1000
0001
0100
0010
0100
0001
1000
0010
0100
0001
1000
0001
,
1000
0100
0010
0001
1000
0001
0100
0010
1000
0001
1000
0100
0010
0001
0010
0100
1000
0001
1000
0100
0010
0001
1000
0001
,
0100
0010
1000
0010
0100
0001
1000
0001
1000
0010
0100
0001
1000
0100
0010
0001
0010
0100
1000
0001
0010
0001
1000
0100
,
0010
0001
1000
0010
0100
0001
0010
0100
1000
0001
0100
0010
0100
0001
1000
0100
0010
0001
1000
0100
0010
0001
1000
0010
,
0100
0001
1000
0001
0100
0010
1000
0010
0100
0001
1000
0001
0010
0100
0010
0001
1000
0100
0010
0100
1000
0001
1000
0001
,
0100
0010
0100
0001
1000
0001
0010
0100
0010
0001
1000
0001
0100
0010
1000
0010
0100
0001
1000
0001
1000
0010
0100
0001
,
1000
0001
0010
0100
0010
0001
1000
0100
0010
0001
1000
0001
1000
0000
0000
0000
0000
0000
0000
0000
0000
0000
0000
0000
,
0000
0000
0000
0000
0000
0000
0000
0000
0000
0000
0000
0000
0001
0100
0010
0100
0001
1000
0100
1000
0001
0010
0100
1000
,
0001
0000
0000
0000
0000
0000
0000
0000
0000
0000
0000
0000
1000
0010
0100
0001
0100
0010
1000
0001
0100
0010
0100
0001
,
1000
0100
0010
0001
1000
0010
0100
0001
1000
0001
0010
0100
1000
0001
0100
0010
0100
0001
1000
0001
0100
0010
1000
0001
,
1000
0000
0000
0000
0000
0000
0000
0000
0000
0000
0000
0000
0001
1000
0100
0010
0001
0010
0100
1000
0001
1000
0001
0010
,
0100
1000
0001
0100
0010
1000
0001
0010
0100
1000
0001
0100
0010
0100
0001
1000
0010
0100
0001
1000
0001
0100
0010
1000
,
0001
0000
0000
0000
0000
0000
0000
0000
0000
0000
0000
0000
1000
0100
0010
0001
0010
0100
1000
0001
1000
0001
0010
0100
,
1000
0001
0100
0010
1000
0001
0010
0100
1000
0001
0100
0010
1000
0010
0100
0001
1000
0010
0100
0001
0100
0010
1000
0001
,
1000
0000
0000
0000
0000
0000
0000
0000
0000
0000
0000
0000
0001
1000
0100
0010
0001
0010
0100
1000
0001
1000
0100
0010
,
0001
1000
0010
0100
0001
0100
0010
1000
0001
1000
0010
0100
0001
1000
0100
0010
0001
0010
0100
1000
0001
0010
0100
1000
,
0001
1000
0001
0100
0010
0100
0001
1000
0001
1000
0010
0100
0001
1000
0100
1000
0001
0010
0100
1000
0001
0010
0100
1000
,
0001
0100
0010
1000
0001
0010
0100
1000
0001
0100
0010
1000
0001
0010
0100
0010
0001
1000
0100
1000
0001
0010
0100
1000
,
0001
1000
0001
0100
0010
0100
0001
1000
0001
1000
0010
0100
0010
1000
0001
0010
0100
1000
0001
0010
0001
1000
0100
1000
,
0001
0100
0010
1000
0001
0010
0100
1000
0001
0100
0010
1000
0001
0010
0100
1000
0001
0100
0010
0100
0001
1000
0010
0100
,
0001
1000
0100
1000
0001
0010
0100
1000
0001
1000
0001
0010
0100
1000
0001
0100
0010
0100
0001
1000
0010
0100
0001
0100
,
0010
1000
0001
0010
0100
1000
0001
0100
0010
1000
0001
0010
0100
1000
0100
0010
0001
0100
0010
1000
0010
0100
0001
1000
,
0001
0000
1000
0000
,
0001
0000
1000
0001
1000
0000
0000
0000
,
0001
0100
0010
1000
0001
0000
0000
1000
,
0100
0010
0001
1000
0001
0100
0000
0000
,
0001
1000
0010
1000
0001
0010
0000
0000
,
0001
1000
0100
0010
0001
1000
0000
0000
,
0010
1000
0001
0100
0010
1000
0001
0010
,
0100
0000
0010
0000
0001
0000
0100
0000
0010
1000
0010
0100
0001
0010
0100
1000
,
0010
0000
0000
0000
,
0000
0000
0000
0000
0000
0000
0000
0000
0000
0000
0000
0000
1000
0001
0100
0010
1000
0010
0100
0001
0100
0010
1000
0001
,
1000
0000
0000
0000
0000
0000
0000
0000
0000
0000
0000
0000
0001
0010
0100
1000
0100
0010
0001
1000
0001
0010
0100
1000
,
0001
0100
0010
1000
0001
0010
0100
1000
0001
0100
0010
1000
0001
0010
0100
0010
0001
1000
0100
0010
0001
0010
0100
1000
,
0001
0000
0000
0000
0000
0000
0000
0000
0000
0000
0000
0000
1000
0001
0100
0010
0100
0001
1000
0001
0100
0010
0100
0001
,
1000
0100
0010
0001
1000
0010
0100
0001
1000
0100
0010
0001
1000
0010
0100
0001
0100
0010
1000
0001
0100
0001
1000
0010
,
0100
0000
0000
0000
0000
0000
0000
0000
0000
0000
0000
0000
0001
1000
0100
0010
0001
0010
0100
1000
0001
1000
0001
0010
,
0100
1000
0001
0100
0010
1000
0001
0010
0100
1000
0100
0010
0001
1000
0001
0100
0010
0100
0001
1000
0010
0100
0001
1000
,
0001
0000
0000
0000
0000
0000
0000
0000
0000
0000
0000
0000
1000
0001
0100
0001
1000
0010
1000
0001
0100
0001
1000
0100
,
1000
0100
0010
0001
0010
0100
1000
0001
1000
0001
0010
0100
1000
0001
0100
0010
0100
0001
1000
0010
0100
0001
1000
0001
,
0010
0100
1000
0100
0010
0001
1000
0100
1000
0001
0010
0100
1000
0001
0100
0010
0100
0001
1000
0010
0100
0001
1000
0001
,
1000
0100
0010
0001
1000
0001
0100
0010
1000
0001
1000
0100
0010
0001
0010
0100
1000
0001
1000
0100
0010
0001
1000
0001
,
0100
0010
1000
0010
0100
0001
1000
0001
1000
0010
0100
0001
1000
0100
0010
0001
0010
0100
1000
0001
0010
0001
1000
0100
,
0010
0001
1000
0010
0100
0001
0010
0100
1000
0001
0100
0010
0100
0001
1000
0100
0010
0001
1000
0001
1000
0010
0100
0001
,
1000
0100
0010
0001
0010
0100
1000
0100
0010
0001
1000
0001
0100
0010
0100
0001
1000
0010
0100
0010
1000
0001
1000
0001
,
0010
0100
0010
0001
1000
0001
0100
0010
0100
0001
1000
0001
0010
0100
1000
0100
0010
0001
1000
0001
1000
0100
0010
0001
,
1000
0001
0100
0010
0100
0001
1000
0010
0100
0001
1000
0001
1000
0000
0000
0000
0000
0000
0000
0000
0000
0000
0000
0000
,
0000
0000
0000
0000
0000
0000
0000
0000
0000
0000
0000
0000
0001
0100
0010
0100
0001
1000
0100
1000
0001
0010
0100
1000
,
0001
0000
0000
0000
0000
0000
0000
0000
0000
0000
0000
0000
1000
0010
0100
0001
0100
0010
1000
0001
0100
0010
0100
0001
,
1000
0100
0010
0001
1000
0100
0010
0001
1000
0001
0010
0100
1000
0001
0100
0010
0100
0001
1000
0001
0100
0010
1000
0001
,
1000
0000
0000
0000
,
0000
0000
0000
0000
0000
0000
0000
0000
0000
0000
0000
0000
0001
0100
0001
1000
0010
0100
0001
1000
0001
0100
0010
1000
,
0001
0000
0000
0000
0000
0000
0000
0000
0000
0000
0000
0000
1000
0100
0010
0001
0010
0100
1000
0001
1000
0001
0010
0100
,
1000
0001
0100
0010
1000
0001
0100
0010
1000
0001
0100
0001
1000
0100
0010
0001
1000
0100
0010
0001
0010
0100
1000
0001
,
1000
0000
0000
0000
0000
0000
0000
0000
0001
0000
0000
0100
0000
0000
0010
0000
,
1000
0000
0000
0000
0000
0000
0000
0000
0000
0001
0000
0000
0000
0000
0000
0000
0000
0000
0010
0000
0000
0000
0000
0000
0001
0000
1000
0000
0100
0000
0010
0000
0001
0000
0010
0000
0100
0000
1000
0000
0001
0000
0010
0000
0100
0000
1000
0000
,
0001
1000
0001
0100
0010
0100
0001
1000
0001
1000
0010
0100
0001
1000
0100
1000
0001
0010
0100
1000
0001
0010
0100
1000
,
0001
0100
0010
1000
0001
0100
0010
1000
0001
0100
0010
1000
0001
0010
0100
0010
0001
1000
0100
1000
0001
0010
0100
1000
,
0001
1000
0001
0100
0010
0100
0001
1000
0001
1000
0010
0100
0010
1000
0001
0010
0100
1000
0001
0010
0001
1000
0100
1000
,
0001
0100
0001
1000
0010
0100
0001
1000
0001
0100
0010
1000
0001
0000
0000
0100
0000
0000
0001
0000
0000
1000
0000
0000
,
0100
1000
0001
0100
0001
1000
0100
0100
,
0100
1000
0001
0100
0001
1000
0000
0000
,
0000
0000
0000
0000
,
0000
0000
0000
0000
0000
0000
0000
0000
0000
0000
0000
0000
0001
1000
0010
0100
0001
0100
0010
1000
0010
0100
0001
1000
,
0001
0000
0000
0000
0000
0000
0000
0000
0000
0000
0000
0000
1000
0100
0010
0001
0010
0100
1000
0001
1000
0100
0010
0001
,
1000
0010
0100
0001
1000
0100
0010
0001
1000
0010
0100
0001
1000
0100
0010
0100
1000
0001
0010
0100
1000
0100
0010
0001
,
1000
0000
0000
0000
0000
0000
0000
0000
0000
0000
0000
0000
0001
1000
0010
0100
0010
1000
0001
1000
0010
0100
0010
1000
,
0001
0010
0100
1000
0001
0100
0010
1000
0001
0010
0100
1000
0001
0100
0010
1000
0010
0100
0001
1000
0010
1000
0001
0100
,
0010
0000
0000
0000
0000
0000
0000
0000
0000
0000
0000
0000
1000
0001
0010
0100
1000
0100
0010
0001
1000
0001
1000
0100
,
0010
0001
1000
0010
0100
0001
1000
0100
0010
0001
0010
0100
1000
0001
1000
0010
0100
0010
1000
0001
0100
0010
1000
0001
,
1000
0000
0000
0000
0000
0000
0000
0000
0000
0000
0000
0000
0001
1000
0010
1000
0001
0100
0001
1000
0010
1000
0001
0010
,
0001
0010
0100
1000
0100
0010
0001
1000
0001
1000
0100
0010
0001
1000
0010
0100
0010
1000
0001
0100
0010
1000
0001
1000
,
0100
0010
0001
0010
0100
1000
0001
0010
0001
1000
0100
0010
0001
1000
0010
0100
0010
1000
0001
0100
0010
1000
0001
1000
,
0001
0010
0100
1000
0001
1000
0010
0100
0001
1000
0001
0010
0100
1000
0100
0010
0001
1000
0001
0010
0100
1000
0001
1000
,
0010
0100
0001
0100
0010
1000
0001
1000
0001
0100
0010
1000
0001
0010
0100
1000
0100
0010
0001
1000
0100
1000
0001
0010
,
0100
1000
0001
0100
0010
1000
0100
0010
0001
1000
0010
0100
0010
1000
0001
0100
0010
1000
0001
1000
0001
0100
0010
1000
,
0001
0010
0100
1000
0100
0010
0001
0010
0100
1000
0001
1000
0010
0100
0010
1000
0001
0100
0010
0100
0001
1000
0001
1000
,
0100
0010
0100
1000
0001
1000
0010
0100
0010
1000
0001
1000
0100
0010
0001
0010
0100
1000
0001
1000
0001
0010
0100
1000
,
0001
1000
0010
0100
0010
1000
0001
0100
0010
1000
0001
1000
0001
0000
0000
0000
0000
0000
0000
0000
0000
0000
0000
0000
,
0000
0000
0000
0000
0000
0000
0000
0000
0000
0000
0000
0000
1000
0010
0100
0010
1000
0001
0010
0001
1000
0100
0010
0001
,
1000
0000
0000
0000
0000
0000
0000
0000
0000
0000
0000
0000
0001
0100
0010
1000
0010
0100
0001
1000
0010
0100
0010
1000
,
0001
0010
0100
1000
0001
0100
0010
1000
0001
1000
0100
0010
0001
1000
0010
0100
0010
1000
0001
1000
0010
0100
0001
1000
,
0001
0000
0000
0000
0000
0000
0000
0000
0000
0000
0000
0000
1000
0001
0010
0100
1000
0100
0010
0001
1000
0001
1000
0100
,
0010
0001
1000
0010
0100
0001
1000
0100
0010
0001
1000
0010
0100
0010
1000
0001
0010
0100
1000
0001
1000
0100
0010
0001
,
1000
0000
0000
0000
0000
0000
0000
0000
0000
0000
0000
0000
0001
0010
0100
1000
0100
0010
0001
1000
0001
1000
0100
0010
,
0001
1000
0010
0100
0001
1000
0100
0010
0001
1000
0010
0100
0001
0100
0010
1000
0001
0100
0010
1000
0010
0100
0001
1000
,
0001
0000
0000
0000
0000
0000
0000
0000
0000
0000
0000
0000
1000
0001
0010
0100
1000
0100
0010
0001
1000
0001
0010
0100
,
1000
0001
0100
0010
1000
0010
0100
0001
1000
0001
0100
0010
1000
0001
0010
0100
1000
0100
0010
0001
1000
0100
0010
0001
,
1000
0001
1000
0010
0100
0010
1000
0001
1000
0001
0100
0010
1000
0001
0010
0001
1000
0100
0010
0001
1000
0100
0010
0001
,
1000
0010
0100
0001
1000
0100
0010
0001
1000
0010
0100
0001
1000
0100
0010
0100
1000
0001
0010
0001
1000
0100
0010
0001
,
1000
0001
1000
0010
0100
0010
1000
0001
1000
0001
0100
0010
0100
0001
1000
0100
0010
0001
1000
0100
1000
0001
0010
0001
,
1000
0010
0100
0001
1000
0100
0010
0001
1000
0010
0100
0001
1000
0100
0010
0001
1000
0010
0100
0010
1000
0001
0100
0010
,
1000
0001
0010
0001
1000
0100
0010
0001
1000
0001
1000
0100
0010
0001
1000
0010
0100
0010
1000
0001
0100
0010
1000
0010
,
0100
0001
1000
0100
0010
0001
1000
0010
0100
0001
1000
0100
0010
0001
0010
0100
1000
0010
0100
0001
0100
0010
1000
0001
,
1000
0000
0000
0000
;

//---------------dance-single - Rynker----------------
#NOTES:
     dance-single:
     Rynker:
     Hard:
     15:
     1.000,1.000,0.000,0.055,1.000,1633.000,0.000,11.000,0.000,0.000:






0000
0000
0000
0000
,
0000
0000
0000
0000
,
0000
0000
0000
0000
,
0000
0000
0000
0000
,
0000
0000
0000
0000
,
0000
0000
0000
0000
,
0000
0000
0000
0000
,
0000
0000
0000
0000
1000
0100
1000
0000
,
0001
0100
0001
0000
1000
0100
1000
0000
,
0001
0010
0001
0000
1000
0010
1000
0000
,
0001
0100
0001
0000
1000
0100
1000
0000
,
0001
0100
0001
0000
1000
0100
1000
0100
,
0010
0001
1000
0010
1000
0001
0100
0010
,
1000
0100
1000
0001
0010
0000
0100
0000
,
1000
0000
0000
0000
0000
0000
0001
0000
0000
0000
0000
0000
0100
0000
0000
0010
0000
0000
1000
0000
0001
0000
0010
0000
,
0100
0000
0000
0000
0000
0000
0000
0000
0000
0000
0000
0000
1000
0001
0100
0010
1000
0010
0100
0001
0100
0010
1000
0001
,
1000
0000
0000
0000
0000
0000
0000
0000
0000
0000
0000
0000
0001
0010
0100
1000
0100
0010
0001
1000
0001
0010
0100
1000
,
0001
0100
0010
1000
0001
0010
0100
1000
0001
0100
0010
1000
0001
0010
0100
0010
0001
1000
0100
0010
0001
0010
0100
1000
,
0001
0000
0000
0000
0000
0000
0000
0000
0000
0000
0000
0000
1000
0001
0100
0010
0100
0001
1000
0001
0100
0010
0100
0001
,
1000
0100
0010
0001
1000
0010
0100
0001
1000
0100
0010
0001
1000
0010
0100
0001
0100
0010
1000
0001
0100
0001
1000
0010
,
0100
0000
0000
0000
0000
0000
0000
0000
0000
0000
0000
0000
0001
1000
0100
0010
0001
0010
0100
1000
0001
1000
0001
0010
,
0100
1000
0001
0100
0010
1000
0001
0010
0100
1000
0100
0010
0001
1000
0001
0100
0010
0100
0001
1000
0010
0100
0001
1000
,
0001
0000
0000
0000
0000
0000
0000
0000
0000
0000
0000
0000
1000
0001
0100
0001
1000
0010
1000
0001
0100
0001
1000
0100
,
1000
0100
0010
0001
0010
0100
1000
0001
1000
0001
0010
0100
1000
0001
0100
0010
0100
0001
1000
0010
0100
0001
1000
0001
,
0010
0000
0000
0000
0000
0000
0000
0000
0000
0000
0000
0000
0001
1000
0010
0100
0010
1000
0001
0100
0010
1000
0001
1000
,
0001
0010
0100
1000
0001
1000
0010
0100
0001
1000
0001
0010
0100
1000
0001
0100
0010
1000
0001
0100
0010
1000
0001
1000
,
0100
0000
0000
0000
0000
0000
0000
0000
0000
0000
0000
0000
1000
0100
0010
0001
0010
0100
1000
0001
0010
0001
1000
0100
,
0010
0001
1000
0010
0100
0001
0010
0100
1000
0001
0100
0010
0100
0001
1000
0100
0010
0001
0100
0010
1000
0001
0100
0001
,
1000
0000
0000
0000
0000
0000
0000
0000
0000
0000
0000
0000
0001
0100
0010
1000
0001
0100
0010
0100
0001
1000
0001
1000
,
0100
0010
0100
1000
0001
1000
0010
0100
0010
1000
0001
1000
0100
0010
0001
0010
0100
1000
0001
1000
0001
0010
0100
1000
,
0001
0000
0000
0000
,
0000
0000
0000
0000
0000
0000
0000
0000
0000
0000
0000
0000
1000
0010
0100
0010
1000
0001
0010
0001
1000
0100
0010
0001
,
1000
0000
0000
0000
0000
0000
0000
0000
0000
0000
0000
0000
0001
0100
0010
1000
0010
0100
0001
1000
0010
0100
0010
1000
,
0001
0010
0100
1000
0001
0100
0010
1000
0001
1000
0100
0010
0001
1000
0010
0100
0010
1000
0001
1000
0010
0100
0001
1000
,
0001
0000
0000
0000
0000
0000
0000
0000
0000
0000
0000
0000
1000
0001
0010
0100
1000
0100
0010
0001
1000
0001
1000
0100
,
0010
0001
1000
0010
0100
0001
1000
0100
0010
0001
1000
0010
0100
0010
1000
0001
0100
0010
1000
0001
1000
0010
0100
0001
,
1000
0000
0000
0000
0000
0000
0000
0000
0000
0000
0000
0000
0001
0010
0100
1000
0100
0010
0001
1000
0001
1000
0100
0010
,
0001
1000
0010
0100
0001
1000
0100
0010
0001
1000
0010
0100
0001
0100
0010
1000
0001
0100
0010
1000
0010
0100
0001
1000
,
0001
0000
0000
0000
0000
0000
0000
0000
0000
0000
0000
0000
1000
0001
0010
0100
1000
0100
0010
0001
1000
0001
0010
0100
,
1000
0001
0100
0010
1000
0010
0100
0001
1000
0001
0100
0010
1000
0001
0010
0100
1000
0100
0010
0001
1000
0100
0010
0001
,
1000
0000
0000
0000
0000
0000
0000
0000
0000
0000
0000
0000
0001
1000
0100
1000
0001
0010
0100
1000
0001
0010
0100
1000
,
0001
0100
0010
1000
0001
0010
0100
1000
0001
0100
0010
1000
0001
0010
0100
0010
0001
1000
0100
1000
0001
0010
0100
1000
,
0001
0000
0000
0000
0000
0000
0000
0000
0000
0000
0000
0000
1000
0001
1000
0100
0010
0001
1000
0100
1000
0001
0010
0001
,
1000
0010
0100
0001
1000
0100
0010
0001
1000
0010
0100
0001
1000
0100
0010
0001
1000
0010
0100
0010
1000
0001
0100
0010
,
1000
0000
0000
0000
0000
0000
0000
0000
0000
0000
0000
0000
0001
1000
0001
0100
0010
0100
0001
1000
0010
0100
0001
0100
,
0010
1000
0001
0010
0100
1000
0001
0100
0010
1000
0001
0010
0100
1000
0100
0010
0001
0100
0010
1000
0010
0100
0001
1000
,
0001
0000
1000
0000
,
0001
0000
1000
0001
1000
0000
0000
0000
,
0001
0100
0010
1000
0001
0000
0000
1000
,
0100
0010
0001
1000
0001
0100
0000
0000
,
0001
1000
0010
1000
0001
0010
0000
0000
,
0001
1000
0100
0010
0001
1000
0000
0000
,
0010
1000
0001
0100
0010
1000
0001
0010
,
0100
0000
0010
0000
0001
0000
0100
0000
0010
1000
0010
0100
0001
0010
0100
1000
,
0010
0000
0000
0000
,
0000
0000
0000
0000
0000
0000
0000
0000
0000
0000
0000
0000
1000
0001
0100
0010
1000
0010
0100
0001
0100
0010
1000
0001
,
1000
0000
0000
0000
0000
0000
0000
0000
0000
0000
0000
0000
0001
0010
0100
1000
0100
0010
0001
1000
0001
0010
0100
1000
,
0001
0100
0010
1000
0001
0010
0100
1000
0001
0100
0010
1000
0001
0010
0100
0010
0001
1000
0100
0010
0001
0010
0100
1000
,
0001
0000
0000
0000
0000
0000
0000
0000
0000
0000
0000
0000
1000
0001
0100
0010
0100
0001
1000
0001
0100
0010
0100
0001
,
1000
0100
0010
0001
1000
0010
0100
0001
1000
0100
0010
0001
1000
0010
0100
0001
0100
0010
1000
0001
0100
0001
1000
0010
,
0100
0000
0000
0000
0000
0000
0000
0000
0000
0000
0000
0000
0001
1000
0100
0010
0001
0010
0100
1000
0001
1000
0001
0010
,
0100
1000
0001
0100
0010
1000
0001
0010
0100
1000
0100
0010
0001
1000
0001
0100
0010
0100
0001
1000
0010
0100
0001
1000
,
0001
0000
0000
0000
0000
0000
0000
0000
0000
0000
0000
0000
1000
0001
0100
0001
1000
0010
1000
0001
0100
0001
1000
0100
,
1000
0100
0010
0001
0010
0100
1000
0001
1000
0001
0010
0100
1000
0001
0100
0010
0100
0001
1000
0010
0100
0001
1000
0001
,
0010
0000
0000
0000
0000
0000
0000
0000
0000
0000
0000
0000
0001
1000
0010
0100
0010
1000
0001
0100
0010
1000
0001
1000
,
0001
0010
0100
1000
0001
0100
0010
1000
0001
0010
0100
1000
0001
0100
0001
1000
0100
1000
0001
1000
0100
0010
0001
1000
,
0100
0000
0000
0000
0000
0000
0000
0000
0000
0000
0000
0000
1000
0100
0010
0001
0010
0100
1000
0001
0010
0001
1000
0100
,
0010
0001
1000
0010
0100
0001
0010
0100
1000
0001
0100
0010
0100
0001
1000
0010
0100
0001
0010
0001
1000
0010
0100
0001
,
1000
0000
0000
0000
0000
0000
0000
0000
0000
0000
0000
0000
0001
0100
0010
1000
0001
0100
0010
0100
0001
1000
0001
1000
,
0100
0010
0100
1000
0001
1000
0010
0100
0001
1000
0001
0100
0010
1000
0001
0010
0100
1000
0001
1000
0001
0010
0100
1000
,
0001
0000
1000
0000
,
0100
0000
0000
0000
0000
0000
0000
0000
0000
0000
0000
0000
1000
0010
0100
0010
1000
0001
0010
0001
1000
0100
0010
0001
,
1000
0000
0000
0000
0000
0000
0000
0000
0000
0000
0000
0000
0001
0100
0010
1000
0010
0100
0001
1000
0010
0100
0010
1000
,
0001
0010
0100
1000
0001
0010
0100
1000
0001
1000
0100
0010
0001
1000
0010
0100
0010
1000
0001
1000
0010
0100
0001
1000
,
0001
0000
0000
0000
,
0000
0000
0000
0000
0000
0000
0000
0000
0000
0000
0000
0000
1000
0010
1000
0001
0100
0010
1000
0001
1000
0010
0100
0001
,
1000
0000
0000
0000
0000
0000
0000
0000
0000
0000
0000
0000
0001
0010
0100
1000
0100
0010
0001
1000
0001
1000
0100
0010
,
0001
1000
0010
0100
0001
1000
0010
0100
0001
1000
0010
1000
0001
0010
0100
1000
0001
0010
0100
1000
0100
0010
0001
1000
,
0001
0000
0000
0000
0000
0000
0000
0000
1000
0000
0000
0010
0000
0000
0100
0000
,
0001
0000
0000
0000
0000
0000
0000
0000
0000
1000
0000
0000
0000
0000
0000
0000
0000
0000
0100
0000
0000
0000
0000
0000
1000
0000
0001
0000
0010
0000
0100
0000
1000
0000
0100
0000
0010
0000
0001
0000
1000
0000
0100
0000
0010
0000
0001
0000
,
1000
0001
1000
0010
0100
0010
1000
0001
1000
0001
0100
0010
1000
0001
0010
0001
1000
0100
0010
0001
1000
0100
0010
0001
,
1000
0010
0100
0001
1000
0010
0100
0001
1000
0010
0100
0001
1000
0100
0010
0100
1000
0001
0010
0001
1000
0100
0010
0001
,
1000
0001
1000
0010
0100
0010
1000
0001
1000
0001
0100
0010
0100
0001
1000
0100
0010
0001
1000
0100
1000
0001
0010
0001
,
1000
0010
0100
0001
1000
0100
0010
0001
1000
0100
0010
0001
1000
0000
0000
0010
0000
0000
1000
0000
0000
0001
0000
0000
,
0010
0001
1000
0010
1000
0001
0010
0010
,
0010
0001
1000
0010
1000
0001
0000
0000
,
0000
0000
0000
0000
,
0000
0000
0000
0000
0000
0000
0000
0000
0000
0000
0000
0000
0001
1000
0010
0100
0001
0100
0010
1000
0010
0100
0001
1000
,
0001
0000
0000
0000
0000
0000
0000
0000
0000
0000
0000
0000
1000
0100
0010
0001
0010
0100
1000
0001
1000
0100
0010
0001
,
1000
0010
0100
0001
1000
0100
0010
0001
1000
0010
0100
0001
1000
0100
0010
0100
1000
0001
0010
0100
1000
0100
0010
0001
,
1000
0000
0000
0000
0000
0000
0000
0000
0000
0000
0000
0000
0001
1000
0010
0100
0010
1000
0001
1000
0010
0100
0010
1000
,
0001
0010
0100
1000
0001
0100
0010
1000
0001
0010
0100
1000
0001
0100
0010
1000
0010
0100
0001
1000
0010
1000
0001
0100
,
0010
0000
0000
0000
0000
0000
0000
0000
0000
0000
0000
0000
1000
0001
0010
0100
1000
0100
0010
0001
1000
0001
1000
0100
,
0010
0001
1000
0010
0100
0001
1000
0100
0010
0001
0010
0100
1000
0001
1000
0010
0100
0010
1000
0001
0100
0010
1000
0001
,
1000
0000
0000
0000
0000
0000
0000
0000
0000
0000
0000
0000
0001
1000
0010
1000
0001
0100
0001
1000
0010
1000
0001
0010
,
0001
0010
0100
1000
0100
0010
0001
1000
0001
1000
0100
0010
0001
1000
0010
0100
0010
1000
0001
0100
0010
1000
0001
1000
,
0100
0000
0000
0000
0000
0000
0000
0000
0000
0000
0000
0000
1000
0001
0100
0010
0100
0001
1000
0010
0100
0001
1000
0001
,
1000
0100
0010
0001
1000
0001
0100
0010
1000
0001
1000
0100
0010
0001
0010
0100
1000
0001
1000
0100
0010
0001
1000
0001
,
0100
0000
0000
0000
0000
0000
0000
0000
0000
0000
0000
0000
0001
0010
0100
1000
0100
0010
0001
1000
0100
1000
0001
0010
,
0100
1000
0001
0100
0010
1000
0100
0010
0001
1000
0010
0100
0010
1000
0001
0100
0010
1000
0001
1000
0001
0100
0010
1000
,
0001
0000
0000
0000
0000
0000
0000
0000
0000
0000
0000
0000
1000
0010
0100
0001
1000
0010
0100
0010
1000
0001
1000
0001
,
0010
0100
0010
0001
1000
0001
0100
0010
0100
0001
1000
0001
0010
0100
1000
0100
0010
0001
1000
0001
1000
0100
0010
0001
,
1000
0000
0001
0000
,
0000
0000
0000
0000
0000
0000
0000
0000
0000
0000
0000
0000
0001
0100
0010
0100
0001
1000
0100
1000
0001
0010
0100
1000
,
0001
0000
0000
0000
0000
0000
0000
0000
0000
0000
0000
0000
1000
0010
0100
0001
0100
0010
1000
0001
0100
0010
0100
0001
,
1000
0100
0010
0001
1000
0010
0100
0001
1000
0001
0010
0100
1000
0001
0100
0010
0100
0001
1000
0001
0100
0010
1000
0001
,
1000
0000
0000
0000
0000
0000
0000
0000
0000
0000
0000
0000
0001
1000
0100
0010
0001
0010
0100
1000
0001
1000
0001
0010
,
0100
1000
0001
0100
0010
1000
0001
0010
0100
1000
0001
0100
0010
0100
0001
1000
0100
0010
0001
1000
0001
0010
0100
1000
,
0001
0000
0000
0000
0000
0000
0000
0000
0000
0000
0000
0000
1000
0100
0010
0001
0010
0100
1000
0001
1000
0001
0010
0100
,
1000
0001
0100
0010
1000
0001
0010
0100
1000
0001
0100
0010
1000
0010
0100
0001
1000
0010
0100
0001
0100
0010
1000
0001
,
1000
0000
0000
0000
0000
0000
0000
0000
0000
0000
0000
0000
0001
1000
0100
0010
0001
0010
0100
1000
0001
1000
0100
0010
,
0001
1000
0010
0100
0001
0100
0010
1000
0001
1000
0010
0100
0001
1000
0100
0010
0001
0010
0100
1000
0100
0010
0001
1000
,
0001
0100
0010
0100
0001
1000
0010
0100
0001
1000
0001
0010
0100
1000
0100
0010
0001
1000
0100
0010
0001
0010
0100
1000
,
0001
0100
0010
1000
0001
0010
0100
1000
0001
0100
0010
1000
0010
0100
0001
1000
0100
1000
0001
0010
0100
1000
0001
0100
,
0002
0000
2003
0000
,
3020
0230
0302
0000
,
2003
0000
3200
0000
,
2300
3002
0023
0000
,
0032
0000
1003
0000
,
0001
0000
1000
0000
;

//---------------dance-single - Rynker----------------
#NOTES:
     dance-single:
     Rynker:
     Medium:
     11:
     0.826,0.987,0.000,0.050,1.000,1155.000,0.000,10.000,1.000,0.000:




0000
0000
0000
0000
,
0000
0000
0000
0000
,
0000
0000
0000
0000
,
0000
0000
0000
0000
,
0000
0000
0000
0000
,
0000
0000
0000
0000
,
0000
0000
0000
0000
,
0000
0000
0000
0000
1000
0100
1000
0000
,
0001
0100
0001
0000
1000
0100
1000
0000
,
0001
0010
0001
0000
1000
0010
1000
0000
,
0001
0100
0001
0000
1000
0100
1000
0000
,
0001
0100
0001
0000
1000
0100
1000
0100
,
0010
0001
1000
0010
1000
0001
0100
0010
,
1000
0100
1000
0001
0010
0000
0100
0000
,
1000
0000
0000
0000
0000
0000
0001
0000
0000
0000
0000
0000
0100
0000
0000
0010
0000
0000
1000
0000
0001
0000
0010
0000
,
0100
0000
0000
0000
0000
0000
0000
0000
1000
0100
0010
0001
0010
0100
1000
0001
,
1000
0000
0000
0000
0000
0000
0000
0000
0001
0100
0010
1000
0010
0100
0001
0010
,
0100
1000
0100
0010
0001
1000
0001
0100
0010
0100
0001
1000
0100
1000
0001
0010
,
0100
0000
0000
0000
0000
0000
0000
0000
1000
0001
0010
0100
0010
0001
0100
0010
,
1000
0100
1000
0001
0010
0100
1000
0001
0100
0010
0100
0001
1000
0100
1000
0001
,
0010
0000
0000
0000
0000
0000
0000
0000
0100
1000
0100
0010
0001
1000
0001
0100
,
0010
0100
0001
1000
0010
0100
0001
1000
0100
1000
0001
0010
0100
1000
0001
0100
,
0001
0000
0000
0000
0000
0000
0000
0000
1000
0100
1000
0001
0010
0100
0010
0001
,
1000
0001
0100
0010
1000
0100
1000
0001
0010
0001
0100
0010
1000
0100
1000
0001
,
1000
0000
0000
0000
0000
0000
0000
0000
0001
0100
0001
1000
0100
1000
0001
0010
,
0100
1000
0100
0010
0001
1000
0001
0100
0010
1000
0100
1000
0001
0010
0100
1000
,
0001
0000
0000
0000
0000
0000
0000
0000
1000
0001
0100
0010
0100
0001
1000
0100
,
0010
0001
0010
0100
1000
0001
0100
0010
0100
0001
1000
0100
1000
0001
0010
0100
,
1000
0000
0000
0000
0000
0000
0000
0000
0001
0100
0010
0100
0001
0010
0100
1000
,
0100
1000
0001
0100
0010
0100
0001
0100
0001
0010
0100
1000
0100
0010
0001
1000
,
0001
0000
0000
0000
,
0000
0000
0000
0000
0000
0000
0000
0000
1000
0001
0100
0010
1000
0010
0100
0001
,
1000
0000
0000
0000
0000
0000
0000
0000
0001
0010
0100
0010
0001
1000
0001
0100
,
0010
0100
0001
1000
0100
0010
0001
0010
0100
1000
0010
0100
0001
0010
0100
1000
,
0001
0000
0000
0000
0000
0000
0000
0000
1000
0100
0010
0001
0100
0010
0100
0001
,
1000
0100
1000
0001
0010
0100
0010
0001
0100
0010
1000
0010
0100
0001
1000
0001
,
1000
0000
0000
0000
0000
0000
0000
0000
0001
0010
0100
0010
0001
0100
0010
1000
,
0100
1000
0001
0010
0100
0010
0001
0100
0010
1000
0010
0100
0001
1000
0100
1000
,
0001
0000
0000
0000
0000
0000
0000
0000
1000
0100
0010
0001
0010
0100
1000
0001
,
0100
0010
0100
0001
1000
0100
1000
0001
0010
0100
0010
0001
0100
0010
1000
0010
,
0100
0000
0000
0000
0000
0000
0000
0000
0001
1000
0100
1000
0001
0010
0100
0010
,
0001
0100
0010
1000
0010
0100
0001
1000
0100
1000
0001
0010
0100
0010
0001
1000
,
0001
0000
0000
0000
0000
0000
0000
0000
1000
0100
0010
0001
0010
0100
1000
0001
,
0100
0010
0100
0001
1000
0100
1000
0001
0010
0100
0010
0001
0100
0010
1000
0001
,
1000
0000
0000
0000
0000
0000
0000
0000
0001
0100
0010
0100
0001
1000
0100
1000
,
0001
0010
0100
0010
0001
0100
0010
1000
0100
1000
0100
0010
0001
0010
0100
1000
,
0001
0000
1000
0000
,
0001
0000
1000
0001
1000
0000
0000
0000
,
0001
0100
0010
1000
0001
0000
0000
1000
,
0100
0010
0001
1000
0001
0100
0000
0000
,
0001
1000
0010
1000
0001
0010
0000
0000
,
0001
1000
0100
0010
0001
1000
0000
0000
,
0010
1000
0001
0100
0010
1000
0001
0010
,
0100
0000
0010
0000
0001
0000
0100
0000
0010
1000
0010
0100
0001
0010
0100
1000
,
0010
0000
0000
0000
,
0000
0000
0000
0000
0000
0000
0000
0000
1000
0001
0010
0100
0010
0001
1000
0001
,
1000
0000
0000
0000
0000
0000
0000
0000
0001
0100
0010
0100
0001
1000
0100
0010
,
0100
1000
0010
0100
0001
0100
0010
1000
0100
1000
0001
0010
0100
0010
0001
1000
,
0001
0000
0000
0000
0000
0000
0000
0000
1000
0100
0010
0100
1000
0010
0100
0001
,
0100
0010
1000
0100
1000
0001
0010
0100
0010
0001
1000
0001
0100
0010
1000
0001
,
1000
0000
0000
0000
0000
0000
0000
0000
0001
0010
0100
0010
0001
1000
0001
0100
,
0010
0100
0001
1000
0100
1000
0001
0010
0100
0010
0001
1000
0001
0100
0010
1000
,
0001
0000
0000
0000
0000
0000
0000
0000
1000
0100
0010
0100
1000
0010
0100
0001
,
0100
0010
1000
0001
0010
0100
0010
0001
1000
0001
0100
0010
0100
0001
1000
0100
,
1000
0000
0000
0000
0000
0000
0000
0000
0001
0010
0100
0010
0001
1000
0001
0100
,
0010
0100
0001
1000
0100
1000
0001
0010
0100
0010
0001
0100
0010
1000
0010
0100
,
0001
0000
0000
0000
0000
0000
0000
0000
1000
0100
1000
0001
0010
0100
0010
0001
,
0100
0010
1000
0010
0100
0001
1000
0100
1000
0001
0010
0100
0010
0001
1000
0001
,
1000
0000
0000
0000
0000
0000
0000
0000
0001
0010
0100
0010
0001
0100
0010
1000
,
0010
0100
0001
1000
0100
1000
0001
0010
0100
0010
0001
1000
0001
0100
0010
1000
,
0001
0000
1000
0000
,
0100
0000
0000
0000
0000
0000
0000
0000
1000
0100
0010
0001
0010
0100
1000
0001
,
1000
0000
0000
0000
0000
0000
0000
0000
0001
0100
0010
1000
0010
0100
0001
1000
,
0100
1000
0010
0100
0001
0100
0010
1000
0100
1000
0001
0010
0100
0010
0001
1000
,
0001
0000
0000
0000
,
0000
0000
0000
0000
0000
0000
0000
0000
1000
0100
0010
0001
0100
0010
1000
0001
,
1000
0000
0000
0000
0000
0000
0000
0000
0001
0010
0100
0010
0001
0100
0010
1000
,
0010
0100
0001
1000
0100
1000
0001
0010
0100
0010
0001
1000
0001
0100
0010
0100
,
0001
0000
0000
0000
0000
0000
0000
0000
1000
0000
0000
0010
0000
0000
0100
0000
,
0001
0000
0000
1000
0000
0000
0100
0000
1000
0100
0010
0001
0010
0100
1000
0001
,
0100
0010
1000
0010
0100
0001
1000
0100
0010
0001
0010
0100
1000
0001
1000
0001
,
0100
0010
1000
0010
0100
0001
1000
0001
0010
0100
1000
0100
0010
0001
1000
0001
,
0100
0010
1000
0010
0100
0001
1000
0100
0010
0001
0010
0100
1000
0001
0010
0100
,
1000
0010
0100
0001
0100
0010
1000
0001
1000
0000
0010
0000
1000
0000
0001
0000
,
0010
0001
1000
0010
1000
0001
0010
0010
,
0010
0001
1000
0010
1000
0001
0000
0000
,
0000
0000
0000
0000
,
0000
0000
0000
0000
0000
0000
0000
0000
1000
0100
0010
0001
0010
0100
1000
0001
,
1000
0000
0000
0000
0000
0000
0000
0000
0001
0100
0010
1000
0010
0100
0001
0010
,
0100
1000
0100
0010
0001
1000
0001
0100
0010
0100
0001
1000
0100
1000
0001
0010
,
0100
0000
0000
0000
0000
0000
0000
0000
1000
0001
0010
0100
0010
0001
0100
0010
,
1000
0100
1000
0001
0010
0100
1000
0001
0100
0010
0100
0001
1000
0100
1000
0001
,
0010
0000
0000
0000
0000
0000
0000
0000
0100
1000
0100
0010
0001
1000
0001
0100
,
0010
0100
0001
1000
0010
0100
0001
1000
0100
1000
0001
0010
0100
1000
0001
0100
,
0001
0000
0000
0000
0000
0000
0000
0000
1000
0100
1000
0001
0010
0100
0010
0001
,
1000
0001
0100
0010
1000
0100
1000
0001
0010
0001
0100
0010
1000
0100
1000
0001
,
1000
0000
0000
0000
0000
0000
0000
0000
0001
0100
0001
1000
0100
1000
0001
0010
,
0100
1000
0100
0010
0001
1000
0001
0100
0010
1000
0100
1000
0001
0010
0100
1000
,
0001
0000
0000
0000
0000
0000
0000
0000
1000
0001
0100
0010
0100
0001
1000
0100
,
0010
0001
0010
0100
1000
0001
0100
0010
0100
0001
1000
0100
1000
0001
0010
0100
,
1000
0000
0000
0000
0000
0000
0000
0000
0001
0100
0010
0100
0001
0010
0100
1000
,
0100
1000
0001
0100
0010
0100
0001
0100
0001
0010
0100
1000
0100
0010
0001
1000
,
0001
0000
0000
0000
,
0000
0000
0000
0000
0000
0000
0000
0000
1000
0001
0100
0010
1000
0010
0100
0001
,
1000
0000
0000
0000
0000
0000
0000
0000
0001
0010
0100
0010
0001
1000
0001
0100
,
0010
0100
0001
1000
0100
0010
0001
0010
0100
1000
0010
0100
0001
0010
0100
1000
,
0001
0000
0000
0000
0000
0000
0000
0000
1000
0100
0010
0001
0100
0010
0100
0001
,
1000
0100
1000
0001
0010
0100
0010
0001
0100
0010
1000
0010
0100
0001
1000
0001
,
1000
0000
0000
0000
0000
0000
0000
0000
0001
0010
0100
0010
0001
0100
0010
1000
,
0100
1000
0001
0010
0100
0010
0001
0100
0010
1000
0010
0100
0001
1000
0100
1000
,
0001
0000
0000
0000
0000
0000
0000
0000
1000
0100
0010
0001
0010
0100
1000
0001
,
0100
0010
0100
0001
1000
0100
1000
0001
0010
0100
0010
0001
0100
0010
1000
0010
,
0100
0001
0100
0010
1000
0010
0100
0001
1000
0100
0010
0001
0010
0100
1000
0100
,
0010
0001
1000
0001
0100
0010
1000
0001
0010
0100
1000
0100
0010
0001
1000
0001
,
1000
0010
0100
0001
0100
0010
1000
0001
2000
0000
0000
0000
0000
0000
0000
0000
,
3200
0320
0032
0000
,
2003
0000
3002
0000
,
0203
0320
2030
0000
,
3002
0000
0013
0000
,
0100
0000
1000
0000
,
0000
0000
M000
0000
;
