#TITLE:Movin' Cruisin';
#SUBTITLE:[Anulu Love Anal Mix];
#ARTIST:Kurwastyle Project;
#TITLETRANSLIT:;
#SUBTITLETRANSLIT:;
#ARTISTTRANSLIT:;
#CREDIT:Rynker;
#BANNER:movin' cruisin' bn.png;
#BACKGROUND:movin' cruisin' bg.png;
#LYRICSPATH:;
#CDTITLE:;
#MUSIC:Kurwastyle_Project_-_Movin'_Cruisin'_[Anulu_Love_Anal_Mix].ogg;
#OFFSET:-0.326;
#SAMPLESTART:43.734;
#SAMPLELENGTH:12.000;
#SELECTABLE:YES;
#DISPLAYBPM:155.000;
#BPMS:0.000=155.000,55.500=155.300,58.000=155.200,70.000=155.700,72.000=154.400,76.000=154.300,110.000=154.800,114.000=153.400,122.000=152.150,142.000=153.000,143.000=154.670,144.000=152.200,157.000=154.000,159.000=158.000,160.000=156.000,161.000=154.000,165.000=155.280,170.000=156.000,174.000=154.200,177.000=154.600,187.000=155.200,238.000=154.000,240.000=152.850,245.000=154.000,247.000=153.500,262.000=153.000,279.000=155.250,312.000=154.200;
#STOPS:;
#BGCHANGES:;
// cache tags:
#FIRSTBEAT:16.000;
#LASTBEAT:377.000;
#SONGFILENAME:Songs/SPEEEDCOOOORE 2/Movin Cruisin - [Rynker]/movin cruisin.sm;
#HASMUSIC:1;
#HASBANNER:1;
#MUSICLENGTH:148.282;
// end cache tags

//---------------dance-single - Rynker----------------
#NOTES:
     dance-single:
     Rynker:
     Challenge:
     15:
     1.000,1.000,0.378,0.405,1.000,978.000,56.000,60.000,0.000,0.000:

0000
0000
0000
0000
,
0000
0000
0000
0000
,
0000
0000
0000
0000
,
0000
0000
0000
0000
,
1001
0000
0001
0100
0000
0000
0010
0000
0000
1000
0000
0100
,
0000
0000
0010
0001
0000
0010
0200
0000
0000
2300
0000
3001
,
0100
0000
0001
2000
0000
0000
3002
0000
0000
0013
0000
0001
,
1000
0000
0001
0010
0000
0010
0100
0000
0000
0100
0000
0000
,
1001
0000
1000
0010
0000
0010
0200
0000
0000
0301
0000
0001
,
0000
0000
1000
0100
0000
1000
0020
0000
0000
0230
0000
0301
,
1000
0000
0001
0020
0000
0000
0230
0000
0000
1300
0000
0100
,
0010
0000
0000
0000
0000
0000
0000
0000
0010
0000
0000
0000
0001
0000
0000
0000
0000
0000
0000
0000
0001
0000
0000
0000
0200
0000
0000
0000
0000
0000
0000
0000
0310
0000
0000
0000
2000
0000
0000
0000
0000
0000
0000
0000
0000
3000
0000
0000
,
1001
0000
0001
0010
0000
0010
0100
0000
0000
1000
0000
0001
,
0101
0000
0000
0000
0000
0000
0000
0000
0000
0000
0000
0000
0100
0000
0000
0000
0000
0000
0000
0000
0010
0000
0000
0000
2000
0000
0000
0000
0000
0000
0000
0000
0000
0000
0000
0000
3200
0000
0000
0000
0000
0000
0000
0000
0010
0300
0000
0000
,
0110
0100
1000
0001
0101
0100
0001
1000
,
0001
0000
0000
1000
0000
0000
0100
0000
0000
1000
0000
0000
0001
0000
0000
0100
0000
0000
0010
0000
0000
1000
0000
0000
0001
0000
1000
0000
0010
0000
1000
0000
0001
0000
0100
0000
0010
0000
0000
0000
0000
0000
0000
0000
0000
0000
0000
0000
,
1000
0001
1000
0001
,
1000
0001
1000
1001
,
0220
0000
0000
0000
0000
0330
0000
0000
0000
0000
0000
0000
0000
0000
0000
0000
,
0000
0000
0000
0000
,
0001
0000
0010
0100
1000
0000
0001
0000
0100
0000
0100
0000
0001
0000
0001
0000
,
0100
0010
1000
0100
0100
0010
0011
0001
,
0010
0000
0001
0010
0100
0000
1000
0000
1000
0000
0001
0000
0001
0000
0001
0000
,
0010
0000
0001
0000
0010
0000
0001
0000
0010
0000
0100
0000
0010
0000
0100
1000
,
0100
0000
1000
0001
0100
0000
0010
0000
1000
0000
1000
0000
0001
0000
0001
0000
,
0010
0100
1000
0001
0001
0100
0110
0010
,
1000
0000
0001
0010
0100
0000
1000
0000
0010
0000
0100
0000
0100
0000
0100
0000
,
0001
0100
0001
0100
0001
0101
0100
0000
,
0001
0010
0100
1000
0100
0010
0001
1000
0100
1000
0001
0010
0001
1000
0010
0100
0001
0100
0010
1000
0001
0010
0100
1000
,
0001
0100
0001
0100
0010
1000
0001
1000
0010
0100
0001
1000
0100
0010
0001
1000
0001
1000
0100
0010
0001
0100
0010
1000
,
0001
1000
0100
0010
0001
1000
0001
1000
0010
0100
0010
1000
0001
0100
0010
0100
0010
1000
0001
1000
0001
0010
0100
0010
,
0001
1000
0100
0010
0001
1000
0001
1000
0100
0010
0100
1000
0001
0100
0010
1000
0010
0100
0001
1000
0100
0010
0001
1000
,
0001
0010
0001
1000
0100
1000
0100
0010
0001
1000
0001
0100
0010
0100
0001
1000
0010
1000
0001
0100
0001
0100
0001
1000
,
0010
0100
0001
1000
0001
0010
0100
1000
0001
0010
0001
1000
0010
0100
0010
1000
0001
0100
0001
1000
0001
0010
0100
1000
,
0001
0100
0010
1000
0010
0100
0001
1000
0100
0010
0100
1000
0001
0100
0010
0100
0001
1000
0100
0010
0100
1000
0001
0010
,
0001
1000
0100
0010
0100
0010
0001
1000
0001
0100
0001
0100
0010
1000
0010
0100
0001
1000
0100
0010
0001
1000
0001
0100
,
0010
0000
0100
0000
0001
0000
1000
0000
0100
0000
0010
0000
0100
0000
1000
0000
0001
0000
0100
0000
0010
0000
0100
0000
0001
0000
1000
0000
0100
1000
0100
1000
,
0100
0000
0010
0000
0001
0000
1000
0000
0010
0000
1000
0000
0100
0000
0010
0000
0001
0000
1000
0000
0001
0100
0001
0000
0100
0000
0000
0000
0001
0000
0000
0000
,
0100
0000
0001
0000
1000
0000
0100
0000
1000
0000
0001
0000
0010
0000
0001
0000
0100
0000
0010
0000
1000
0000
0100
0000
0010
0000
0100
0000
1000
0001
1000
0001
,
1000
0100
0010
0001
0010
0100
1000
0001
0100
0001
1000
0000
0001
0000
1000
0000
,
0001
0010
0000
0100
0000
0010
0000
0100
0000
1000
0000
0010
0000
0100
0000
0001
,
0000
0010
0000
0100
0000
1000
0000
0001
0010
0000
0100
0000
1000
0000
0001
0010
,
0100
0000
1000
0010
0000
0100
0000
0001
0000
0010
0000
0100
0000
0010
0000
0001
,
0000
0100
0000
0010
0000
1000
0000
0001
2000
0000
0000
3000
0000
0000
0000
0000
,
1001
0001
0010
0100
1000
0001
0100
0010
,
1000
0010
0100
0001
0010
0100
1000
0010
,
0100
0100
0100
0100
0100
0100
0100
0100
,
0010
0000
0010
0000
0010
0000
0010
0000
0010
0000
0010
0000
0010
0000
0010
1000
,
0100
1001
0011
1001
0101
1010
0110
1010
,
1001
0000
0011
0000
0110
0000
1100
0000
1001
0000
0101
0000
0101
0000
0100
0001
,
0010
0001
0101
0100
0110
0010
1010
1000
,
1001
0001
0011
0010
0110
0100
1100
1000
,
1001
0000
1000
0010
0000
0000
0100
0000
0000
0001
0000
0010
,
0000
0000
0100
1000
0000
0100
0020
0000
0000
0032
0000
1003
,
0010
0000
1000
0002
0000
0000
2003
0000
0000
3100
0000
1000
,
0001
0000
1000
0100
0000
0100
0010
0000
0000
0010
0000
0000
,
1001
0000
0001
0100
0000
0100
0020
0000
0000
1030
0000
1000
,
0000
0000
0001
0010
0000
0001
0200
0000
0000
0320
0000
1030
,
0001
0000
1000
0200
0000
0000
0320
0000
0000
0031
0000
0010
,
0100
0000
0100
1000
0000
1000
0020
0000
0130
0001
0000
0000
,
1001
1000
0001
1000
,
0001
0000
1000
0000
0001
0000
2000
3000
,
1001
0000
0001
0000
0010
0100
0000
0100
1000
0000
0010
0000
1000
0001
0000
0001
,
0010
0000
0100
0000
1000
0001
0000
0001
0010
0100
1000
0001
0100
0001
0010
0100
,
1000
0000
0001
0000
0010
0100
0000
0100
1000
0000
0010
0000
0100
0010
0000
0010
,
1000
0000
0000
0000
0001
0000
0000
0000
0100
0000
0001
0000
0000
0000
0001
0000
0100
0000
0010
0000
1000
0000
0010
0000
0100
0000
0001
0000
1000
0001
1000
0001
,
1000
0000
0001
0000
0010
0100
0000
0100
1000
0000
0001
0000
0100
0001
0000
0001
,
0010
0000
0100
0000
1000
0010
0000
0010
0100
0001
0010
0100
1000
0010
0100
0001
,
1000
0000
0001
0000
0010
0100
0000
0100
1000
0000
0001
0000
0100
0010
0000
0010
,
1000
0000
0001
0000
0010
0001
0000
0001
1000
0010
0100
0001
0100
0000
0001
0000
,
1001
0000
0001
0100
0000
0100
0010
0000
0010
1000
0000
0100
,
0000
0000
0010
0001
0000
0010
0200
0000
0000
2300
0000
3001
,
0100
0000
0001
1000
0000
0001
0010
0000
0100
1000
0000
0001
,
2000
0000
3000
0000
0000
0010
0100
0000
0000
0100
0000
0000
,
2002
0000
0000
0000
0000
0000
0000
0000
0000
0000
0000
0000
0000
0000
0000
0000
3003
0000
0000
0000
0000
0000
0000
0000
0000
0000
0000
0000
0000
0000
0000
0000
0000
0000
0000
0000
0000
0000
0000
0000
0000
0000
0000
0000
0000
0000
0000
0000
0022
0000
0000
0000
0000
0000
0000
0000
0000
0000
0000
0000
0000
0000
0000
0000
0000
0000
0033
0000
0000
0000
0000
0000
0000
0000
0000
0000
0000
0000
0000
0000
0000
0000
0000
0000
0000
0000
0000
0000
0000
0000
0000
0000
0000
0000
0000
0000
2200
0000
0000
0000
0000
0000
0000
0000
0000
0000
0000
0000
0000
0000
0000
0000
0000
0000
3300
0000
0000
0000
0000
0000
0000
0000
0000
0000
0000
0000
0000
0000
0000
0000
0000
0000
0000
0000
0000
0000
0000
0000
0000
0000
0000
0000
0000
0000
2020
0000
0000
0000
0000
0000
0000
0000
0000
0000
0000
0000
0000
0000
0000
0000
0000
0000
3030
0000
0000
0000
0000
0000
0000
0000
0000
0000
0000
0000
0000
0000
0001
0000
0000
0000
0000
0000
0000
0000
0000
0000
0000
0000
0000
0000
0000
0000
,
0202
0000
0000
0303
0000
0000
0000
0000
2002
0000
0000
3003
0000
0000
0000
0000
0022
0000
0000
0033
0000
0000
0000
0000
2200
0000
0000
3300
0000
0000
0000
0000
,
0202
0000
0000
0303
0000
0000
0000
0000
0202
0000
0000
0303
0000
0000
0000
0000
0202
0000
0000
0303
0000
0000
0000
0000
0202
0000
0000
0303
0000
0000
0000
0000
,
2020
0000
0000
3030
0000
0000
0000
0000
2020
0000
0000
3030
0000
0000
0000
0000
2020
0000
0000
3030
0000
0000
0000
0000
1000
0000
0000
0000
0000
0000
0000
0000
,
0001
0000
0010
0100
1000
0000
0001
0000
0100
0000
0100
0000
0001
0000
0001
0000
,
0100
0000
0010
0000
1000
0000
0100
0000
0100
0000
0010
0000
0011
0000
0001
0010
,
0100
0000
1000
0001
0100
0000
0010
0000
1000
0000
0001
0000
0001
0000
0001
0000
,
0010
0001
0010
0001
0010
0110
0100
1000
,
0010
0000
1000
0001
0100
0000
0010
0000
1000
0000
1000
0000
0001
0000
0001
0000
,
0010
0000
0100
0000
1000
0000
0001
0000
0001
0000
0100
0000
0010
0000
1000
0100
,
0010
0000
0001
0010
0100
0000
1000
0000
0010
0000
0100
0000
0100
0000
0100
0000
,
0001
0100
0001
0100
0001
0101
0000
0001
,
1000
0100
1000
0001
0010
0001
1000
0001
1000
0010
0100
0010
1000
0001
0100
0001
1000
0010
1000
0001
1000
0001
0010
0100
,
0010
0001
1000
0001
0100
0010
1000
0010
0100
0001
1000
0010
0100
0001
1000
0001
0010
0001
1000
0100
1000
0001
0010
0001
,
1000
0100
0010
0100
1000
0001
0010
0001
1000
0010
1000
0001
0100
0010
1000
0001
0010
0100
1000
0001
0010
0100
0010
0001
,
1000
0100
0010
0001
1000
0001
0100
0010
1000
0001
0100
0010
0100
0001
1000
0001
0100
0010
1000
0010
1000
0001
0010
0100
,
1000
0100
0010
0001
1000
0001
0010
0100
1000
0001
1000
0100
0010
0001
1000
0001
1000
0001
0100
0010
0100
0001
1000
0001
,
0100
0010
0100
0001
1000
0010
0100
0001
1000
0001
1000
0100
0010
0001
1000
0001
1000
0100
0010
0001
1000
0001
0100
0010
,
1000
0001
0010
0001
1000
0010
1000
0001
0100
0001
1000
0100
0010
0001
0010
0100
1000
0001
1000
0001
0010
0100
0010
0001
,
1000
0100
0010
0100
1000
0001
0010
0001
1000
0010
1000
0010
0100
0001
1000
0100
0010
0001
0010
0100
1000
0001
0100
0001
,
1000
0001
0100
0010
1000
0001
0010
0000
0000
0000
0000
0000
0000
0000
0000
0000
0000
0000
0000
0000
0000
0000
0000
0000
;

//---------------dance-single - Rynker----------------
#NOTES:
     dance-single:
     Rynker:
     Hard:
     11:
     0.844,1.000,0.378,0.405,0.846,760.000,56.000,60.000,0.000,0.000:



0000
0000
0000
0000
,
0000
0000
0000
0000
,
0000
0000
0000
0000
,
0000
0000
0000
0000
,
1001
0000
0001
0100
0000
0000
0010
0000
0000
1000
0000
0100
,
0000
0000
0010
0001
0000
0010
0200
0000
0000
2300
0000
3001
,
0100
0000
0001
2000
0000
0000
3002
0000
0000
0013
0000
0001
,
1000
0000
0001
0010
0000
0010
0100
0000
0000
0100
0000
0000
,
1001
0000
1000
0010
0000
0010
0200
0000
0000
0301
0000
0001
,
0000
0000
1000
0100
0000
1000
0020
0000
0000
0230
0000
0301
,
1000
0000
0001
0020
0000
0000
0230
0000
0000
1300
0000
0100
,
0010
0000
0000
0000
0000
0000
0000
0000
0010
0000
0000
0000
0001
0000
0000
0000
0000
0000
0000
0000
0001
0000
0000
0000
0200
0000
0000
0000
0000
0000
0000
0000
0310
0000
0000
0000
2000
0000
0000
0000
0000
0000
0000
0000
0000
3000
0000
0000
,
1001
0000
0001
0010
0000
0010
0100
0000
0000
1000
0000
0001
,
0101
0000
0000
0000
0000
0000
0000
0000
0000
0000
0000
0000
0100
0000
0000
0000
0000
0000
0000
0000
0010
0000
0000
0000
2000
0000
0000
0000
0000
0000
0000
0000
0000
0000
0000
0000
3200
0000
0000
0000
0000
0000
0000
0000
0010
0300
0000
0000
,
0110
0100
1000
0001
0101
0100
0001
1000
,
0001
0000
0000
1000
0000
0000
0100
0000
0000
1000
0000
0000
0001
0000
0000
0100
0000
0000
0010
0000
0000
1000
0000
0000
0001
0000
1000
0000
0010
0000
1000
0000
0001
0000
0100
0000
0010
0000
0000
0000
0000
0000
0000
0000
0000
0000
0000
0000
,
1000
0001
1000
0001
,
1000
0001
1000
1001
,
0220
0000
0000
0000
0000
0330
0000
0000
0000
0000
0000
0000
0000
0000
0000
0000
,
0000
0000
0000
0000
,
0001
0000
0010
0100
1000
0000
0001
0000
0100
0000
0100
0000
0001
0000
0001
0000
,
0100
0010
1000
0100
0100
0010
0011
0001
,
0010
0000
0001
0010
0100
0000
1000
0000
1000
0000
0001
0000
0001
0000
0001
0000
,
0010
0000
0001
0000
0010
0000
0001
0000
0010
0000
0100
0000
0010
0000
0100
1000
,
0100
0000
1000
0001
0100
0000
0010
0000
1000
0000
1000
0000
0001
0000
0001
0000
,
0010
0100
1000
0001
0001
0100
0110
0010
,
1000
0000
0001
0010
0100
0000
1000
0000
0010
0000
0100
0000
0100
0000
0100
0000
,
0001
0100
0001
0100
0001
0101
0100
0000
,
0001
0010
0100
1000
0001
0100
0010
0100
0001
0010
0100
1000
0100
0010
0001
1000
,
0100
1000
0010
0100
0010
0100
0001
1000
0100
0010
0100
1000
0001
0010
0001
1000
,
0001
0100
0010
0100
0001
1000
0010
0100
0010
0100
0001
1000
0100
0010
0001
1000
,
0001
0100
0010
0100
0001
0010
0100
1000
0100
0010
0001
1000
0001
0100
0010
0100
,
0001
0010
0100
1000
0010
1000
0100
0010
0001
1000
0001
0100
0010
0100
0001
1000
,
0100
1000
0001
0010
0001
1000
0010
0100
0010
0100
0001
1000
0100
0010
0100
1000
,
0001
0100
0010
0100
0001
0010
0001
1000
0100
1000
0001
0010
0100
1000
0001
0100
,
0010
0100
0001
1000
0100
0010
0001
0100
0010
0100
0001
0010
0100
1000
0001
0100
,
0001
0000
0100
0000
0001
0000
1000
0000
0100
0000
0010
0000
0100
0000
1000
0000
0001
0000
0100
0000
0010
0000
0100
0000
0001
0000
1000
0000
0100
1000
0100
1000
,
0100
0000
0010
0000
0001
0000
1000
0000
0010
0000
1000
0000
0100
0000
0010
0000
0001
0000
1000
0000
0001
0100
0001
0000
0100
0000
0000
0000
0001
0000
0000
0000
,
0100
0000
0001
0000
1000
0000
0100
0000
1000
0000
0001
0000
0010
0000
0001
0000
0100
0000
0010
0000
1000
0000
0100
0000
0010
0000
0100
0000
1000
0001
1000
0001
,
1000
0100
0010
0001
0010
0100
1000
0001
0100
0001
1000
0000
0001
0000
1000
0000
,
0001
0010
0000
0100
0000
0010
0000
0100
0000
1000
0000
0010
0000
0100
0000
0001
,
0000
0010
0000
0100
0000
1000
0000
0001
0010
0000
0100
0000
1000
0000
0001
0010
,
0100
0000
1000
0010
0000
0100
0000
0001
0000
0010
0000
0100
0000
0010
0000
0001
,
0000
0100
0000
0010
0000
1000
0000
0001
2000
0000
0000
3000
0000
0000
0000
0000
,
1001
0001
0010
0100
1000
0001
0100
0010
,
1000
0010
0100
0001
0010
0100
1000
0010
,
0100
0100
0100
0100
0100
0100
0100
0100
,
0010
0000
0010
0000
0010
0000
0010
0000
0010
0000
0010
0000
0010
0000
0010
1000
,
0100
1001
0011
1001
0101
1010
0110
1010
,
1001
0000
0011
0000
0110
0000
1100
0000
1001
0000
0101
0000
0101
0000
0100
0001
,
0010
0001
0101
0100
0110
0010
1010
1000
,
1001
0001
0011
0010
0110
0100
1100
1000
,
1001
0000
1000
0010
0000
0000
0100
0000
0000
0001
0000
0010
,
0000
0000
0100
1000
0000
0100
0020
0000
0000
0032
0000
1003
,
0010
0000
1000
0002
0000
0000
2003
0000
0000
3100
0000
1000
,
0001
0000
1000
0100
0000
0100
0010
0000
0000
0010
0000
0000
,
1001
0000
0001
0100
0000
0100
0020
0000
0000
1030
0000
1000
,
0000
0000
0001
0010
0000
0001
0200
0000
0000
0320
0000
1030
,
0001
0000
1000
0200
0000
0000
0320
0000
0000
0031
0000
0010
,
0100
0000
0100
1000
0000
1000
0020
0000
0130
0001
0000
0000
,
1001
1000
0001
1000
,
0001
0000
1000
0000
0001
0000
2000
3000
,
1001
0000
0001
0000
0010
0100
0000
0100
1000
0000
0010
0000
1000
0001
0000
0001
,
0010
0000
0100
0000
1000
0001
0000
0001
0010
0100
1000
0001
0100
0001
0010
0100
,
1000
0000
0001
0000
0010
0100
0000
0100
1000
0000
0010
0000
0100
0010
0000
0010
,
1000
0000
0000
0000
0001
0000
0000
0000
0100
0000
0001
0000
0000
0000
0001
0000
0100
0000
0010
0000
1000
0000
0010
0000
0100
0000
0001
0000
1000
0001
1000
0001
,
1000
0000
0001
0000
0010
0100
0000
0100
1000
0000
0001
0000
0100
0001
0000
0001
,
0010
0000
0100
0000
1000
0010
0000
0010
0100
0001
0010
0100
1000
0010
0100
0001
,
1000
0000
0001
0000
0010
0100
0000
0100
1000
0000
0001
0000
0100
0010
0000
0010
,
1000
0000
0001
0000
0010
0001
0000
0001
1000
0010
0100
0001
0100
0000
0001
0000
,
1001
0000
0001
0100
0000
0100
0010
0000
0010
1000
0000
0100
,
0000
0000
0010
0001
0000
0010
0200
0000
0000
2300
0000
3001
,
0100
0000
0001
1000
0000
0001
0010
0000
0100
1000
0000
0001
,
2000
0000
3000
0000
0000
0010
0100
0000
0000
0100
0000
0000
,
2002
0000
0000
0000
0000
0000
0000
0000
0000
0000
0000
0000
0000
0000
0000
0000
3003
0000
0000
0000
0000
0000
0000
0000
0000
0000
0000
0000
0000
0000
0000
0000
0000
0000
0000
0000
0000
0000
0000
0000
0000
0000
0000
0000
0000
0000
0000
0000
0022
0000
0000
0000
0000
0000
0000
0000
0000
0000
0000
0000
0000
0000
0000
0000
0000
0000
0033
0000
0000
0000
0000
0000
0000
0000
0000
0000
0000
0000
0000
0000
0000
0000
0000
0000
0000
0000
0000
0000
0000
0000
0000
0000
0000
0000
0000
0000
2200
0000
0000
0000
0000
0000
0000
0000
0000
0000
0000
0000
0000
0000
0000
0000
0000
0000
3300
0000
0000
0000
0000
0000
0000
0000
0000
0000
0000
0000
0000
0000
0000
0000
0000
0000
0000
0000
0000
0000
0000
0000
0000
0000
0000
0000
0000
0000
2020
0000
0000
0000
0000
0000
0000
0000
0000
0000
0000
0000
0000
0000
0000
0000
0000
0000
3030
0000
0000
0000
0000
0000
0000
0000
0000
0000
0000
0000
0000
0000
0001
0000
0000
0000
0000
0000
0000
0000
0000
0000
0000
0000
0000
0000
0000
0000
,
0202
0000
0000
0303
0000
0000
0000
0000
2002
0000
0000
3003
0000
0000
0000
0000
0022
0000
0000
0033
0000
0000
0000
0000
2200
0000
0000
3300
0000
0000
0000
0000
,
0202
0000
0000
0303
0000
0000
0000
0000
0202
0000
0000
0303
0000
0000
0000
0000
0202
0000
0000
0303
0000
0000
0000
0000
0202
0000
0000
0303
0000
0000
0000
0000
,
2020
0000
0000
3030
0000
0000
0000
0000
2020
0000
0000
3030
0000
0000
0000
0000
2020
0000
0000
3030
0000
0000
0000
0000
1000
0000
0000
0000
0000
0000
0000
0000
,
0001
0000
0010
0100
1000
0000
0001
0000
0100
0000
0100
0000
0001
0000
0001
0000
,
0100
0000
0010
0000
1000
0000
0100
0000
0100
0000
0010
0000
0011
0000
0001
0010
,
0100
0000
1000
0001
0100
0000
0010
0000
1000
0000
0001
0000
0001
0000
0001
0000
,
0010
0001
0010
0001
0010
0110
0100
1000
,
0010
0000
1000
0001
0100
0000
0010
0000
1000
0000
1000
0000
0001
0000
0001
0000
,
0010
0000
0100
0000
1000
0000
0001
0000
0001
0000
0100
0000
0010
0000
1000
0100
,
0010
0000
0001
0010
0100
0000
1000
0000
0010
0000
0100
0000
0100
0000
0100
0000
,
0001
0100
0001
0100
0001
0101
0000
0001
,
1000
0000
0000
0000
0100
0000
0010
0000
0000
0000
0000
0000
0001
0000
0000
0000
0001
0000
1000
0000
0000
1000
0000
0000
,
0000
0000
0000
0010
0100
0000
0100
0000
,
0001
0000
0000
0000
0001
0000
0010
0000
0000
0000
0000
0000
0100
0000
0000
0000
0100
0000
1000
0000
0000
1000
0000
0000
,
0000
0000
0000
0000
0000
0001
0000
0100
,
0010
0000
0000
0000
0010
0000
1000
0000
0000
0000
0000
0000
0001
0000
0000
0000
0001
0000
0010
0000
0000
0100
0000
0000
,
0000
0000
0000
1000
0100
0000
0010
0000
,
0001
0000
0000
0000
0001
0000
1000
0000
0000
0000
0000
0000
0010
0000
0000
0000
0010
0000
0100
0000
0000
0010
0000
0000
,
0000
0000
0000
0000
0000
1000
0000
0001
,
1000
0001
0100
0010
1000
0001
1000
0000
0000
0000
0000
0000
0000
0000
0000
0000
0000
0000
0000
0000
0000
0000
0000
0000
;
