#TITLE:Sound of Giallarhorn;
#SUBTITLE:;
#ARTIST:L.E.D.-G;
#TITLETRANSLIT:;
#SUBTITLETRANSLIT:;
#ARTISTTRANSLIT:;
#CREDIT:Rynker;
#BANNER:giallarhorn-bn.png;
#BACKGROUND:giallarhorn-bg.png;
#LYRICSPATH:;
#CDTITLE:!cartoonTitle.png;
#MUSIC:Sound of Giallarhorn - L.E.D.-g.ogg;
#OFFSET:-0.053;
#SAMPLESTART:36.580;
#SAMPLELENGTH:13.400;
#SELECTABLE:YES;
#BPMS:0.000=184.020;
#STOPS:;
#BGCHANGES:0.000=giallarhorn-bg.png=1.000=0=0=1,
16.000=730_JumpBack.mpg=1.000=0=0=1,
32.000=In The Groove 2/934_JumpBack.mpg=1.000=0=0=1,
44.000=EV01445N.mpg=1.000=0=0=1,
60.000=In The Groove 2/651_JumpBack.mpg=1.000=0=0=1,
76.000=In The Groove 2/451_JumpBack.mpg=1.000=0=0=1,
92.000=In The Groove 2/970_JumpBack.mpg=1.000=0=0=1,
108.000=In The Groove 2/604_JumpBack.mpg=1.000=0=0=1,
128.000=In The Groove 2/749_JumpBack.mpg=1.000=0=0=1,
144.000=In The Groove 2/911_JumpBack.mpg=1.000=0=0=1,
156.000=In The Groove 2/617_JumpBack.mpg=1.000=0=0=1,
172.000=In The Groove 2/643_JumpBack.mpg=1.000=0=0=1,
188.000=In The Groove 2/931_JumpBack.mpg=1.000=0=0=1,
208.000=In The Groove 2/800_JumpBack.mpg=1.000=0=0=1,
228.000=In The Groove 2/972_JumpBack.mpg=1.000=0=0=1,
244.000=In The Groove 2/906_JumpBack.mpg=1.000=0=0=1,
260.000=In The Groove 2/643_JumpBack.mpg=1.000=0=0=1,
280.000=In The Groove 2/864_JumpBack.mpg=1.000=0=0=1,
296.000=giallarhorn-bg.png=1.000=0=0=1,
316.000=In The Groove 2/751_JumpBack.mpg=1.000=0=0=1,
332.000=In The Groove 2/980_JumpBack.mpg=1.000=0=0=1,
352.000=In The Groove 2/461_JumpBack.mpg=1.000=0=0=1,
368.000=In The Groove 2/864_JumpBack.mpg=1.000=0=0=1,
388.000=In The Groove 2/862_JumpBack.mpg=1.000=0=0=1,
396.000=giallarhorn-bg.png=1.000=0=0=1,
99999=-nosongbg-=1.000=0=0=0 // don't automatically add -songbackground-
;
// cache tags:
#FIRSTBEAT:16.000;
#LASTBEAT:402.000;
#SONGFILENAME:Songs/Definitive Keyboard Megapack/Sound of Giallarhorn(Cartoon)/gillarhorn.sm;
#HASMUSIC:1;
#HASBANNER:1;
#MUSICLENGTH:105.000;
// end cache tags

//---------------dance-single - ----------------
#NOTES:
     dance-single:
     :
     Medium:
     14:
     1.000,1.000,1.000,0.210,1.000,904.000,394.000,22.000,0.000,216.000:
0000
0000
0000
0000
,
0000
0000
0000
0000
,
0000
0000
0000
0000
,
0000
0000
0000
0000
,
1100
1100
0110
1100
1100
0110
1010
0101
,
1001
0000
0011
0000
1100
0000
0011
0000
0101
0000
1100
0000
0011
0000
0110
1000
,
0101
1010
0110
0011
0110
1100
0011
0110
,
1001
0110
0110
0101
1010
0101
1001
0110
,
1001
0101
1010
0101
1111
1010
0101
1010
,
1111
0000
0011
0000
1100
0000
0011
1000
0110
1000
0101
0000
1010
0000
0011
0000
,
0200
0000
1010
0000
1001
0300
0110
0000
1100
0000
0011
0000
1001
0000
0110
0000
,
0020
0000
0000
0000
0000
0000
1001
0000
0000
0000
0000
0000
1130
0000
0000
0000
0000
0000
0002
0000
0000
0010
0003
0000
1001
0000
0000
0010
0000
0000
0101
0000
0000
0000
0000
0000
0110
0000
0000
0000
0000
0000
1001
0000
0000
0000
0000
0000
,
0200
0000
0000
0011
0000
0000
1010
0300
0000
1100
0000
0000
0011
0000
0000
0101
0000
0000
0011
0000
0000
0110
0000
0000
,
2000
0000
0000
0000
0000
0000
0011
0000
0000
0000
0000
0000
0101
0000
0000
0000
0000
0000
0011
0000
3000
0000
0000
0000
1100
0000
0000
0000
0000
0000
0011
0000
0000
0000
0000
0000
1100
0000
0000
0000
0000
0000
1001
0000
0000
0010
0000
0000
,
0200
1001
0011
1001
0311
1010
0011
1100
,
0002
0000
0000
0000
0000
0000
0110
0000
0000
0000
0000
0000
1010
0000
0000
0000
0003
0000
0101
0000
0000
1000
0000
0000
0110
0000
0000
0000
0000
0000
0011
0000
0000
0000
0000
0000
0110
0000
0000
0000
0000
0000
0011
0000
0000
0000
0000
0000
,
0002
0110
1100
1100
0113
1001
0011
0110
,
0110
0000
0011
0000
1001
0000
1100
0010
0101
1000
0110
0000
1111
0000
0000
0000
,
1111
0100
1000
0111
0100
1000
1110
0010
,
0001
1110
0010
0001
0010
1101
0101
1010
,
0110
0011
1101
0010
0001
0111
1000
0100
,
0111
0010
0100
1101
0100
0010
0010
1111
,
1111
0101
0011
1100
0011
0110
0101
1111
,
1111
0011
0110
1001
0110
1001
0110
1111
,
1111
0011
1100
1111
1111
0011
1100
1111
,
0001
1000
0010
0100
0001
1000
0001
0010
0100
0010
0001
1000
0001
0000
0010
0001
,
0100
0010
1101
0100
0010
1111
0100
0010
,
1011
0100
0010
1111
0100
0010
1110
0001
,
1111
0100
0010
1101
0010
0100
0111
0010
,
1111
0010
0001
0100
1110
0010
1111
0100
,
1111
0010
0001
1110
0010
0001
1101
0010
,
0001
0100
1000
0010
0001
0100
1111
1111
,
0001
1000
0100
0111
0100
1000
1111
1000
,
1111
0000
0001
0000
1000
0000
1011
0000
0010
0000
0100
0001
1000
0000
0001
0000
,
1011
1000
1111
0001
1000
1110
0001
1000
,
0111
0001
1000
1111
0001
0010
0111
1110
,
1111
0001
0100
1011
1000
0010
1101
0100
,
0111
0001
1000
0100
1111
0001
0100
1111
,
1111
0010
1000
0111
0001
1000
0111
1000
,
1111
0011
0101
1100
0011
0110
0011
1001
,
1110
1000
1000
0111
0001
0001
0111
0010
,
1101
1100
0110
0011
1100
0110
0011
1100
,
0100
0000
0000
1100
0000
0000
0011
0000
0000
0011
0000
0000
0011
0000
1001
0000
,
0110
0000
0000
0011
0000
0000
1100
0000
0000
0000
0110
0000
1001
0000
0110
0000
,
1100
0000
0000
0000
0011
0000
0000
1100
0000
0000
0011
0000
1001
0000
1100
0000
,
0110
0000
0000
1010
0000
0000
0011
0000
0000
1100
0000
1010
0101
0000
0011
0000
,
1101
0000
0000
0110
0000
0000
0110
0000
0000
0000
0011
0000
1010
0000
1001
0000
,
1100
0000
0000
0110
0000
0000
0110
0000
0000
0000
0011
0000
0110
0000
1010
0000
,
0110
0000
0000
1100
0000
0000
0011
0000
0000
0000
0011
0000
0110
0000
0011
0000
,
1100
0000
0000
0011
0000
0000
0110
0000
0000
0000
1100
0011
1100
0000
0011
0000
,
1111
0000
0001
0010
1000
0010
0100
0001
0010
0001
0100
0010
1000
0100
0001
0010
,
1101
0010
0001
0100
0010
0100
0001
1000
0100
0001
0010
0100
0010
0100
1000
0001
,
1110
0001
1000
0100
0010
0001
0100
0010
1000
0001
0010
0100
0001
0010
0100
0001
,
1110
0001
1000
0100
0010
0100
0001
1000
0001
0010
0100
0000
0010
1000
0010
0001
,
1110
0001
0010
0100
0010
1000
0100
0010
1000
0001
0010
0100
0010
0001
0100
1000
,
0111
1000
0001
0010
1000
0100
0010
0100
0001
1000
0010
0001
0100
1000
0100
0010
,
1001
0000
0000
0110
0000
0000
1010
0000
0000
0000
0011
0000
1100
0000
0110
0000
,
0011
0000
0000
1001
0000
0000
0011
0000
0000
0000
1001
0110
1001
0000
0110
0000
,
0111
1000
0001
0010
1101
0010
0100
1000
0111
1000
0001
0010
1101
0010
0100
1000
,
0111
1000
0001
1000
0111
1000
0001
0100
1011
0100
0010
0001
1110
0001
0100
0001
,
1110
0001
0010
1000
0111
1000
0010
0001
1110
0001
0100
0010
1101
0010
0001
1000
,
0111
1000
0010
0001
1110
0001
0100
0010
1101
0010
0001
1000
0111
1000
0010
0001
,
1110
0001
0100
0010
1101
0010
1000
0100
1011
0100
0010
1000
0111
1000
0100
0010
,
1101
0010
0001
1000
0111
1000
0100
0001
1110
0001
0010
0100
1011
0100
0001
1000
,
0111
1000
0100
0010
1101
0010
1000
0010
1101
0010
1000
0100
1011
0100
0010
1000
,
0111
1000
0100
0010
1101
0010
0100
0001
1110
0001
1000
0010
1101
0010
0100
0001
,
1110
0001
1000
0001
1110
0001
0010
0100
1011
0100
1000
0001
1110
0001
0010
0100
,
1011
0100
1000
0001
1110
0001
1000
0100
1011
0100
0010
0001
1110
0001
0010
0100
,
1011
0100
0001
1000
0111
1000
0001
0100
1011
0100
0001
0010
1101
0010
0100
1000
,
0111
1000
0010
0100
1011
0100
1000
0001
1110
0001
0010
0100
1011
0100
0001
0010
,
1101
0010
1000
0001
1110
0001
0010
1000
0111
1000
0001
0100
1011
0100
1000
0001
,
1110
0001
0100
1000
0111
1000
0010
0001
1110
0001
1000
0100
1011
0100
0010
0001
,
1110
0001
0100
1000
0111
1000
0010
0100
1011
0100
1000
0001
1110
0001
0010
1000
,
0111
1000
0100
0010
1101
0010
1000
0100
1011
0100
0010
0100
1011
0100
0010
0100
,
0020
0000
0000
0000
,
0000
0000
0000
0000
,
0200
0000
0000
0000
,
0000
0000
2000
0000
,
0002
0000
0000
0000
0000
0000
0000
0000
0000
3333
0000
0000
0000
0000
1111
0000
,
1111
0000
0000
0000
0000
0000
0000
1111
,
1111
0000
0000
1111
1111
0000
0000
1001
,
0010
1000
0001
0010
0100
0010
0001
1000
0100
0010
0001
0100
0010
0000
0100
0000
,
0220
0000
0000
0000
0000
0330
0000
0000
,
1111
0001
1111
0100
1000
1111
1000
0100
,
1111
0100
1000
1111
1110
0011
1101
1011
,
1111
0010
0100
1111
0100
0010
1111
0010
,
1111
0001
1000
1111
0010
0001
1111
1000
,
1111
0001
1000
1111
0001
0100
1111
0001
,
1111
1101
0111
0111
1110
1111
0010
0100
,
1111
0010
0100
1111
0010
0100
1111
0010
,
1111
0100
0010
1111
0100
1111
1111
0001
,
2100
0000
0001
3000
1111
0000
0001
0000
1000
0000
1111
0000
0001
0000
0100
0000
,
1111
0000
0000
0001
0000
0000
0100
0000
0000
1111
0000
0000
0001
0000
0000
0001
0000
0000
1112
0000
0000
0100
0003
0000
,
1210
0000
0000
0010
0300
0000
0010
0000
0000
1111
0000
0000
1000
0000
0000
0100
0000
0000
1111
0000
0000
0001
0000
0000
,
1112
0100
0013
1111
1000
0010
1211
0001
,
0001
0300
0001
0000
1111
0000
0111
0000
1110
0000
1101
0000
1011
0000
1101
0000
,
1111
0001
1111
1000
1111
0001
1111
1000
,
1101
0010
1101
0010
0100
0010
1101
0010
1101
0010
0001
0100
0010
0100
0010
0100
,
0001
0010
0100
0010
0001
1000
0010
0100
0001
0010
0100
0010
0001
0100
0010
1000
,
0222
0000
0000
0000
,
0000
0000
0333
0000
;

//---------------dance-single - Rynker----------------
#NOTES:
     dance-single:
     Rynker:
     Edit:
     14:
     1.000,1.000,1.000,0.210,1.000,904.000,394.000,22.000,0.000,216.000:
0000
0000
0000
0000
,
0000
0000
0000
0000
,
0000
0000
0000
0000
,
0000
0000
0000
0000
,
1100
1100
0110
1100
1100
0110
1010
0101
,
1001
0000
0011
0000
1100
0000
0011
0000
0101
0000
1100
0000
0011
0000
0110
1000
,
0101
1010
0110
0011
0110
1100
0011
0110
,
1001
0110
0110
0101
1010
0101
1001
0110
,
1001
0101
1010
0101
1111
1010
0101
1010
,
1111
0000
0011
0000
1100
0000
0011
1000
0110
1000
0101
0000
1010
0000
0011
0000
,
0200
0000
1010
0000
1001
0300
0110
0000
1100
0000
0011
0000
1001
0000
0110
0000
,
0020
0000
0000
0000
0000
0000
1001
0000
0000
0000
0000
0000
1130
0000
0000
0000
0000
0000
0002
0000
0000
0010
0003
0000
1001
0000
0000
0010
0000
0000
0101
0000
0000
0000
0000
0000
0110
0000
0000
0000
0000
0000
1001
0000
0000
0000
0000
0000
,
0200
0000
0000
0011
0000
0000
1010
0300
0000
1100
0000
0000
0011
0000
0000
0101
0000
0000
0011
0000
0000
0110
0000
0000
,
2000
0000
0000
0000
0000
0000
0011
0000
0000
0000
0000
0000
0101
0000
0000
0000
0000
0000
0011
0000
3000
0000
0000
0000
1100
0000
0000
0000
0000
0000
0011
0000
0000
0000
0000
0000
1100
0000
0000
0000
0000
0000
1001
0000
0000
0010
0000
0000
,
0200
1001
0011
1001
0311
1010
0011
1100
,
0002
0000
0000
0000
0000
0000
0110
0000
0000
0000
0000
0000
1010
0000
0000
0000
0003
0000
0101
0000
0000
1000
0000
0000
0110
0000
0000
0000
0000
0000
0011
0000
0000
0000
0000
0000
0110
0000
0000
0000
0000
0000
0011
0000
0000
0000
0000
0000
,
0002
0110
1100
1100
0113
1001
0011
0110
,
0110
0000
0011
0000
1001
0000
1100
0010
0101
1000
0110
0000
1111
0000
0000
0000
,
1111
0100
1000
0111
0100
1000
1110
0010
,
0001
1110
0010
0001
0010
1101
0101
1010
,
0110
0011
1101
0010
0001
0111
1000
0100
,
0111
0010
0100
1101
0100
0010
0010
1111
,
1111
0101
0011
1100
0011
0110
0101
1111
,
1111
0011
0110
1001
0110
1001
0110
1111
,
1111
0011
1100
1111
1111
0011
1100
1111
,
0001
1000
0010
0100
0001
1000
0001
0010
0100
0010
0001
1000
0001
0000
0010
0001
,
0100
0010
1101
0100
0010
1111
0100
0010
,
1011
0100
0010
1111
0100
0010
1110
0001
,
1111
0100
0010
1101
0010
0100
0111
0010
,
1111
0010
0001
0100
1110
0010
1111
0100
,
1111
0010
0001
1110
0010
0001
1101
0010
,
0001
0100
1000
0010
0001
0100
1111
1111
,
0001
1000
0100
0111
0100
1000
1111
1000
,
1111
0000
0001
0000
1000
0000
1011
0000
0010
0000
0100
0001
1000
0000
0001
0000
,
1011
1000
1111
0001
1000
1110
0001
1000
,
0111
0001
1000
1111
0001
0010
0111
1110
,
1111
0001
0100
1011
1000
0010
1101
0100
,
0111
0001
1000
0100
1111
0001
0100
1111
,
1111
0010
1000
0111
0001
1000
0111
1000
,
1111
0011
0101
1100
0011
0110
0011
1001
,
1110
1000
1000
0111
0001
0001
0111
0010
,
1101
1100
0110
0011
1100
0110
0011
1100
,
0100
0000
0000
1100
0000
0000
0011
0000
0000
0011
0000
0000
0011
0000
1001
0000
,
0110
0000
0000
0011
0000
0000
1100
0000
0000
0000
0110
0000
1001
0000
0110
0000
,
1100
0000
0000
0000
0011
0000
0000
1100
0000
0000
0011
0000
1001
0000
1100
0000
,
0110
0000
0000
1010
0000
0000
0011
0000
0000
1100
0000
1010
0101
0000
0011
0000
,
1101
0000
0000
0110
0000
0000
0110
0000
0000
0000
0011
0000
1010
0000
1001
0000
,
1100
0000
0000
0110
0000
0000
0110
0000
0000
0000
0011
0000
0110
0000
1010
0000
,
0110
0000
0000
1100
0000
0000
0011
0000
0000
0000
0011
0000
0110
0000
0011
0000
,
1100
0000
0000
0011
0000
0000
0110
0000
0000
0000
1100
0011
1100
0000
0011
0000
,
1111
0000
0001
0010
1000
0010
0100
0001
0010
0001
0100
0010
1000
0100
0001
0010
,
1101
0010
0001
0100
0010
0100
0001
1000
0100
0001
0010
0100
0010
0100
1000
0001
,
1110
0001
1000
0100
0010
0001
0100
0010
1000
0001
0010
0100
0001
0010
0100
0001
,
1110
0001
1000
0100
0010
0100
0001
1000
0001
0010
0100
0000
0010
1000
0010
0001
,
1110
0001
0010
0100
0010
1000
0100
0010
1000
0001
0010
0100
0010
0001
0100
1000
,
0111
1000
0001
0010
1000
0100
0010
0100
0001
1000
0010
0001
0100
1000
0100
0010
,
1001
0000
0000
0110
0000
0000
1010
0000
0000
0000
0011
0000
1100
0000
0110
0000
,
0011
0000
0000
1001
0000
0000
0011
0000
0000
0000
1001
0110
1001
0000
0110
0000
,
0111
1000
0001
0010
1101
0010
0100
1000
0111
1000
0001
0010
1101
0010
0100
1000
,
0111
1000
0001
1000
0111
1000
0001
0100
1011
0100
0010
0001
1110
0001
0100
0001
,
1110
0001
0010
1000
0111
1000
0010
0001
1110
0001
0100
0010
1101
0010
0001
1000
,
0111
1000
0010
0001
1110
0001
0100
0010
1101
0010
0001
1000
0111
1000
0010
0001
,
1110
0001
0100
0010
1101
0010
1000
0100
1011
0100
0010
1000
0111
1000
0100
0010
,
1101
0010
0001
1000
0111
1000
0100
0001
1110
0001
0010
0100
1011
0100
0001
1000
,
0111
1000
0100
0010
1101
0010
1000
0010
1101
0010
1000
0100
1011
0100
0010
1000
,
0111
1000
0100
0010
1101
0010
0100
0001
1110
0001
1000
0010
1101
0010
0100
0001
,
1110
0001
1000
0001
1110
0001
0010
0100
1011
0100
1000
0001
1110
0001
0010
0100
,
1011
0100
1000
0001
1110
0001
1000
0100
1011
0100
0010
0001
1110
0001
0010
0100
,
1011
0100
0001
1000
0111
1000
0001
0100
1011
0100
0001
0010
1101
0010
0100
1000
,
0111
1000
0010
0100
1011
0100
1000
0001
1110
0001
0010
0100
1011
0100
0001
0010
,
1101
0010
1000
0001
1110
0001
0010
1000
0111
1000
0001
0100
1011
0100
1000
0001
,
1110
0001
0100
1000
0111
1000
0010
0001
1110
0001
1000
0100
1011
0100
0010
0001
,
1110
0001
0100
1000
0111
1000
0010
0100
1011
0100
1000
0001
1110
0001
0010
1000
,
0111
1000
0100
0010
1101
0010
1000
0100
1011
0100
0010
0100
1011
0100
0010
0100
,
0020
0000
0000
0000
,
0000
0000
0000
0000
,
0200
0000
0000
0000
,
0000
0000
2000
0000
,
0002
0000
0000
0000
0000
0000
0000
0000
0000
3333
0000
0000
0000
0000
1111
0000
,
1111
0000
0000
0000
0000
0000
0000
1111
,
1111
0000
0000
1111
1111
0000
0000
1001
,
0010
1000
0001
0010
0100
0010
0001
1000
0100
0010
0001
0100
0010
0000
0100
0000
,
0220
0000
0000
0000
0000
0330
0000
0000
,
1111
0001
1111
0100
1000
1111
1000
0100
,
1111
0100
1000
1111
1110
0011
1101
1011
,
1111
0010
0100
1111
0100
0010
1111
0010
,
1111
0001
1000
1111
0010
0001
1111
1000
,
1111
0001
1000
1111
0001
0100
1111
0001
,
1111
1101
0111
0111
1110
1111
0010
0100
,
1111
0010
0100
1111
0010
0100
1111
0010
,
1111
0100
0010
1111
0100
1111
1111
0001
,
2100
0000
0001
3000
1111
0000
0001
0000
1000
0000
1111
0000
0001
0000
0100
0000
,
1111
0000
0000
0001
0000
0000
0100
0000
0000
1111
0000
0000
0001
0000
0000
0001
0000
0000
1112
0000
0000
0100
0003
0000
,
1210
0000
0000
0010
0300
0000
0010
0000
0000
1111
0000
0000
1000
0000
0000
0100
0000
0000
1111
0000
0000
0001
0000
0000
,
1112
0100
0013
1111
1000
0010
1211
0001
,
0001
0300
0001
0000
1111
0000
0111
0000
1110
0000
1101
0000
1011
0000
1101
0000
,
1111
0001
1111
1000
1111
0001
1111
1000
,
1101
0010
1101
0010
0100
0010
1101
0010
1101
0010
0001
0100
0010
0100
0010
0100
,
0001
0010
0100
0010
0001
1000
0010
0100
0001
0010
0100
0010
0001
0100
0010
1000
,
0222
0000
0000
0000
,
0000
0000
0333
0000
;
