#TITLE:The Privateer;
#SUBTITLE:Black Hand Inn (1994);
#ARTIST:Running Wild;
#TITLETRANSLIT:;
#SUBTITLETRANSLIT:;
#ARTISTTRANSLIT:;
#CREDIT:;
#BANNER:privateer-bn.png;
#BACKGROUND:privateer-bg.png;
#LYRICSPATH:;
#CDTITLE:cdtitle.PNG;
#MUSIC:running wild - the privateer.mp3;
#OFFSET:0.201;
#SAMPLESTART:7.300;
#SAMPLELENGTH:15.000;
#SELECTABLE:YES;
#BPMS:0.000=200.180;
#STOPS:;
#BGCHANGES:;
// cache tags:
#FIRSTBEAT:4.000;
#LASTBEAT:480.000;
#SONGFILENAME:Songs/Astronomic Metal Collection 2/(Zaghurim) The Privateer/the privateer.sm;
#HASMUSIC:1;
#HASBANNER:1;
#MUSICLENGTH:147.495;
// end cache tags

//---------------dance-single - ----------------
#NOTES:
     dance-single:
     :
     Hard:
     12:
     1.000,1.000,0.793,0.081,1.000,1227.000,117.000,12.000,0.000,1.000:
0000
0000
0000
0000
,
1001
0100
0010
0001
0010
0100
1000
0001
0100
0010
0100
0010
,
1001
0100
0010
0100
0010
1000
0010
0100
0010
1000
0100
0010
,
1001
0000
1000
0100
0010
0001
1000
0100
0010
0001
0100
0010
,
1001
0000
1000
0100
0010
0001
0110
0000
1000
0100
0010
0001
,
1100
0010
0001
0010
0100
1000
0001
0100
0010
1000
0001
0100
,
0011
0100
0001
0010
0100
1000
0001
0100
0001
1000
0100
0010
,
1001
0000
1000
0100
1000
0010
0100
0010
1000
0010
1000
0100
,
1010
0000
1000
0001
1000
0001
0110
0000
0001
1000
0001
1000
,
0110
0001
0010
0100
1000
0100
0010
0001
0100
0010
1000
0001
,
0110
1000
0100
0010
0001
0100
0010
1000
0010
0100
0010
1000
,
0011
0000
0001
0010
0100
1000
0001
0100
0010
1000
0001
0100
,
0011
0000
1000
0100
0010
0100
1001
0000
0001
0010
0100
0010
,
0101
0010
0001
0010
0100
1000
0001
0010
0100
1000
0010
0100
,
1001
0100
0010
0001
0010
0100
1000
0001
0010
0100
1000
0010
,
0101
0000
0100
0010
0100
0001
0100
0010
0100
0001
0100
0010
,
1001
0000
0001
0100
0010
1000
0011
0000
1000
0010
0100
0001
,
1000
0100
1000
0010
1000
0010
0001
0010
0001
0100
0001
0100
,
0010
0100
0010
0001
1000
0001
0100
0001
0100
0010
0100
0010
,
1000
0100
1000
0001
0010
0001
0100
0001
0100
0010
0100
0010
,
1000
0010
1000
0001
0010
0001
0100
0010
0100
0010
1000
0010
,
0100
0010
0100
0001
0100
0001
0100
0010
0100
0001
1000
0001
,
1000
0010
1000
0010
0100
0010
0001
1000
0001
0100
0001
0100
,
0010
0100
0010
1000
0010
1000
0001
0100
0001
1000
0100
1000
,
0001
0010
0001
1000
0001
1000
0001
0010
0001
0010
0001
0010
,
1001
0000
0000
1000
0100
0010
0001
1000
0010
0100
0001
1000
,
0100
0010
0001
1000
0010
0100
0001
0100
0010
0101
0000
0000
,
1010
0000
0000
1000
0100
0010
0001
0100
0010
1001
0000
0000
,
0110
0000
0000
0001
0010
0100
1000
0001
1000
0011
0000
0000
,
1100
0000
0000
0001
0010
0100
1000
0001
0100
0010
1000
0001
,
0010
0100
1000
0001
0100
0010
1000
0010
0100
1001
0000
0000
,
1010
0000
0000
1000
0100
0010
0001
0100
0001
1010
0000
0000
,
0101
0000
0000
0001
0010
0100
1000
0100
0010
0101
0000
0000
,
1010
0000
0000
1000
0100
0010
0001
0100
0010
1000
0100
0010
,
0001
0100
0010
1000
0100
0010
0001
1000
0010
0101
0000
0000
,
1010
0000
0000
1000
0100
0010
0001
1000
0100
0011
0000
0000
,
0110
0000
0000
1000
0100
0010
0001
1000
0010
0101
0000
0000
,
0110
0000
0000
1000
0100
0010
0001
1000
0010
0100
0001
1000
,
0100
0010
0001
1000
0010
0100
0001
1000
0010
1100
0000
0000
,
0110
0000
0000
1000
0100
0010
0001
1000
0100
0011
0000
0000
,
0110
0000
0000
0001
0010
0100
1000
0100
0010
0001
0010
0100
,
1001
0010
0001
0010
0100
1000
0001
0100
0010
1000
0001
1000
,
0011
1000
0010
0100
0001
1000
0010
0100
0001
1000
0100
0010
,
1001
0000
0100
0010
0100
0001
0100
0010
0100
0001
0100
0010
,
0101
0000
1000
0100
0010
0001
1100
0000
0001
0010
0100
1000
,
0101
0010
0001
0010
0100
1000
0001
0100
0010
1000
0001
0100
,
0011
0100
0010
0001
0010
0100
1000
0100
0010
0001
1000
0001
,
1100
0000
0100
0010
0100
0001
0100
0010
0100
0001
0100
0010
,
1001
0000
1001
0000
1010
0000
1100
0000
1010
0000
1001
0000
,
1001
0000
0000
0001
0010
0100
1000
0001
0100
0010
1000
0001
,
0010
0100
1000
0001
0100
0010
1000
0010
0100
1010
0000
0000
,
0101
0000
0000
0001
0010
0100
1000
0010
0100
1001
0000
0000
,
0110
0000
0000
1000
0100
0010
0001
1000
0001
1100
0000
0000
,
0011
0000
0000
1000
0100
0010
0001
1000
0010
0100
0001
1000
,
0100
0010
0001
1000
0010
0100
0001
0100
0010
1001
0000
0000
,
0101
0000
0000
0001
0010
0100
1000
0010
1000
0101
0000
0000
,
1010
0000
0000
1000
0100
0010
0001
0100
0010
1000
0100
0010
,
0001
0010
0100
1000
0001
0100
0010
1000
0001
0010
0100
1000
,
0001
0100
0010
1000
0001
0100
0010
1000
0001
1000
0010
1000
,
0001
0100
0010
1000
0001
0100
0010
1000
0100
0010
0001
1000
,
0010
0100
0001
0100
0010
0100
0001
1000
0010
1000
0001
0010
,
0100
1000
0010
1000
0001
1000
0010
0100
0001
1000
0010
0100
,
0001
0010
0100
1000
0100
0010
0001
0010
0100
1000
0100
0010
,
0001
0000
0010
0100
0010
0100
1001
0000
0010
0100
0010
0100
,
1001
0000
0101
1010
0000
0000
1001
0000
1010
0101
0000
0000
,
1000
0100
0010
0001
0100
0010
1000
0001
0010
0100
1000
0001
,
1000
0010
0100
0010
1000
0010
0100
0001
1000
0010
0100
0001
,
1000
0010
1000
0010
0100
0001
1000
0010
1000
0010
0100
0001
,
1000
0100
1000
0100
0010
0001
0100
0010
0100
0001
0010
0001
,
1000
0100
1000
0001
0010
0001
0100
0010
0100
0001
0010
0001
,
1000
0010
1000
0010
0100
0010
1000
0010
1000
0010
0100
0001
,
0010
0100
1000
0001
0100
0010
1000
0001
0100
0010
1000
0010
,
1001
0000
0000
0000
,
1010
0100
0010
0001
1000
0010
0100
0001
1000
0100
0010
0001
,
1100
0001
0010
0100
1000
0001
0100
0010
1000
0001
1000
0001
,
1100
0000
0001
0010
0100
1000
0001
0100
0010
1000
0010
0100
,
1001
0000
1000
0100
0010
0100
1001
0000
0001
0010
0100
0010
,
0101
0010
0100
0010
1000
0010
0100
0010
1000
0010
1000
0010
,
1001
0010
0100
1000
0001
0100
0010
1000
0010
1000
0001
1000
,
0011
0000
1001
0000
1000
0100
0010
0100
1000
0001
0010
0100
,
0010
0001
0010
0100
1000
0001
0010
0100
1000
0001
0010
0100
,
0020
0000
0000
0000
0000
0000
1030
0010
,
0100
0000
0001
0000
0100
0000
0010
0000
0000
0100
0000
0000
,
0000
0000
0000
1000
0010
0100
0001
1000
0010
0100
0001
1000
,
0001
0100
0010
1000
0001
0100
0010
1000
0020
0000
0000
0000
0000
0000
0000
0000
,
1030
0100
0010
0100
0010
0001
1000
0001
0100
0010
1000
0001
,
0100
0010
1000
0001
0100
0010
1000
0100
0010
0001
0010
0100
,
2000
0000
0000
0000
0000
0000
3200
0000
0000
0320
0000
0000
0230
0000
0000
0300
2000
0000
0000
0000
3020
0000
0000
0000
,
0230
0000
0000
0000
0300
0000
0000
0000
0000
0200
0000
0000
0000
0000
0000
0300
0000
0000
0020
0000
0000
0000
0000
0000
2030
0000
0000
0000
0000
0000
0000
0000
0000
0000
0000
0000
0000
0000
0000
0000
0000
0000
0000
0000
0000
0000
0000
0000
,
3011
0000
0000
1000
0010
1000
0001
1000
0010
0100
0001
1000
,
0010
0100
0010
1000
0010
0100
0001
1000
0001
1010
0000
0000
,
0110
0000
0000
1000
0010
0100
0001
0100
0010
1001
0000
0000
,
1010
0000
0000
0001
0100
0010
1000
0001
1000
0011
0000
0000
,
1010
0000
0000
0001
0100
0010
1000
0001
0010
0100
1000
0001
,
0100
0010
1000
0001
0010
0100
1000
0010
0100
0011
0000
0000
,
1001
0000
0000
1000
0100
0010
0001
0100
0010
0101
0000
0000
,
0101
0000
0000
1000
0010
0100
0001
0100
0010
0101
0000
0000
,
0110
0000
0000
1000
0100
0010
0001
0100
0010
1000
0100
0010
,
0001
0100
0010
1000
0100
0010
0001
0010
0100
1010
0000
0000
,
1010
0000
0000
1000
0100
0010
0001
1000
0100
0011
0000
0000
,
0110
0000
0000
1000
0100
0010
0001
1000
0010
0101
0000
0000
,
0110
0000
0000
1000
0100
0010
0001
1000
0010
0100
0001
1000
,
0100
0010
0001
1000
0010
0100
0001
1000
0010
1100
0000
0000
,
0110
0000
0000
1000
0100
0010
0001
1000
0100
0011
0000
0000
,
0001
1000
0001
1000
0001
1000
0001
0010
0100
1000
0010
0100
,
0001
0100
0010
1000
0001
0010
0100
1000
0001
0100
0010
1000
,
0100
0010
0001
1000
0001
0010
0100
1000
0001
0010
0100
1000
,
0100
0010
0001
0010
0100
1000
0100
0010
0001
0010
0100
0001
,
1000
0010
1000
0010
0100
0010
1000
0001
0100
0001
1000
0100
,
0010
0001
0100
0010
1000
0001
0100
0010
1000
0010
0100
0010
,
1000
0100
0010
0001
0010
0100
1000
0100
0010
0001
0010
0100
,
1001
0000
1000
0100
0010
0001
1100
0000
0001
0010
0100
1000
,
0011
0000
1010
0101
0000
0000
1001
0000
0101
1010
0000
0000
,
1001
0010
0100
1000
0100
0010
0001
1000
0100
0010
0001
1000
,
0001
0100
0010
1000
0001
0100
0010
1000
0001
1000
0010
1000
,
0001
0100
0001
1000
0010
1000
0001
0100
0001
1000
0010
1000
,
0001
0010
0001
1000
0100
1000
0010
0100
0010
1000
0100
1000
,
0001
0010
0001
1000
0100
1000
0010
0100
0010
1000
0100
1000
,
0001
0100
0001
0100
0010
0100
0001
0100
0001
0100
0010
1000
,
0001
0100
0010
1000
0001
0010
0100
1000
0001
1000
0010
0100
,
1001
0000
0000
0000
;

//---------------dance-single - Copied from----------------
#NOTES:
     dance-single:
     Copied from:
     Challenge:
     14:
     1.000,1.000,1.000,0.081,1.000,1289.000,192.000,12.000,0.000,1.000:
0000
0000
0000
0000
,
1001
0010
0001
0001
0001
0001
0001
0001
0001
0001
0001
0001
,
0011
0100
0010
0010
0010
0010
0010
0010
0010
1010
0101
1010
,
1100
0000
0100
0100
0100
0100
0100
0100
0100
0100
0100
0100
,
1010
0000
1000
1000
1000
1000
1100
0000
0100
0100
0100
0100
,
0101
0010
0001
0001
0001
0001
0001
0001
0001
0001
0001
0001
,
0011
0100
0010
0010
0010
0010
0010
0010
0010
1010
0101
1010
,
1100
0000
0100
0100
0100
0100
0100
0100
0100
0100
0100
0100
,
1010
0000
0010
0010
0010
0010
0110
0000
0100
0100
0100
0100
,
0110
0001
0010
0010
0010
0010
0010
0010
0010
0010
0010
0010
,
0110
1000
0100
0100
0100
0100
0100
0100
0100
0101
1010
0110
,
1001
0000
0010
0010
0010
0010
0010
0010
0010
0010
0010
0010
,
1010
0000
1000
1000
1000
1000
1001
0000
0001
0001
0001
0001
,
0101
0010
0001
0001
0001
0001
0001
0001
0001
0001
0001
0001
,
0011
0100
0010
0010
0010
0010
0010
0010
0010
1010
0101
1010
,
1100
0000
0100
0100
0100
0100
0100
0100
0100
0100
0100
0100
,
1001
0000
0001
0100
0010
1000
0011
0000
1000
0010
0100
0001
,
1000
1000
1000
0010
0010
0010
0001
0001
0001
0100
0100
0100
,
0010
0010
0010
0001
0001
0001
0100
0100
0100
0010
0010
0010
,
1000
1000
1000
0001
0001
0001
0100
0100
0100
0010
0010
0010
,
1000
1000
1000
0001
0001
0001
0100
0100
0100
0100
0100
0100
,
0010
0010
0010
0001
0001
0001
0010
0010
0010
0100
0100
0100
,
1000
1000
1000
0010
0010
0010
0001
0001
0001
0100
0100
0100
,
0010
0010
0010
1000
1000
1000
0001
0001
0001
1000
1000
1000
,
0010
0010
0010
0100
0100
0100
0001
0001
0001
0001
0001
0001
,
1001
0000
0000
1000
0100
0010
0001
1000
0010
0100
0001
1000
,
0100
0010
0001
1000
0010
0100
0001
0100
0010
0101
0010
0010
,
1010
0000
0000
1000
0100
0010
0001
0100
0010
1001
1000
1000
,
0110
0000
0000
0001
0010
0100
1000
0001
1000
0011
0010
0010
,
1100
0000
0000
0001
0010
0100
1000
0001
0100
0010
1000
0001
,
0010
0100
1000
0001
0100
0010
1000
0010
0100
1001
0001
0001
,
1010
0000
0000
1000
0100
0010
0001
0100
0001
1010
0010
0010
,
0101
0000
0000
0001
0010
0100
1000
0100
0010
0101
0010
0010
,
1010
0000
0000
1000
0100
0010
0001
0100
0010
1000
0100
0010
,
0001
0100
0010
1000
0100
0010
0001
1000
0010
0101
0010
0010
,
1010
0000
0000
1000
0100
0010
0001
1000
0100
0011
0010
0010
,
0110
0000
0000
1000
0100
0010
0001
1000
0010
0101
0100
0100
,
0110
0000
0000
1000
0100
0010
0001
1000
0010
0100
0001
1000
,
0100
0010
0001
1000
0010
0100
0001
1000
0010
1100
0100
0100
,
0110
0000
0000
1000
0100
0010
0001
1000
0100
0011
0010
0010
,
0110
0000
0000
0001
0010
0100
1000
0100
0010
0001
0010
0100
,
1001
0010
0001
0001
0001
0001
0001
0001
0001
0001
0001
0001
,
0011
0100
0010
0010
0010
0010
0010
0010
0010
1010
0101
1010
,
1100
0000
0100
0100
0100
0100
0100
0100
0100
0100
0100
0100
,
1010
0000
1000
1000
1000
1000
1100
0000
0100
0100
0100
0100
,
0101
0010
0001
0001
0001
0001
0001
0001
0001
0001
0001
0001
,
0011
0100
0010
0010
0010
0010
0010
0010
0010
1010
0101
1010
,
1100
0000
0100
0100
0100
0100
0100
0100
0100
0100
0100
0100
,
1010
0000
1001
0000
1010
0000
1100
0000
1010
0000
1001
0000
,
1001
0000
0000
0001
0010
0100
1000
0001
0100
0010
1000
0001
,
0010
0100
1000
0001
0100
0010
1000
0010
0100
1010
0100
0100
,
0101
0000
0000
0001
0010
0100
1000
0010
0100
1001
0001
0001
,
0110
0000
0000
1000
0100
0010
0001
1000
0001
1100
0100
0100
,
0011
0000
0000
1000
0100
0010
0001
1000
0010
0100
0001
1000
,
0100
0010
0001
1000
0010
0100
0001
0100
0010
1001
1000
1000
,
0101
0000
0000
0001
0010
0100
1000
0010
1000
0101
0100
0100
,
1010
0000
0000
1000
0100
0010
0001
0100
0010
1000
0100
0010
,
1001
0010
0100
1010
0001
0100
0010
1000
0001
1010
0100
1000
,
0001
0100
0010
1100
0001
0100
0010
1000
0001
1100
0010
1000
,
0001
0100
0010
1100
0001
0100
0010
1000
0100
1010
0001
1000
,
0010
0100
0001
1100
0010
0100
0001
1000
0010
1100
0001
0010
,
0100
1000
0010
1100
0001
1000
0010
0100
0001
1100
0010
0100
,
0001
0010
0100
1001
0100
0010
0001
0010
0100
1001
0100
0010
,
1001
0000
0001
0001
0001
0001
1001
0000
0001
0001
0001
0001
,
1001
0000
0101
1010
0100
0010
1001
0000
1010
0101
0010
0100
,
1001
0100
0010
1001
0010
0100
1000
0001
0010
0101
1000
0001
,
1000
0010
0100
0011
1000
0010
0100
0001
1000
0011
0100
0001
,
1000
0010
1000
0011
0100
0001
1000
0010
1000
0011
0100
0001
,
1000
0100
1000
0101
0010
0001
0100
0010
0100
1001
0010
0001
,
1000
0100
1000
0101
0010
0001
0100
0010
0100
1001
0010
0001
,
1000
0010
1000
0011
0100
0010
1000
0010
1000
0011
0100
0001
,
0010
0010
0010
0010
0010
0010
0010
0010
0010
0010
0010
0010
,
0010
0000
0000
0000
,
1010
0100
0010
0010
0010
0010
0010
0010
0010
0010
0010
0010
,
0110
0001
0100
0100
0100
0100
0100
0100
0100
1100
0011
1100
,
1001
0000
0001
0001
0001
0001
0001
0001
0001
0001
0001
0001
,
1100
0000
1000
1000
1000
1000
1001
0000
0001
0001
0001
0001
,
0011
0100
0010
0010
0010
0010
0010
0010
0010
0010
0010
0010
,
0110
0001
0100
0100
0100
0100
0100
0100
0100
1100
0011
1100
,
1001
0000
1001
0000
1000
0100
0010
0100
1000
0001
0010
0100
,
0010
0001
0010
0100
1000
0001
0010
0100
1000
0001
0010
0100
,
0020
0000
0000
0000
0000
0000
1030
0010
,
0100
0000
0001
0000
0100
0000
0010
0000
0000
0100
0000
0000
,
0000
0000
0000
0000
0000
0000
1000
0000
0000
0010
0100
0000
0001
0000
0000
1000
0010
0000
0100
0000
0000
0001
1000
0000
,
0001
0100
0010
1000
0001
0100
0010
1000
0020
0000
0000
0000
0000
0000
0000
0000
,
1030
0100
0010
0100
0010
0001
1000
0001
0100
0010
1000
0001
,
0100
0010
1000
0001
0100
0010
1000
0100
0010
0001
0010
0100
,
2000
0000
0000
0000
0000
0000
3200
0000
0000
0320
0000
0000
0230
0000
0000
0300
2000
0000
0000
0000
3020
0000
0000
0000
,
0230
0000
0000
0000
0300
0000
0000
0000
0000
0200
0000
0000
0000
0000
0000
0300
0020
0000
0000
0000
0030
0000
0000
0000
2000
0000
0000
0000
0000
0000
0000
0000
0000
0000
0000
0000
0000
0000
0000
0000
0000
0000
0000
0000
0000
0000
0000
0000
,
3011
0000
0000
1000
0010
1000
0001
1000
0010
0100
0001
1000
,
0010
0100
0010
1000
0010
0100
0001
1000
0001
1010
0010
0010
,
0110
0000
0000
1000
0010
0100
0001
0100
0010
1001
1000
1000
,
1010
0000
0000
0001
0100
0010
1000
0001
1000
0011
0010
0010
,
1010
0000
0000
0001
0100
0010
1000
0001
0010
0100
1000
0001
,
0100
0010
1000
0001
0010
0100
1000
0010
0100
0011
0001
0001
,
1001
0000
0000
1000
0100
0010
0001
0100
0010
0101
0001
0001
,
1001
0000
0000
1000
0010
0100
0001
0100
0010
0110
0100
0100
,
0101
0000
0000
1000
0100
0010
0001
0100
0010
1000
0100
0010
,
0001
0100
0010
1000
0100
0010
0001
0010
0100
1001
0001
0001
,
0101
0000
0000
1000
0100
0010
0001
1000
0100
0011
0010
0010
,
0110
0000
0000
1000
0100
0010
0001
1000
0010
0101
0100
0100
,
0110
0000
0000
1000
0100
0010
0001
1000
0010
0100
0001
1000
,
0100
0010
0001
1000
0010
0100
0001
1000
0010
1100
0100
0100
,
0110
0000
0000
1000
0100
0010
0001
1000
0100
0011
0010
0010
,
0011
0001
0001
0001
0001
0001
0001
0001
0001
0001
0010
0100
,
1001
0100
0010
0101
1000
0010
0100
0001
1000
0101
0010
0001
,
1000
0010
0100
0011
1000
0010
0100
0001
1000
0011
0100
0001
,
1000
0010
0100
0011
1000
0010
0100
0001
0010
0101
1000
0001
,
0100
0010
1000
0011
0100
0010
1000
0001
0100
0011
1000
0100
,
0010
0001
0100
0011
1000
0001
0100
0010
1000
0011
0100
0010
,
1000
0100
0010
1001
0010
0100
1000
0100
0010
1001
0010
0100
,
1001
0000
1000
1000
1000
1000
1001
0000
1000
1000
1000
1000
,
1001
0000
1010
0101
0010
0100
1001
0000
0101
1010
0100
0010
,
1001
0010
0100
1001
0100
0010
0001
1000
0100
1010
0001
1000
,
0001
0100
0010
1100
0001
0100
0010
1000
0001
1100
0010
1000
,
0001
0100
0001
1100
0010
1000
0001
0100
0001
1100
0010
1000
,
0001
0010
0001
1010
0100
1000
0010
0100
0010
1001
0100
1000
,
0001
0010
0001
1010
0100
1000
0010
0100
0010
1001
0100
1000
,
0001
0100
0001
1100
0010
0100
0001
0100
0001
1100
0010
1000
,
0010
0010
0010
0010
0010
0010
0010
0010
0010
0010
0010
0010
,
0010
0000
0000
0000
;
