#TITLE:Stay The Night;
#SUBTITLE:Sexuality Violation;
#ARTIST:Zedd feat. Hayley Williams;
#TITLETRANSLIT:;
#SUBTITLETRANSLIT:;
#ARTISTTRANSLIT:;
#CREDIT:B. Vergara;
#BANNER:night banner.png;
#BACKGROUND:night bg.png;
#LYRICSPATH:;
#CDTITLE:;
#MUSIC:Stay The Night.ogg;
#OFFSET:-0.138;
#SAMPLESTART:30.600;
#SAMPLELENGTH:29.900;
#SELECTABLE:YES;
#BPMS:0.000=128.000;
#STOPS:;
#BGCHANGES:;
// cache tags:
#FIRSTBEAT:1.000;
#LASTBEAT:452.500;
#SONGFILENAME:Songs/Sexuality Violation 2/Stay The Night - [NBCrescendo]/Stay The Night.sm;
#HASMUSIC:1;
#HASBANNER:1;
#MUSICLENGTH:213.876;
// end cache tags

//---------------dance-single - B. Vergara----------------
#NOTES:
     dance-single:
     B. Vergara:
     Challenge:
     14:
     1.000,1.000,0.098,0.818,1.000,1497.000,21.000,175.000,9.000,3.000:
0000
0000
2000
3020
0130
0002
2003
3010
,
0200
0302
0013
0200
2300
3100
0010
0001
,
1000
0010
0200
0302
1003
0200
0320
0031
,
0200
0302
1003
0020
0230
0301
1000
0010
,
1000
0001
0020
0230
1300
0020
0230
0301
,
2000
3002
0013
0200
2300
3010
0100
0001
,
2000
3001
0100
0001
1000
0020
0130
0001
,
0020
0130
1000
0002
1003
0010
0200
0301
,
0100
0001
1001
1000
0010
0100
0001
0010
,
0001
0000
0000
1000
0001
1000
0001
0000
0000
0100
0000
0000
0010
0000
0000
1000
0000
0000
0001
0000
0000
0010
0000
0000
,
0100
0000
0000
1000
0010
1000
0010
0000
0000
0100
0000
0000
0001
0000
0000
0010
0000
0000
0001
0000
0000
1000
0000
0000
,
0001
0000
0000
0100
0001
0100
0001
0000
0000
1000
0000
0000
0010
0000
0000
0100
0000
0000
0010
0000
0000
1000
0000
0000
,
0001
0000
0000
1000
0001
1000
0001
0000
0000
0100
0000
0000
0010
0000
0000
1000
0000
0000
0100
0000
0000
0010
0000
0000
,
0001
0000
0000
0100
0001
0100
0001
0000
0000
1000
0000
0000
0010
0000
0000
0100
0000
0000
0001
0000
0000
0010
0000
0000
,
0001
0000
0000
1000
0010
1000
0010
0000
0000
0100
0000
0000
0001
0000
0000
1000
0000
0000
0100
0000
0000
1000
0000
0000
,
0001
0000
0000
0100
0010
0100
0010
0000
0000
1000
0000
0000
0100
0000
0000
1000
0000
0000
0001
0000
0000
0010
0000
0000
,
0001
0000
2001
0000
3020
0230
0000
0302
,
0000
2003
0000
0000
3002
0023
0000
0000
,
0000
0030
1002
0000
0023
0230
0000
2300
,
0000
3002
0000
0000
0023
0230
0000
0000
,
0000
0300
2001
0010
3000
0012
1000
0003
,
2100
0010
3000
0102
1000
0003
2020
3030
,
0202
0303
1000
0001
0010
0001
1000
0010
,
0200
0302
0000
0000
2003
0000
3020
0030
,
1111
0000
0000
0000
1000
0100
0010
0001
1000
0010
0100
0001
1000
0001
0100
0001
,
1000
0010
0100
0001
1000
0001
0010
0100
1000
0001
0100
0001
1000
0010
0100
0001
,
1000
0001
0100
0001
1000
0010
1000
0001
0100
0001
1000
0100
0010
0001
0010
0100
,
1000
0001
0100
0001
1000
0010
0100
0001
1000
0001
0100
0001
1000
0010
1000
0010
,
0100
0001
0100
0001
1000
0100
1000
0001
0010
0001
1000
0010
0100
0001
1000
0001
,
0010
0100
1000
0001
0100
0001
1000
0010
0100
0001
0100
0001
1000
0010
1000
0001
,
0010
0001
1000
0100
0010
0001
0010
0100
1000
0001
0100
0010
1000
0001
0100
0010
,
0100
0000
0000
0001
0000
0000
1000
0000
0000
0001
0000
0000
0100
0000
0001
0000
1000
0000
0010
0000
1000
0000
0010
0000
0100
0000
0001
0000
1000
0000
0001
0000
0100
0000
0001
0000
1000
0000
0001
0000
0010
0000
0100
0000
1000
0000
0001
0000
,
1000
0000
0000
0000
0000
0000
0001
1000
0010
0100
0001
1000
0001
0100
0010
1000
0010
0100
0001
1000
0010
1000
0001
0100
,
0001
1000
0001
1000
0001
0100
0001
1000
0100
1000
0001
0100
0001
1000
0010
1000
0001
0010
0001
1000
0010
1000
0001
0100
,
0001
1000
0010
1000
0001
1000
0001
1000
0001
0100
0001
1000
0010
0100
0001
1000
0001
1000
0001
1000
0001
0010
0100
1000
,
0001
0010
0100
1000
0100
0010
0001
1000
0001
0100
0001
1000
0010
0100
0010
1000
0001
0100
0001
1000
0100
0010
0001
1000
,
0100
0010
0001
0010
0100
1000
0001
0100
0001
1000
0010
1000
0001
0010
0001
1000
0100
1000
0001
0100
0001
1000
0010
0100
,
0001
1000
0001
0010
0100
1000
0001
0010
0100
1000
0001
0100
0010
0100
0010
1000
0001
0100
0001
1000
0100
0010
0001
1000
,
0001
0100
0001
1000
0010
0100
0001
1000
0001
1000
0001
0010
0100
1000
0100
1000
0001
0100
0001
1000
0010
0100
0001
1000
,
0001
0010
0001
1000
0010
1000
0001
0100
0001
1000
0010
0100
0001
1000
0010
0100
0001
1000
0001
0010
0100
1000
0100
0010
,
0001
0000
0000
1001
0000
0000
1000
0010
1000
0001
0100
0001
1000
0010
0100
0001
1000
0001
0010
0100
1000
0100
0010
0001
,
1000
0001
0100
0001
1000
0010
1000
0010
0100
0001
1000
0001
1000
0001
0010
0100
1000
0001
0010
0100
1000
0001
0100
0001
,
1000
0001
1000
0010
0100
0001
1000
0001
1000
0001
0010
0100
1000
0001
0010
0001
1000
0010
1000
0001
0100
0001
0100
0001
,
1000
0010
1000
0001
0010
0100
1000
0100
0010
0001
1000
0001
1000
0001
0100
0001
1000
0010
1000
0001
0010
0001
1000
0001
,
0100
0001
1000
0010
0100
0001
1000
0010
0100
0001
1000
0001
1000
0100
1000
0001
0100
0001
1000
0010
1000
0001
0010
0001
,
1000
0001
0100
0010
1000
0001
1000
0100
0010
0001
1000
0100
0010
0001
1000
0001
0100
0010
1000
0001
0010
0001
1000
0010
,
1000
0001
0100
0001
1000
0100
1000
0001
0100
0001
1000
0001
0010
0100
1000
0100
0010
0001
1000
0010
0100
0001
1000
0001
,
0100
0010
1000
0001
0010
0100
1000
0001
1000
0001
0100
0010
1000
0001
0100
0001
1000
0100
0010
0001
1000
0010
0100
0001
,
1000
0001
0010
0100
1000
0001
0200
0000
0000
M0MM
0000
0000
0000
0000
0000
M0MM
0000
0000
0000
0000
0000
M0MM
0000
0000
,
0000
0000
0320
2030
3100
0020
0032
1003
,
0020
2030
3001
0020
0032
1003
0010
0100
,
0001
1000
0200
0320
0031
0200
0320
1030
,
0002
2003
3010
0200
0302
1003
0010
1000
,
0001
0010
0200
2300
3001
0200
0302
1003
,
0200
2300
3010
0200
0302
1003
0010
1000
,
0002
0013
0200
1300
0010
0200
0310
1000
,
0200
0310
0001
2000
3010
0100
0002
1003
,
0010
1000
0200
2300
3010
0200
0302
0103
,
0020
2030
3001
0020
0032
1003
0001
0100
,
0001
0010
0200
0320
0031
2000
3020
0130
,
0002
2003
0000
0000
3020
0230
0000
0301
,
0010
0001
2000
3002
0103
0002
2003
3010
,
0200
0320
1030
0002
0023
0130
1000
0010
,
0200
0301
2000
3001
0100
0002
0013
0100
,
2000
0000
3010
0000
0100
0000
0001
0000
1000
0010
0000
0100
0001
1000
0001
0010
,
0100
0000
0100
1000
0002
0000
0000
0000
2003
0000
3020
0000
0000
0000
2030
0000
,
0000
3002
0000
0000
0023
0230
0000
0000
,
0000
0300
2010
0000
3020
0230
0000
0302
,
0000
2003
0000
0000
3200
0320
0000
0000
,
0000
0030
0102
0010
0003
2010
0100
3000
,
2100
0001
3000
0012
0100
0003
2020
3030
,
0202
0303
1000
0001
0010
0001
1000
0010
,
0200
0302
0000
0000
0023
0000
0230
0300
,
1111
0000
0000
0000
0001
1000
0001
0100
0001
1000
0010
1000
0001
0100
0001
1000
,
0001
0010
0100
1000
0001
0100
0001
1000
0001
1000
0010
1000
0001
0010
0001
1000
,
0010
0100
0001
1000
0001
0010
0100
1000
0001
0100
0001
1000
0010
0100
0001
1000
,
0001
0010
0100
1000
0100
0010
0001
1000
0001
0100
0001
1000
0010
0100
0001
1000
,
0001
0010
0100
1000
0100
0010
0001
1000
0010
0100
0001
1000
0001
0100
0001
1000
,
0010
0100
0001
1000
0001
0010
0100
1000
0100
0010
0001
1000
0001
0100
0001
1000
,
0010
1000
0001
0010
0100
1000
0100
0010
0001
1000
0001
0100
0001
1000
0010
0100
,
0001
1000
0001
0010
0100
1000
0100
0010
0001
0010
0001
1000
0010
1000
0001
0100
,
0001
1000
0100
1000
0001
0100
0001
1000
0010
0100
0001
1000
0001
0010
0001
1000
,
0010
1000
0001
0100
0001
1000
0010
0100
0010
1000
0001
1000
0100
0010
0001
1000
,
0100
0010
0001
0010
0001
1000
0001
0100
0001
1000
0010
0100
0001
1000
0001
0010
,
0100
1000
0100
0010
0001
1000
0010
0100
0001
1000
0001
0100
0001
1000
0010
1000
,
0001
0100
0001
1000
0100
0010
0001
1000
0010
0100
0001
1000
0001
0010
0100
1000
,
0001
0000
0000
0100
0000
0000
0001
0000
0000
1000
0000
0000
0010
0000
0000
1000
0000
0000
0001
0000
0000
0100
0000
0000
0001
0000
0000
1000
0000
0000
0010
0000
0000
0100
0000
0000
0001
0000
1000
0000
0010
0000
0100
0000
0001
0000
1000
0000
,
0100
0010
0001
1000
0001
0100
0002
0000
0000
0000
0000
0000
0000
0000
0000
2003
0000
0000
0000
0000
0000
0000
0000
0000
,
3020
0230
0000
0000
0302
0000
0023
0030
,
1111
0000
0000
0000
0000
0000
0001
0100
0001
1000
0010
0100
0001
1000
0010
0100
0001
1000
0001
1000
0100
0010
0001
1000
,
0100
0010
0001
1000
0010
1000
0001
0100
0001
1000
0001
0010
0100
1000
0100
0010
0001
1000
0010
1000
0001
0100
0001
1000
,
0010
0100
0001
1000
0001
0010
0100
1000
0100
0010
0001
1000
0010
0100
0001
1000
0001
0100
0001
1000
0010
1000
0100
0010
,
0001
0010
0100
1000
0001
0100
0001
1000
0010
1000
0001
0100
0001
1000
0001
0010
0100
1000
0001
0100
0001
1000
0100
0010
,
0001
1000
0010
1000
0010
0100
0001
0100
0001
1000
0100
1000
0001
0100
0001
1000
0010
1000
0001
0010
0001
1000
0010
0100
,
0001
1000
0001
0010
0100
1000
0001
0010
0001
1000
0010
1000
0001
0100
0001
1000
0010
1000
0001
0010
0100
0010
0001
1000
,
0010
0100
0001
1000
0010
0100
0010
1000
0001
1000
0001
0010
0001
1000
0100
0010
0001
1000
0010
0100
0001
1000
0010
0100
,
0001
1000
0001
0010
0100
1000
0001
0100
0001
1000
0010
1000
0001
0010
0001
1000
0100
1000
0001
0100
0010
1000
0001
0010
,
0001
0000
0000
1001
0000
0000
1000
0010
0100
0001
1000
0001
0100
0001
1000
0010
1000
0010
0100
0001
1000
0001
0010
0100
,
1000
0100
1000
0001
0100
0001
1000
0010
0100
0001
1000
0001
0010
0001
1000
0010
1000
0001
0100
0001
1000
0010
0100
0001
,
1000
0001
0100
0001
1000
0010
1000
0001
0010
0100
1000
0100
0010
0001
1000
0010
0100
0001
1000
0001
0010
0100
1000
0001
,
0100
0001
1000
0010
0100
0001
1000
0001
0010
0100
1000
0001
0010
0001
1000
0100
0010
0001
1000
0010
1000
0001
1000
0001
,
0100
0001
1000
0010
0100
0001
0010
0100
1000
0001
0010
0001
1000
0010
0100
0001
1000
0001
0100
0001
1000
0010
1000
0001
,
0010
0001
1000
0010
0100
0001
1000
0001
0010
0001
1000
0010
0100
0001
1000
0010
1000
0001
0010
0001
1000
0001
0100
0001
,
1000
0010
0100
0001
1000
0100
0010
0001
1000
0001
0100
0001
1000
0001
0010
0100
1000
0001
0100
0001
1000
0010
0100
0001
,
1000
0001
0100
0001
1000
0010
1000
0010
1000
0001
0010
0001
1000
0001
0100
0001
1000
0010
0100
0001
1000
0001
0010
0100
,
1000
0001
0100
0010
1000
0001
0200
0000
0000
0000
0000
0000
0301
0000
0000
2000
0000
0000
0000
0000
0000
3200
0000
0000
,
0000
0320
0000
0000
0032
0203
0000
0000
,
0000
0000
0302
0000
0023
0230
0000
2300
,
0000
3020
0000
0000
0230
0302
0000
0000
,
0000
0000
0023
0230
0000
2300
3002
0000
,
0203
0320
0000
2030
3002
0000
0023
0000
,
0230
0000
2300
0000
0000
3002
0000
0000
,
0023
0230
0000
0000
2300
0000
3002
0000
,
0000
0003
0000
0000
0000
0000
0000
0000
;

//---------------dance-single - B. Vergara----------------
#NOTES:
     dance-single:
     B. Vergara:
     Hard:
     13:
     1.000,1.000,0.098,0.818,1.000,1385.000,21.000,175.000,9.000,3.000:
0000
0000
2000
3020
0130
0002
2003
3010
,
0200
0302
0013
0200
2300
3100
0010
0001
,
1000
0010
0200
0302
1003
0200
0320
0031
,
0200
0302
1003
0020
0230
0301
1000
0010
,
1000
0001
0020
0230
1300
0020
0230
0301
,
2000
3002
0013
0200
2300
3010
0100
0001
,
2000
3001
0100
0001
1000
0020
0130
0001
,
0020
0130
1000
0002
1003
0010
0200
0301
,
0100
0001
1001
1000
0010
0100
0001
0010
,
0001
0000
0000
1000
0001
1000
0001
0000
0000
0100
0000
0000
0010
0000
0000
1000
0000
0000
0001
0000
0000
0010
0000
0000
,
0100
0000
0000
1000
0010
1000
0010
0000
0000
0100
0000
0000
0001
0000
0000
0010
0000
0000
0001
0000
0000
1000
0000
0000
,
0001
0000
0000
0100
0001
0100
0001
0000
0000
1000
0000
0000
0010
0000
0000
0100
0000
0000
0010
0000
0000
1000
0000
0000
,
0001
0000
0000
1000
0001
1000
0001
0000
0000
0100
0000
0000
0010
0000
0000
1000
0000
0000
0100
0000
0000
0010
0000
0000
,
0001
0000
0000
0100
0001
0100
0001
0000
0000
1000
0000
0000
0010
0000
0000
0100
0000
0000
0001
0000
0000
0010
0000
0000
,
0001
0000
0000
1000
0010
1000
0010
0000
0000
0100
0000
0000
0001
0000
0000
1000
0000
0000
0100
0000
0000
1000
0000
0000
,
0001
0000
0000
0100
0010
0100
0010
0000
0000
1000
0000
0000
0100
0000
0000
1000
0000
0000
0001
0000
0000
0010
0000
0000
,
0001
0000
2001
0000
3020
0230
0000
0302
,
0000
2003
0000
0000
3002
0023
0000
0000
,
0000
0030
1002
0000
0023
0230
0000
2300
,
0000
3002
0000
0000
0023
0230
0000
0000
,
0000
0300
2001
0010
3000
0012
1000
0003
,
2100
0010
3000
0102
1000
0003
2020
3030
,
0202
0303
1000
0001
0010
0001
1000
0010
,
0200
0302
0000
0000
2003
0000
3020
0030
,
1111
0000
0000
0000
1000
0100
0010
0001
1000
0010
0100
0001
1000
0001
0100
0001
,
1000
0010
0100
0001
1000
0001
0010
0100
1000
0001
0100
0001
1000
0010
0100
0001
,
1000
0001
0100
0001
1000
0010
1000
0001
0100
0001
1000
0100
0010
0001
0010
0100
,
1000
0001
0100
0001
1000
0010
0100
0001
1000
0001
0100
0001
1000
0010
1000
0010
,
0100
0001
0100
0001
1000
0100
1000
0001
0010
0001
1000
0010
0100
0001
1000
0001
,
0010
0100
1000
0001
0100
0001
1000
0010
0100
0001
0100
0001
1000
0010
1000
0001
,
0010
0001
1000
0100
0010
0001
0010
0100
1000
0001
0100
0010
1000
0001
0100
0010
,
0100
0000
0000
0001
0000
0000
1000
0000
0000
0001
0000
0000
0100
0000
0001
0000
1000
0000
0010
0000
1000
0000
0010
0000
0100
0000
0001
0000
1000
0000
0001
0000
0100
0000
0001
0000
1000
0000
0001
0000
0010
0000
0100
0000
1000
0000
0001
0000
,
1000
0000
0000
0000
0000
0000
0001
1000
0010
0100
0001
1000
0001
0100
0010
1000
0010
0100
0001
1000
0010
1000
0001
0100
,
0001
1000
0001
1000
0001
0100
0001
1000
0100
1000
0001
0100
0001
1000
0010
1000
0001
0010
0001
1000
0010
1000
0001
0100
,
0001
1000
0010
1000
0001
1000
0001
1000
0001
0100
0001
1000
0010
0100
0001
1000
0001
1000
0001
1000
0001
0010
0100
1000
,
0001
0010
0100
1000
0100
0010
0001
1000
0001
0100
0001
1000
0010
0100
0010
1000
0001
0100
0001
1000
0100
0010
0001
1000
,
0100
0010
0001
0010
0100
1000
0001
0100
0001
1000
0010
1000
0001
0010
0001
1000
0100
1000
0001
0100
0001
1000
0010
0100
,
0001
1000
0001
0010
0100
1000
0001
0010
0100
1000
0001
0100
0010
0100
0010
1000
0001
0100
0001
1000
0100
0010
0001
1000
,
0001
0100
0001
1000
0010
0100
0001
1000
0001
1000
0001
0010
0100
1000
0100
1000
0001
0100
0001
1000
0010
0100
0001
1000
,
0001
0010
0001
1000
0010
1000
0001
0100
0001
1000
0010
0100
0001
1000
0010
0100
0001
1000
0001
0010
0100
1000
0100
0010
,
0001
0000
1001
0000
1000
0010
1000
0001
0100
0001
1000
0010
1000
0001
0100
0001
,
1000
0100
0010
0001
1000
0001
0010
0001
1000
0010
1000
0001
0100
0001
1000
0100
,
1000
0010
0100
0001
1000
0001
0010
0100
1000
0100
0010
0001
1000
0010
0100
0001
,
1000
0001
0100
0001
1000
0010
1000
0001
0010
0100
1000
0100
0010
0001
1000
0001
,
0100
0001
1000
0010
0100
0001
1000
0001
0010
0100
1000
0100
0010
0001
1000
0001
,
0100
0001
1000
0010
0100
0001
1000
0001
0010
0100
1000
0001
0100
0001
1000
0100
,
0010
0001
1000
0001
0100
0010
0100
0001
1000
0100
0010
0100
1000
0001
0100
0001
,
1000
0000
0000
0010
0000
0000
0100
0000
0000
0001
0000
0000
1000
0000
0100
0000
0010
0000
0001
0000
1000
0000
0001
0000
1000
0000
0100
0000
1000
0000
0001
0000
0100
0000
0001
0000
1000
0000
0001
0000
0100
0000
0001
0000
1000
0000
0010
0000
,
0100
0001
1000
0001
1000
0010
0200
0000
0000
M0MM
0000
0000
0000
0000
0000
M0MM
0000
0000
0000
0000
0000
M0MM
0000
0000
,
0000
0000
0320
2030
3100
0020
0032
1003
,
0020
2030
3001
0020
0032
1003
0010
0100
,
0001
1000
0200
0320
0031
0200
0320
1030
,
0002
2003
3010
0200
0302
1003
0010
1000
,
0001
0010
0200
2300
3001
0200
0302
1003
,
0200
2300
3010
0200
0302
1003
0010
1000
,
0002
0013
0200
1300
0010
0200
0310
1000
,
0200
0310
0001
2000
3010
0100
0002
1003
,
0010
1000
0200
2300
3010
0200
0302
0103
,
0020
2030
3001
0020
0032
1003
0001
0100
,
0001
0010
0200
0320
0031
2000
3020
0130
,
0002
2003
0000
0000
3020
0230
0000
0301
,
0010
0001
2000
3002
0103
0002
2003
3010
,
0200
0320
1030
0002
0023
0130
1000
0010
,
0200
0301
2000
3001
0100
0002
0013
0100
,
2000
0000
3010
0000
0100
0000
0001
0000
1000
0010
0000
0100
0001
1000
0001
0010
,
0100
0000
0100
1000
0002
0000
0000
0000
2003
0000
3020
0000
0000
0000
2030
0000
,
0000
3002
0000
0000
0023
0230
0000
0000
,
0000
0300
2010
0000
3020
0230
0000
0302
,
0000
2003
0000
0000
3200
0320
0000
0000
,
0000
0030
0102
0010
0003
2010
0100
3000
,
2100
0001
3000
0012
0100
0003
2020
3030
,
0202
0303
1000
0001
0010
0001
1000
0010
,
0200
0302
0000
0000
0023
0000
0230
0300
,
1111
0000
0000
0000
0001
1000
0001
0100
0001
1000
0010
1000
0001
0100
0001
1000
,
0001
0010
0100
1000
0001
0100
0001
1000
0001
1000
0010
1000
0001
0010
0001
1000
,
0010
0100
0001
1000
0001
0010
0100
1000
0001
0100
0001
1000
0010
0100
0001
1000
,
0001
0010
0100
1000
0100
0010
0001
1000
0001
0100
0001
1000
0010
0100
0001
1000
,
0001
0010
0100
1000
0100
0010
0001
1000
0010
0100
0001
1000
0001
0100
0001
1000
,
0010
0100
0001
1000
0001
0010
0100
1000
0100
0010
0001
1000
0001
0100
0001
1000
,
0010
1000
0001
0010
0100
1000
0100
0010
0001
1000
0001
0100
0001
1000
0010
0100
,
0001
1000
0001
0010
0100
1000
0100
0010
0001
0010
0001
1000
0010
1000
0001
0100
,
0001
1000
0100
1000
0001
0100
0001
1000
0010
0100
0001
1000
0001
0010
0001
1000
,
0010
1000
0001
0100
0001
1000
0010
0100
0010
1000
0001
1000
0100
0010
0001
1000
,
0100
0010
0001
0010
0001
1000
0001
0100
0001
1000
0010
0100
0001
1000
0001
0010
,
0100
1000
0100
0010
0001
1000
0010
0100
0001
1000
0001
0100
0001
1000
0010
1000
,
0001
0100
0001
1000
0100
0010
0001
1000
0010
0100
0001
1000
0001
0010
0100
1000
,
0001
0000
0000
0100
0000
0000
0001
0000
0000
1000
0000
0000
0010
0000
0000
1000
0000
0000
0001
0000
0000
0100
0000
0000
0001
0000
0000
1000
0000
0000
0010
0000
0000
0100
0000
0000
0001
0000
1000
0000
0010
0000
0100
0000
0001
0000
1000
0000
,
0100
0010
0001
1000
0001
0100
0002
0000
0000
0000
0000
0000
0000
0000
0000
2003
0000
0000
0000
0000
0000
0000
0000
0000
,
3020
0230
0000
0000
0302
0000
0023
0030
,
1111
0000
0000
0000
0000
0000
0001
0100
0001
1000
0010
0100
0001
1000
0010
0100
0001
1000
0001
1000
0100
0010
0001
1000
,
0100
0010
0001
1000
0010
1000
0001
0100
0001
1000
0001
0010
0100
1000
0100
0010
0001
1000
0010
1000
0001
0100
0001
1000
,
0010
0100
0001
1000
0001
0010
0100
1000
0100
0010
0001
1000
0010
0100
0001
1000
0001
0100
0001
1000
0010
1000
0100
0010
,
0001
0010
0100
1000
0001
0100
0001
1000
0010
1000
0001
0100
0001
1000
0001
0010
0100
1000
0001
0100
0001
1000
0100
0010
,
0001
1000
0010
1000
0010
0100
0001
0100
0001
1000
0100
1000
0001
0100
0001
1000
0010
1000
0001
0010
0001
1000
0010
0100
,
0001
1000
0001
0010
0100
1000
0001
0010
0001
1000
0010
1000
0001
0100
0001
1000
0010
1000
0001
0010
0100
0010
0001
1000
,
0010
0100
0001
1000
0010
0100
0010
1000
0001
1000
0001
0010
0001
1000
0100
0010
0001
1000
0010
0100
0001
1000
0010
0100
,
0001
1000
0001
0010
0100
1000
0001
0100
0001
1000
0010
1000
0001
0010
0001
1000
0100
1000
0001
0100
0010
1000
0001
0010
,
0001
0000
1001
0000
1000
0100
0010
0001
1000
0010
0100
0001
1000
0100
0010
0001
,
1000
0001
0100
0001
1000
0010
1000
0001
0100
0001
1000
0010
0100
0001
1000
0001
,
0010
0100
1000
0100
0010
0001
1000
0010
0100
0001
1000
0001
0100
0001
1000
0010
,
1000
0001
0010
0100
1000
0100
1000
0001
0100
0001
1000
0010
0100
0001
1000
0001
,
0010
0100
1000
0001
0010
0100
1000
0001
0100
0001
1000
0100
1000
0001
0100
0001
,
1000
0010
1000
0001
0010
0001
1000
0010
0100
0001
1000
0001
0100
0001
1000
0010
,
1000
0001
0100
0001
1000
0100
1000
0100
0010
0001
1000
0010
0100
0001
1000
0001
,
0010
0000
0000
0100
0000
0000
1000
0000
0000
0001
0000
0000
0100
0000
0010
0000
1000
0000
0001
0000
0010
0000
0001
0000
1000
0000
0001
0000
0100
0000
0001
0000
1000
0000
0010
0000
0100
0000
0001
0000
1000
0000
0001
0000
0010
0000
0100
0000
,
1000
0001
0100
0010
1000
0001
0200
0000
0000
0000
0000
0000
0301
0000
0000
2000
0000
0000
0000
0000
0000
3200
0000
0000
,
0000
0320
0000
0000
0032
0203
0000
0000
,
0000
0000
0302
0000
0023
0230
0000
2300
,
0000
3020
0000
0000
0230
0302
0000
0000
,
0000
0000
0023
0230
0000
2300
3002
0000
,
0203
0320
0000
2030
3002
0000
0023
0000
,
0230
0000
2300
0000
0000
3002
0000
0000
,
0023
0230
0000
0000
2300
0000
3002
0000
,
0000
0003
0000
0000
0000
0000
0000
0000
;

//---------------dance-single - B. Vergara----------------
#NOTES:
     dance-single:
     B. Vergara:
     Medium:
     11:
     0.930,1.000,0.098,0.818,0.975,1191.000,21.000,175.000,9.000,3.000:
0000
0000
2000
3020
0130
0002
2003
3010
,
0200
0302
0013
0200
2300
3100
0010
0001
,
1000
0010
0200
0302
1003
0200
0320
0031
,
0200
0302
1003
0020
0230
0301
1000
0010
,
1000
0001
0020
0230
1300
0020
0230
0301
,
2000
3002
0013
0200
2300
3010
0100
0001
,
2000
3001
0100
0001
1000
0020
0130
0001
,
0020
0130
1000
0002
1003
0010
0200
0301
,
0100
0001
1001
1000
0010
0100
0001
0010
,
0001
0000
0000
1000
0001
1000
0001
0000
0000
0100
0000
0000
0010
0000
0000
1000
0000
0000
0001
0000
0000
0010
0000
0000
,
0100
0000
0000
1000
0010
1000
0010
0000
0000
0100
0000
0000
0001
0000
0000
0010
0000
0000
0001
0000
0000
1000
0000
0000
,
0001
0000
0000
0100
0001
0100
0001
0000
0000
1000
0000
0000
0010
0000
0000
0100
0000
0000
0010
0000
0000
1000
0000
0000
,
0001
0000
0000
1000
0001
1000
0001
0000
0000
0100
0000
0000
0010
0000
0000
1000
0000
0000
0100
0000
0000
0010
0000
0000
,
0001
0000
0000
0100
0001
0100
0001
0000
0000
1000
0000
0000
0010
0000
0000
0100
0000
0000
0001
0000
0000
0010
0000
0000
,
0001
0000
0000
1000
0010
1000
0010
0000
0000
0100
0000
0000
0001
0000
0000
1000
0000
0000
0100
0000
0000
1000
0000
0000
,
0001
0000
0000
0100
0010
0100
0010
0000
0000
1000
0000
0000
0100
0000
0000
1000
0000
0000
0001
0000
0000
0010
0000
0000
,
0001
0000
2001
0000
3020
0230
0000
0302
,
0000
2003
0000
0000
3002
0023
0000
0000
,
0000
0030
1002
0000
0023
0230
0000
2300
,
0000
3002
0000
0000
0023
0230
0000
0000
,
0000
0300
2001
0010
3000
0012
1000
0003
,
2100
0010
3000
0102
1000
0003
2020
3030
,
0202
0303
1000
0001
0010
0001
1000
0010
,
0200
0302
0000
0000
2003
0000
3020
0030
,
1111
0000
0000
0000
1000
0100
0010
0001
1000
0010
0100
0001
1000
0001
0100
0001
,
1000
0010
0100
0001
1000
0001
0010
0100
1000
0001
0100
0001
1000
0010
0100
0001
,
1000
0001
0100
0001
1000
0010
1000
0001
0100
0001
1000
0100
0010
0001
0010
0100
,
1000
0001
0100
0001
1000
0010
0100
0001
1000
0001
0100
0001
1000
0010
1000
0010
,
0100
0001
0100
0001
1000
0100
1000
0001
0010
0001
1000
0010
0100
0001
1000
0001
,
0010
0100
1000
0001
0100
0001
1000
0010
0100
0001
0100
0001
1000
0010
1000
0001
,
0010
0001
1000
0100
0010
0001
0010
0100
1000
0001
0100
0010
1000
0001
0100
0010
,
0100
0000
0000
0001
0000
0000
1000
0000
0000
0001
0000
0000
0100
0000
0001
0000
1000
0000
0010
0000
1000
0000
0010
0000
0100
0000
0001
0000
1000
0000
0001
0000
0100
0000
0001
0000
1000
0000
0001
0000
0010
0000
0100
0000
1000
0000
0001
0000
,
1000
0000
0000
0000
0001
0100
0001
1000
0001
0100
0001
1000
0010
1000
0001
0010
,
0001
1000
0010
0100
0001
1000
0001
0010
0100
1000
0001
0100
0001
1000
0100
1000
,
0001
0100
0001
1000
0001
0010
0001
1000
0010
0100
0001
1000
0010
0100
0001
1000
,
0001
0010
0100
1000
0001
0100
0001
1000
0010
1000
0001
0100
0001
1000
0001
1000
,
0010
0100
0001
1000
0001
0010
0001
1000
0010
1000
0010
0100
0001
1000
0001
0100
,
0001
1000
0100
0010
0001
1000
0001
0100
0001
1000
0010
0100
0001
1000
0001
0010
,
0100
1000
0001
0010
0001
1000
0010
0100
0001
1000
0001
0100
0001
1000
0010
0100
,
0010
1000
0001
1000
0100
0010
0001
1000
0010
0100
0001
1000
0001
0010
0100
1000
,
0001
0000
1001
0000
1000
0010
1000
0001
0100
0001
1000
0010
1000
0001
0100
0001
,
1000
0100
0010
0001
1000
0001
0010
0001
1000
0010
1000
0001
0100
0001
1000
0100
,
1000
0010
0100
0001
1000
0001
0010
0100
1000
0100
0010
0001
1000
0010
0100
0001
,
1000
0001
0100
0001
1000
0010
1000
0001
0010
0100
1000
0100
0010
0001
1000
0001
,
0100
0001
1000
0010
0100
0001
1000
0001
0010
0100
1000
0100
0010
0001
1000
0001
,
0100
0001
1000
0010
0100
0001
1000
0001
0010
0100
1000
0001
0100
0001
1000
0100
,
0010
0001
1000
0001
0100
0010
0100
0001
1000
0100
0010
0100
1000
0001
0100
0001
,
1000
0000
0000
0010
0000
0000
0100
0000
0000
0001
0000
0000
1000
0000
0100
0000
0010
0000
0001
0000
1000
0000
0001
0000
1000
0000
0100
0000
1000
0000
0001
0000
0100
0000
0001
0000
1000
0000
0001
0000
0100
0000
0001
0000
1000
0000
0010
0000
,
0100
0001
1000
0001
1000
0010
0200
0000
0000
M0MM
0000
0000
0000
0000
0000
M0MM
0000
0000
0000
0000
0000
M0MM
0000
0000
,
0000
0000
0320
2030
3100
0020
0032
1003
,
0020
2030
3001
0020
0032
1003
0010
0100
,
0001
1000
0200
0320
0031
0200
0320
1030
,
0002
2003
3010
0200
0302
1003
0010
1000
,
0001
0010
0200
2300
3001
0200
0302
1003
,
0200
2300
3010
0200
0302
1003
0010
1000
,
0002
0013
0200
1300
0010
0200
0310
1000
,
0200
0310
0001
2000
3010
0100
0002
1003
,
0010
1000
0200
2300
3010
0200
0302
0103
,
0020
2030
3001
0020
0032
1003
0001
0100
,
0001
0010
0200
0320
0031
2000
3020
0130
,
0002
2003
0000
0000
3020
0230
0000
0301
,
0010
0001
2000
3002
0103
0002
2003
3010
,
0200
0320
1030
0002
0023
0130
1000
0010
,
0200
0301
2000
3001
0100
0002
0013
0100
,
2000
0000
3010
0000
0100
0000
0001
0000
1000
0010
0000
0100
0001
1000
0001
0010
,
0100
0000
0100
1000
0002
0000
0000
0000
2003
0000
3020
0000
0000
0000
2030
0000
,
0000
3002
0000
0000
0023
0230
0000
0000
,
0000
0300
2010
0000
3020
0230
0000
0302
,
0000
2003
0000
0000
3200
0320
0000
0000
,
0000
0030
0102
0010
0003
2010
0100
3000
,
2100
0001
3000
0012
0100
0003
2020
3030
,
0202
0303
1000
0001
0010
0001
1000
0010
,
0200
0302
0000
0000
0023
0000
0230
0300
,
1111
0000
1000
0010
0100
0001
1000
0001
,
0010
0001
1000
0010
0100
0001
1000
0001
,
0010
0100
1000
0010
0100
0001
0010
0100
,
1000
0001
0100
0001
0100
0010
1000
0001
,
0010
0000
0100
0000
1000
0000
0010
1000
0000
1000
0001
0000
0010
0000
0001
0010
,
0000
0010
0100
0000
1000
0000
0010
0100
0000
0100
0001
0000
1000
0000
0010
1000
,
0000
1000
0100
0010
0001
0000
1000
0010
0000
0010
0100
0000
0001
0000
0010
0100
,
0000
0100
0010
0000
0001
0000
1000
0100
0000
0100
0010
0000
0001
0000
0100
0010
,
0000
0010
1000
0001
0100
0000
0010
1000
0000
1000
0001
0010
0100
0000
0100
0010
,
0000
0010
0001
1000
0010
0000
0010
1000
0000
1000
0010
0100
0010
0000
0100
0001
,
0000
0001
0010
0100
1000
0000
0100
0010
0000
0010
0001
1000
0010
0000
1000
0001
,
0000
0001
0010
0100
1000
0000
1000
0010
0000
0010
0100
0001
1000
0000
0010
0100
,
0000
0100
0001
0010
0100
0010
0001
1000
0010
0100
0001
1000
0001
0010
0100
1000
,
0001
0000
0000
0100
0000
0000
0001
0000
0000
1000
0000
0000
0010
0000
0000
1000
0000
0000
0001
0000
0000
0100
0000
0000
0001
0000
0000
1000
0000
0000
0010
0000
0000
0100
0000
0000
0001
0000
1000
0000
0010
0000
0100
0000
0001
0000
1000
0000
,
0100
0010
0001
1000
0001
0100
0002
0000
0000
0000
0000
0000
0000
0000
0000
2003
0000
0000
0000
0000
0000
0000
0000
0000
,
3020
0230
0000
0000
0302
0000
0023
0030
,
1111
0000
0000
0000
0001
1000
0010
1000
0010
0100
0001
1000
0001
1000
0100
0010
,
0001
1000
0010
0100
0001
1000
0001
0010
0100
1000
0001
0010
0001
1000
0010
1000
,
0001
0100
0001
1000
0010
0100
0001
1000
0001
0010
0100
1000
0001
0100
0001
1000
,
0010
0100
0001
1000
0001
0100
0001
1000
0010
1000
0001
1000
0100
0010
0001
0010
,
0100
1000
0001
0100
0001
1000
0010
0100
0010
1000
0001
0010
0100
0010
0001
1000
,
0100
0010
0001
1000
0010
0100
0001
1000
0001
0100
0001
1000
0010
1000
0001
0010
,
0100
1000
0001
0010
0001
1000
0010
0100
0001
1000
0001
0100
0001
1000
0100
0010
,
0001
1000
0010
0100
0001
1000
0001
0010
0100
1000
0001
0100
0001
1000
0010
0100
,
0001
0000
1001
0000
1000
0100
0010
0001
1000
0010
0100
0001
1000
0100
0010
0001
,
1000
0001
0100
0001
1000
0010
1000
0001
0100
0001
1000
0010
0100
0001
1000
0001
,
0010
0100
1000
0100
0010
0001
1000
0010
0100
0001
1000
0001
0100
0001
1000
0010
,
1000
0001
0010
0100
1000
0100
1000
0001
0100
0001
1000
0010
0100
0001
1000
0001
,
0010
0100
1000
0001
0010
0100
1000
0001
0100
0001
1000
0100
1000
0001
0100
0001
,
1000
0010
1000
0001
0010
0001
1000
0010
0100
0001
1000
0001
0100
0001
1000
0010
,
1000
0001
0100
0001
1000
0100
1000
0100
0010
0001
1000
0010
0100
0001
1000
0001
,
0010
0000
0000
0100
0000
0000
1000
0000
0000
0001
0000
0000
0100
0000
0010
0000
1000
0000
0001
0000
0010
0000
0001
0000
1000
0000
0001
0000
0100
0000
0001
0000
1000
0000
0010
0000
0100
0000
0001
0000
1000
0000
0001
0000
0010
0000
0100
0000
,
1000
0001
0100
0010
1000
0001
0200
0000
0000
0000
0000
0000
0301
0000
0000
2000
0000
0000
0000
0000
0000
3200
0000
0000
,
0000
0320
0000
0000
0032
0203
0000
0000
,
0000
0000
0302
0000
0023
0230
0000
2300
,
0000
3020
0000
0000
0230
0302
0000
0000
,
0000
0000
0023
0230
0000
2300
3002
0000
,
0203
0320
0000
2030
3002
0000
0023
0000
,
0230
0000
2300
0000
0000
3002
0000
0000
,
0023
0230
0000
0000
2300
0000
3002
0000
,
0000
0003
0000
0000
0000
0000
0000
0000
;

//---------------dance-single - B. Vergara----------------
#NOTES:
     dance-single:
     B. Vergara:
     Easy:
     11:
     0.839,0.873,0.117,0.823,0.722,1045.000,25.000,176.000,9.000,3.000:

0000
0000
2000
3020
0130
0002
2003
3010
,
0200
0302
0013
0200
2300
3100
0010
0001
,
1000
0010
0200
0302
1003
0200
0320
0031
,
0200
0302
1003
0020
0230
0301
1000
0010
,
1000
0001
0020
0230
1300
0020
0230
0301
,
2000
3002
0013
0200
2300
3010
0100
0001
,
2000
3001
0100
0001
1000
0020
0130
0001
,
0020
0130
1000
0002
1003
0010
0200
0301
,
0100
0001
1001
1000
0010
0100
0001
0010
,
0001
0000
0000
1000
0001
1000
0001
0000
0000
0100
0000
0000
0010
0000
0000
1000
0000
0000
0001
0000
0000
0010
0000
0000
,
0100
0000
0000
1000
0010
1000
0010
0000
0000
0100
0000
0000
0001
0000
0000
0010
0000
0000
0001
0000
0000
1000
0000
0000
,
0001
0000
0000
0100
0001
0100
0001
0000
0000
1000
0000
0000
0010
0000
0000
0100
0000
0000
0010
0000
0000
1000
0000
0000
,
0001
0000
0000
1000
0001
1000
0001
0000
0000
0100
0000
0000
0010
0000
0000
1000
0000
0000
0100
0000
0000
0010
0000
0000
,
0001
0000
0000
0100
0001
0100
0001
0000
0000
1000
0000
0000
0010
0000
0000
0100
0000
0000
0001
0000
0000
0010
0000
0000
,
0001
0000
0000
1000
0010
1000
0010
0000
0000
0100
0000
0000
0001
0000
0000
1000
0000
0000
0100
0000
0000
1000
0000
0000
,
0001
0000
0000
0100
0010
0100
0010
0000
0000
1000
0000
0000
0100
0000
0000
1000
0000
0000
0001
0000
0000
0010
0000
0000
,
0001
0000
2001
0000
3020
0230
0000
0302
,
0000
2003
0000
0000
3002
0023
0000
0000
,
0000
0030
1002
0000
0023
0230
0000
2300
,
0000
3002
0000
0000
0023
0230
0000
0000
,
0000
0300
2001
0010
3000
0012
1000
0003
,
2100
0010
3000
0102
1000
0003
2020
3030
,
0202
0303
1000
0001
0010
0001
1000
0010
,
0200
0302
0000
0000
2003
0000
3020
0030
,
1111
0000
1000
0010
0100
0001
1000
0001
,
0010
0100
1000
0100
0010
0001
1000
0010
,
0100
0001
0100
0001
1000
0100
1000
0001
,
0010
0001
1000
0010
1000
0001
0100
0001
,
1000
0000
0010
0000
1000
0000
0001
0100
0000
0010
1000
0000
0100
0000
0010
0001
,
0000
1000
0100
0000
1000
0000
0010
0100
0000
0010
1000
0000
0001
0000
0010
0001
,
0000
0100
0010
1000
0001
0100
0001
1000
0010
1000
0001
0010
0001
1000
0100
1000
,
0001
0000
0000
0100
0000
0000
0010
0000
0000
1000
0000
0000
0004
0000
4000
0000
0000
0000
0000
0000
0000
0000
0000
0000
0000
0000
0000
0000
0000
0000
0000
0000
0000
0000
0000
0000
0000
0000
0000
0000
0000
0000
0000
0000
0000
0000
0000
0000
,
3003
0000
0000
0000
0001
0100
0001
1000
0001
0100
0001
1000
0010
1000
0001
0010
,
0001
1000
0010
0100
0001
1000
0001
0010
0100
1000
0001
0100
0001
1000
0100
1000
,
0001
0100
0001
1000
0001
0010
0001
1000
0010
0100
0001
1000
0010
0100
0001
1000
,
0001
0010
0100
1000
0001
0100
0001
1000
0010
1000
0001
0100
0001
1000
0001
1000
,
0010
0100
0001
1000
0001
0010
0001
1000
0010
1000
0010
0100
0001
1000
0001
0100
,
0001
1000
0100
0010
0001
1000
0001
0100
0001
1000
0010
0100
0001
1000
0001
0010
,
0100
1000
0001
0010
0001
1000
0010
0100
0001
1000
0001
0100
0001
1000
0010
0100
,
0010
1000
0001
1000
0100
0010
0001
1000
0010
0100
0001
1000
0001
0010
0100
1000
,
0001
0000
1001
0000
1000
0010
1000
0001
0100
0001
1000
0010
1000
0001
0100
0001
,
1000
0100
0010
0001
1000
0001
0010
0001
1000
0010
1000
0001
0100
0001
1000
0100
,
1000
0010
0100
0001
1000
0001
0010
0100
1000
0100
0010
0001
1000
0010
0100
0001
,
1000
0001
0100
0001
1000
0010
1000
0001
0010
0100
1000
0100
0010
0001
1000
0001
,
0100
0001
1000
0010
0100
0000
0001
0010
0000
0100
1000
0000
0010
0000
0000
1000
,
0001
0010
0100
0000
0010
0000
0000
0001
0100
0010
1000
0000
0001
0000
0000
0010
,
0001
1000
0100
0000
0010
0001
1000
0001
0100
0001
1000
0100
1000
0001
0010
0001
,
1000
0000
0000
0010
0000
0000
1000
0000
0000
0001
0000
0000
4000
0000
0004
0000
0000
0000
0000
0000
0000
0000
0000
0000
0000
0000
0000
0000
0000
0000
0000
0000
0000
0000
0000
0000
0000
0000
0000
0000
0000
0000
0000
0000
0000
0000
0000
0000
,
0000
0000
0000
0000
0000
3003
0200
0000
0000
M0MM
0000
0000
0000
0000
0000
M0MM
0000
0000
0000
0000
0000
M0MM
0000
0000
,
0000
0300
0020
2030
3100
0020
0032
1003
,
0020
2030
3001
0020
0032
1003
0010
0100
,
0001
1000
0200
0320
0031
0200
0320
1030
,
0002
2003
3010
0200
0302
1003
0010
1000
,
0001
0010
0200
2300
3001
0200
0302
1003
,
0200
2300
3010
0200
0302
1003
0010
1000
,
0002
0013
0200
1300
0010
0200
0310
1000
,
0200
0310
0001
2000
3010
0100
0002
1003
,
0010
1000
0200
2300
3010
0200
0302
0103
,
0020
2030
3001
0020
0032
1003
0001
0100
,
0001
0010
0200
0320
0031
2000
3020
0130
,
0002
2003
0000
0000
3020
0230
0000
0301
,
0010
0001
2000
3002
0103
0002
2003
3010
,
0200
0320
1030
0002
0023
0130
1000
0010
,
0200
0301
2000
3001
0100
0002
0013
0100
,
2000
0000
3010
0000
0100
0000
0001
0000
1000
0010
0000
0100
0001
1000
0001
0010
,
0100
0000
0100
1000
0002
0000
0000
0000
2003
0000
3020
0000
0000
0000
2030
0000
,
0000
3002
0000
0000
0023
0230
0000
0000
,
0000
0300
2010
0000
3020
0230
0000
0302
,
0000
2003
0000
0000
3200
0320
0000
0000
,
0000
0030
0102
0010
0003
2010
0100
3000
,
2100
0001
3000
0012
0100
0003
2020
3030
,
0202
0303
1000
0001
0010
0001
1000
0010
,
0200
0302
0000
0000
0023
0000
0230
0300
,
1111
0000
1000
0010
0100
0001
1000
0001
,
0010
0001
1000
0010
0100
0001
1000
0001
,
0010
0100
1000
0010
0100
0001
0010
0100
,
1000
0001
0100
0001
0100
0010
1000
0001
,
0010
0000
0100
0000
1000
0000
0010
1000
0000
1000
0001
0000
0010
0000
0001
0010
,
0000
0010
0100
0000
1000
0000
0010
0100
0000
0100
0001
0000
1000
0000
0010
1000
,
0000
1000
0100
0010
0001
0000
1000
0010
0000
0010
0100
0000
0001
0000
0010
0100
,
0000
0100
0010
0000
0001
0000
1000
0100
0000
0100
0010
0000
0001
0000
0100
0010
,
0000
0010
1000
0001
0100
0000
0010
1000
0000
1000
0001
0010
0100
0000
0100
0010
,
0000
0010
0001
1000
0010
0000
0010
1000
0000
1000
0010
0100
0010
0000
0100
0001
,
0000
0001
0010
0100
1000
0000
0100
0010
0000
0010
0001
1000
0010
0000
1000
0001
,
0000
0001
0010
0100
1000
0000
1000
0010
0000
0010
0100
0001
1000
0000
0010
0100
,
0000
0100
0001
0010
0100
0000
0100
0000
1000
0000
1000
0000
0010
0000
0010
0000
,
0100
0000
0000
0100
0000
0000
0001
0000
0000
0001
0000
0000
0010
0000
0000
0010
0000
0000
0400
4000
0000
0000
0000
0000
,
0000
0000
0000
0000
0000
3300
0002
0000
0000
0000
0000
0000
0000
0000
0000
2003
0000
0000
0000
0000
0000
0000
0000
0000
,
3020
0230
0000
0000
0302
0000
0023
0030
,
1111
0000
0000
0000
0001
1000
0010
1000
0010
0100
0001
1000
0001
1000
0100
0010
,
0001
1000
0010
0100
0001
1000
0001
0010
0100
1000
0001
0010
0001
1000
0010
1000
,
0001
0100
0001
1000
0010
0100
0001
1000
0001
0010
0100
1000
0001
0100
0001
1000
,
0010
0100
0001
1000
0001
0100
0001
1000
0010
1000
0001
1000
0100
0010
0001
0010
,
0100
1000
0001
0100
0001
1000
0010
0100
0010
1000
0001
0010
0100
0010
0001
1000
,
0100
0010
0001
1000
0010
0100
0001
1000
0001
0100
0001
1000
0010
1000
0001
0010
,
0100
1000
0001
0010
0001
1000
0010
0100
0001
1000
0001
0100
0001
1000
0100
0010
,
0001
1000
0010
0100
0001
1000
0001
0010
0100
1000
0001
0100
0001
1000
0010
0100
,
0001
0000
1001
0000
1000
0100
0010
0001
1000
0010
0100
0001
1000
0100
0010
0001
,
1000
0001
0100
0001
1000
0010
1000
0001
0100
0001
1000
0010
0100
0001
1000
0001
,
0010
0100
1000
0100
0010
0001
1000
0010
0100
0001
1000
0001
0100
0001
1000
0010
,
1000
0001
0010
0100
1000
0100
1000
0001
0100
0001
1000
0010
0100
0001
1000
0001
,
0010
0100
1000
0001
0010
0100
1000
0001
0100
0001
1000
0100
1000
0001
0100
0001
,
1000
0010
1000
0001
0010
0001
1000
0010
0100
0001
1000
0001
0100
0001
1000
0010
,
1000
0001
0100
0001
1000
0100
1000
0100
0010
0001
1000
0010
0100
0001
1000
0001
,
0010
0000
0000
0100
0000
0000
1000
0000
0000
0001
0000
0000
4000
0000
0040
0000
0000
0000
0000
0000
0000
0000
0000
0000
0000
0000
0000
0000
0000
0000
0000
0000
0000
0000
0000
0000
0000
0000
0000
0000
0000
0000
0000
0000
0000
0000
0000
0000
,
0000
0000
0000
0000
0000
3030
0200
0000
0000
0000
0000
0000
0302
0000
0000
2003
0000
0000
0000
0000
0000
3200
0000
0000
,
0000
0320
0000
0000
0032
0203
0000
0000
,
0000
0000
0302
0000
0023
0230
0000
2300
,
0000
3020
0000
0000
0230
0302
0000
0000
,
0000
0000
0023
0230
0000
2300
3002
0000
,
0203
0320
0000
2030
3002
0000
0023
0000
,
0230
0000
2300
0000
0000
3002
0000
0000
,
0023
0230
0000
0000
2300
0000
3002
0000
,
0000
0003
0000
0000
0000
0000
0000
0000
;
