#TITLE:Black Chocolates;
#SUBTITLE:;
#ARTIST:DJ Sharpnel;
#TITLETRANSLIT:;
#SUBTITLETRANSLIT:;
#ARTISTTRANSLIT:;
#CREDIT:;
#BANNER:../Jawn - ban.png;
#BACKGROUND:../Jawn - bg.png;
#LYRICSPATH:;
#CDTITLE:CDTitle.png;
#MUSIC:Black Chocolates.ogg;
#OFFSET:-1.153;
#SAMPLESTART:74.527;
#SAMPLELENGTH:18.112;
#SELECTABLE:YES;
#BPMS:0.000=212.000;
#STOPS:;
#BGCHANGES:;
// cache tags:
#FIRSTBEAT:14.000;
#LASTBEAT:861.000;
#SONGFILENAME:Songs/Jimmy Jawns/Black Chocolates - [Aoreo]/Black Chocolates.sm;
#HASMUSIC:1;
#HASBANNER:1;
#MUSICLENGTH:245.995;
// end cache tags

//---------------dance-single - J. Nero----------------
#NOTES:
     dance-single:
     J. Nero:
     Challenge:
     18:
     1.000,1.000,0.041,0.053,1.000,3017.000,10.000,13.000,1.000,0.000:
0000
0000
0000
0000
,
0000
0000
0000
0000
,
0000
0000
0000
0000
,
0000
0000
0000
0000
0000
0000
0000
0000
0001
0100
0001
0000
0010
0000
0100
1000
,
0010
0000
0100
0000
0001
0000
1000
0100
1000
0001
0100
0000
0001
0000
0010
0001
,
0010
0000
0100
0000
1000
0000
0010
0100
0010
1000
0001
0000
1000
0000
0100
0000
,
0110
0110
0000
1001
0000
1010
0000
0110
,
0101
0000
0000
0000
0001
0000
0000
0000
1000
0100
0010
0000
0001
0000
0010
0001
,
0100
0000
0010
0000
1000
0000
0100
1000
0001
1000
0001
0000
0010
0000
0100
1000
,
0001
0000
0100
0000
0001
0000
1000
0100
0010
0100
1000
0000
0001
0000
0100
0010
,
0100
0000
0001
0000
0010
0000
0100
1000
0001
1000
0010
0000
0100
0000
0001
1000
,
0001
0000
1000
0000
0010
0000
0100
0001
0010
0100
1000
0000
0010
0000
0100
0001
,
0010
0000
0100
0000
1000
0000
0001
0100
0001
1000
0010
0000
0100
0000
0001
1000
,
0001
0000
0010
0000
0100
0000
1000
0010
1000
0100
0010
0000
0001
0000
0100
0001
,
1000
0000
0010
0000
0100
0000
0010
1000
0001
1000
0100
0000
0010
0000
0001
0100
,
0001
0000
0000
0000
1001
0000
0000
0000
1010
0000
0010
0100
0004
0000
0003
0000
,
1000
0100
1000
0001
0010
0001
0010
0100
1000
0001
0100
0001
1000
0010
0100
0001
,
1000
0100
1000
0001
0010
0001
0010
0100
1000
0001
0100
0010
0100
0001
1000
0010
,
0100
0010
1000
0001
0010
0001
0010
0100
1000
0001
0100
0010
0100
0001
1000
0100
,
0010
0001
1000
0001
0010
0001
0010
0100
1000
0010
0100
0010
1000
0100
0010
0001
,
0100
0001
1000
0001
0010
0001
0010
0100
1000
0001
0100
0001
1000
0010
0100
0001
,
1000
0010
1000
0001
0010
0001
0010
0100
1000
0001
0100
0010
0100
0001
1000
0100
,
1000
0001
0100
0001
0010
0001
0010
0100
1000
0010
0100
0010
1000
0001
1000
0100
,
0010
0100
1000
0001
0010
0001
0010
0100
1000
0000
0001
0100
0004
0000
0003
0000
,
0100
0001
1000
0100
0010
0100
0010
0001
1000
0010
0100
0010
1000
0001
0100
0010
,
0100
0001
1000
0100
0010
0100
0010
0001
1000
0001
0100
0010
1000
0001
0010
0001
,
0100
0001
1000
0100
0010
0100
0010
0001
0100
0010
0100
0001
0010
0100
1000
0001
,
0100
0001
1000
0100
0010
0100
0010
0001
1000
0001
0100
0010
0100
0001
1000
0001
,
0100
0001
1000
0100
0010
0100
0010
0001
1000
0010
0100
0010
1000
0001
0100
0001
,
0010
0001
1000
0100
0010
0100
0010
0001
1000
0010
0100
0010
1000
0001
0010
0100
,
1000
0010
0100
0010
1000
0000
0000
0000
0001
0100
0001
0010
0001
0000
0000
0000
,
1000
0000
0001
0100
0004
0000
0000
0003
1000
0000
0000
0000
1001
0000
0000
0000
,
0001
0100
0001
0010
0001
1000
0100
0010
0001
1000
0010
0100
0010
1000
0001
0100
,
0001
1000
0100
0010
0100
1000
0010
0100
0010
1000
0001
0100
0001
0010
0100
1000
,
0001
0100
0001
0010
0001
0100
0010
1000
0100
1000
0010
1000
0001
0100
0001
1000
,
0100
0010
0001
1000
0001
0100
0010
0100
0001
1000
0001
0010
0100
1000
0001
0100
,
0001
1000
0100
1000
0010
1000
0001
0010
0100
1000
0001
1000
0010
0100
0010
1000
,
0001
1000
0100
0010
0100
0010
0001
1000
0010
0100
0010
1000
0001
0100
0010
0100
,
0001
1000
0001
0010
0001
0100
0010
1000
0100
1000
0010
1000
0001
0100
0001
1000
,
0100
0000
0000
0000
0010
0000
0000
0000
0100
0000
0000
0000
1000
0000
0000
0000
0040
0000
0030
0000
0400
0300
0004
0003
0040
0030
0000
0000
0000
0000
0000
0000
,
0001
0100
0001
0010
0001
1000
0100
0010
0100
1000
0001
0100
0010
0100
0001
1000
,
0010
1000
0001
0010
0100
0010
0100
1000
0001
0100
0010
1000
0001
0010
0100
0010
,
0001
1000
0010
1000
0100
1000
0010
0100
0001
0010
0001
1000
0001
0100
0010
0100
,
0001
1000
0001
0010
0100
0010
0100
1000
0001
0100
0010
0100
0001
1000
0100
1000
,
0001
0100
0001
0010
0001
1000
0010
0100
0010
1000
0001
1000
0100
0010
0001
1000
,
0010
0100
0001
0010
0100
0010
0100
1000
0001
0100
0010
1000
0001
0010
0100
0010
,
0001
1000
0100
1000
0010
1000
0100
0010
0001
0100
0001
0010
0001
1000
0010
0100
,
0010
1000
0001
0010
0100
1000
0001
0100
0001
0000
1000
0001
0100
0001
0010
0100
,
1000
0010
1000
0001
0100
0001
1000
0010
0100
0001
1000
0100
0010
0100
1000
0010
,
0100
0010
1000
0001
1000
0010
0100
0001
1000
0100
0010
0100
1000
0001
0010
0001
,
0100
0010
1000
0010
0100
0001
1000
0010
1000
0001
0010
0001
1000
0100
0010
0100
,
1000
0010
0100
0010
1000
0001
0100
0001
1000
0100
0010
0100
1000
0001
0100
0001
,
0010
0100
1000
0001
0100
0010
0100
0001
1000
0100
0010
0001
1000
0100
1000
0010
,
1000
0010
0100
0001
0100
0010
1000
0001
1000
0100
0010
0100
1000
0001
0010
0001
,
0100
0001
1000
0010
0100
0001
0100
0001
1000
0100
0010
0001
1000
0100
0010
0100
,
1000
0010
0100
0010
1000
0001
1000
0010
0100
0001
0010
0100
1000
0010
0100
0001
,
0010
0001
1000
0010
1000
0001
0100
0001
1000
0100
0010
0100
1000
0001
0010
0001
,
0100
0010
1000
0010
0100
0001
1000
0010
1000
0001
0010
0100
1000
0001
0100
0010
,
1000
0100
1000
0001
0100
0001
1000
0010
0100
0010
0100
0001
1000
0100
0010
0001
,
0100
0001
1000
0010
1000
0001
0100
0001
1000
0100
0010
0100
1000
0001
0010
0100
,
1000
0010
1000
0001
0100
0001
1000
0010
1000
0001
0010
0001
1000
0100
1000
0010
,
0100
0010
1000
0001
0100
0001
1000
0010
1000
0001
0010
0100
0010
0001
1000
0100
,
1000
0010
0100
0010
1000
0001
0100
0001
1000
0100
1000
0001
0010
0100
1000
0001
,
1000
0000
0000
0000
,
0000
0000
0000
0000
0000
0000
0000
0000
0001
1000
0100
0000
0010
0000
0100
1000
,
0010
0100
0001
1000
0100
0010
0100
1000
0001
0100
0001
0010
0001
1000
0010
0100
,
0001
0010
0100
0010
0001
1000
0010
0100
0001
1000
0100
1000
0010
1000
0001
0100
,
0001
0010
0100
0010
0001
1000
0010
0100
0010
1000
0001
0100
0001
0010
0001
1000
,
0100
0010
0100
1000
0010
0100
0010
1000
0001
0100
0001
0010
0001
1000
0010
0100
,
0001
0010
0100
0010
0001
1000
0010
0100
0001
1000
0100
1000
0010
1000
0001
0100
,
0001
0010
0100
0010
0001
1000
0010
0100
0010
1000
0001
0010
0001
0100
0001
1000
,
0100
0010
0100
1000
0001
0100
0010
0100
0001
1000
0100
1000
0010
1000
0001
0100
,
0001
0010
0100
0010
0001
1000
0010
0100
0010
1000
0001
0010
0001
0100
0001
1000
,
0010
1000
0100
0010
0100
1000
0001
0100
0001
1000
0100
1000
0010
1000
0001
0100
,
0001
0010
0100
0010
0001
1000
0001
0100
0010
1000
0001
0100
0001
0010
0001
1000
,
0010
1000
0100
0010
0100
1000
0001
0100
0001
1000
0100
1000
0010
1000
0001
0100
,
0001
0010
0100
0010
0001
1000
0010
0100
0010
1000
0001
0100
0001
0010
0001
1000
,
0010
1000
0100
0010
0001
1000
0010
0100
0001
1000
0100
1000
0010
1000
0001
0100
,
0001
0010
0100
1000
0001
0100
0010
1000
0001
0010
0001
0100
0001
1000
0010
0100
,
0001
0010
0100
0010
0001
1000
0010
0100
0001
1000
0100
1000
0010
1000
0001
0100
,
0001
0010
0100
1000
0010
0100
0001
1000
0100
0010
0001
0100
0001
0000
0000
0000
,
1000
0100
1000
0010
0100
0001
0010
0100
1000
0001
0100
0010
0100
0001
1000
0100
,
0010
0001
1000
0010
0100
0010
1000
0001
0010
0100
0010
0001
0100
0010
1000
0010
,
0100
0001
1000
0100
0010
0001
0100
0001
1000
0100
0010
0001
0100
0010
0100
0001
,
1000
0001
0010
0100
1000
0010
0100
0001
1000
0100
0010
0001
0100
0001
1000
0100
,
0010
0100
1000
0010
0100
0001
1000
0001
0010
0100
1000
0001
0100
0010
0100
0001
,
1000
0100
0010
0001
0100
0001
1000
0100
0010
0100
1000
0010
0100
0001
1000
0001
,
0010
0100
1000
0010
0100
0010
1000
0100
0010
0001
0100
0001
1000
0010
0100
0010
,
1000
0100
0010
0100
1000
0001
0100
0010
1000
0100
1000
0010
1000
0001
0100
0001
,
0100
0010
1000
0001
0010
0100
0010
0001
1000
0010
1000
0100
1000
0001
0100
0010
,
1000
0100
0010
0100
1000
0001
0100
0010
1000
0001
0010
0001
0100
0001
1000
0010
,
1000
0100
0010
0100
1000
0001
0100
0010
0100
0001
1000
0010
1000
0100
1000
0001
,
0010
0100
0010
0001
0100
0010
0100
0001
1000
0010
1000
0100
1000
0001
0100
0010
,
1000
0100
0010
0100
1000
0001
0100
0010
1000
0001
0010
0001
0100
0001
1000
0010
,
1000
0100
0010
0100
1000
0001
0100
0010
0100
0001
1000
0100
1000
0010
1000
0001
,
0010
0100
0010
0001
1000
0010
0100
0010
1000
0001
0010
0001
0100
0001
1000
0010
,
2000
3000
0000
0000
0000
0000
0000
0000
0200
0300
0000
0000
0000
0000
0000
0000
0020
0030
0000
0000
0000
0000
0000
0000
0002
0000
0000
0000
0103
0000
0010
0000
,
1000
0001
0100
0001
0010
0001
1000
0010
0100
0010
1000
0001
0010
0100
0010
0001
,
1000
0100
1000
0010
1000
0001
0100
0001
1000
0100
0010
0001
1000
0010
1000
0001
,
0100
0001
0010
0001
1000
0010
0100
0001
1000
0100
1000
0010
1000
0010
0100
0001
,
0010
0001
0100
0001
1000
0100
0010
0001
1000
0010
0100
0001
0010
0100
1000
0001
,
0100
0001
0010
0001
1000
0010
1000
0001
0010
0100
1000
0001
0100
0010
0100
0001
,
1000
0100
1000
0010
1000
0001
0100
0001
1000
0100
0010
0001
1000
0010
1000
0001
,
0100
0001
0010
0001
1000
0010
0100
0001
1000
0100
1000
0010
1000
0100
0010
0001
,
0100
0001
0010
0001
1000
0010
1000
0001
0100
0001
0100
0010
1000
0001
0010
0001
,
1000
0100
1000
0010
1000
0001
0100
0010
1000
0001
0100
0001
0100
0010
1000
0001
,
0100
0001
0010
0001
1000
0100
0010
0001
1000
0100
1000
0001
0100
0010
0100
0001
,
1000
0100
1000
0010
1000
0001
0100
0010
0100
0001
0010
0001
0100
0001
0010
0100
,
1000
0010
1000
0100
1000
0001
0100
0010
0100
0001
1000
0010
0100
0010
1000
0001
,
0100
0001
0010
0001
1000
0010
1000
0001
0100
0001
1000
0100
0010
0001
0100
0001
,
1000
0010
1000
0100
1000
0001
0100
0010
0100
0001
1000
0010
0100
0010
1000
0001
,
0100
0001
0010
0001
1000
0100
0010
0001
1000
0100
1000
0010
1000
0001
0100
0010
,
2000
3000
0000
0000
0010
0000
0100
0000
0001
0100
0010
1000
0100
0000
0000
0000
,
1000
0010
1000
0100
1000
0001
0100
0010
0100
0001
1000
0001
0100
0010
1000
0001
,
0100
0001
0010
0001
1000
0010
1000
0001
0010
0100
1000
0001
0100
0010
0100
0001
,
1000
0010
1000
0100
1000
0010
0100
0001
0010
0001
0100
0001
1000
0010
0100
0001
,
1000
0100
1000
0010
1000
0001
0010
0100
1000
0010
0100
0010
1000
0001
0100
0001
,
1000
0100
1000
0010
0100
0001
0010
0001
0100
0010
1000
0001
0010
0100
1000
0001
,
1000
0100
1000
0010
0100
0001
0010
0001
0100
0010
1000
0001
0010
0100
1000
0001
,
0100
0010
1000
0100
0010
0001
0100
0010
1000
0100
0010
0001
1000
0010
0100
0001
,
1000
0100
1000
0010
1000
0001
0100
0010
0100
0001
1000
0100
0010
0001
1000
0010
,
2000
3000
0001
0000
0000
0000
0001
0000
0000
0000
0001
0000
0000
0000
0001
0000
,
0100
0010
0000
0100
0010
1000
0100
0010
,
0100
1000
0000
1000
0000
1000
0000
1000
,
0010
0000
0100
0000
0000
0000
0010
0000
0100
0000
0001
0000
0010
0100
1000
0010
,
1000
0001
0000
0001
0000
0001
0000
0001
,
0100
0010
0000
0100
0010
1000
0100
0010
,
0100
1000
0000
1000
0000
1000
0000
1000
,
0010
0000
0100
0000
0000
0000
0010
0000
0200
0300
0000
0000
0101
0000
0000
0000
,
0001
0100
0001
0010
0001
1000
0100
0010
0001
1000
0010
0100
0010
1000
0001
0100
,
0001
1000
0100
0010
0100
1000
0010
0100
0010
1000
0001
0100
0001
0010
0100
1000
,
0001
0100
0001
0010
0001
0100
0010
1000
0100
1000
0010
1000
0001
0100
0001
1000
,
0100
0010
0001
1000
0001
0100
0010
0100
0001
1000
0001
0010
0100
1000
0001
0100
,
0001
1000
0100
1000
0010
1000
0001
0010
0100
1000
0001
1000
0010
0100
0010
1000
,
0001
1000
0100
0010
0100
0010
0001
1000
0010
0100
0010
1000
0001
0100
0010
0100
,
0001
1000
0001
0010
0001
0100
0010
1000
0100
1000
0010
1000
0001
0100
0001
1000
,
0010
0100
0010
1000
0001
0100
0001
1000
0100
0010
0001
1000
0010
0100
0010
1000
,
0001
0100
0001
0010
0001
1000
0100
0010
0100
1000
0001
0100
0010
0100
0001
1000
,
0010
1000
0001
0010
0100
0010
0100
1000
0001
0100
0010
1000
0001
0010
0100
0010
,
0001
1000
0010
1000
0100
1000
0010
0100
0001
0010
0001
1000
0001
0100
0010
0100
,
0001
1000
0001
0010
0100
0010
0100
1000
0001
0100
0010
0100
0001
1000
0100
1000
,
0001
0100
0001
0010
0001
1000
0010
0100
0010
1000
0001
1000
0100
0010
0001
1000
,
0010
0100
0001
0010
0100
0010
0100
1000
0001
0100
0010
1000
0001
0010
0100
0010
,
0001
1000
0100
1000
0010
1000
0100
0010
0001
0100
0001
0010
0001
1000
0010
0100
,
0001
0000
0100
0000
0001
0000
0010
0000
0100
1000
0010
0100
0020
0030
2000
0000
,
3001
0100
0001
1000
0100
0010
0001
1000
0010
0100
0010
1000
0001
0100
0001
1000
,
0100
0010
0001
1000
0010
0100
0010
1000
0001
0010
0100
1000
0001
0100
0010
1000
,
0001
0100
0001
1000
0100
0010
0001
1000
0100
1000
0001
0100
0001
1000
0010
0100
,
0001
0010
0100
1000
0001
0100
0010
0100
0001
0010
0001
0100
0001
1000
0100
0010
,
0001
0100
0010
1000
0010
0100
0001
1000
0001
0100
0010
0100
0001
1000
0100
1000
,
0010
0100
0001
0100
0010
1000
0001
0100
0001
0010
0100
1000
0001
0100
0010
1000
,
0001
0100
0001
1000
0010
0100
0001
1000
0100
0010
0001
1000
0010
0100
0001
1000
,
0001
0000
0010
0000
0100
0000
1000
0000
0001
0100
0001
0010
0200
0300
2000
0000
,
3001
0100
0001
0010
0001
1000
0100
0010
0001
1000
0010
0100
0010
1000
0001
0100
,
0001
1000
0100
0010
0100
1000
0010
0100
0010
1000
0001
0100
0001
0010
0100
1000
,
0001
0100
0001
0010
0001
0100
0010
1000
0100
1000
0010
1000
0001
0100
0001
1000
,
0100
0010
0001
1000
0001
0100
0010
0100
0001
1000
0001
0010
0100
1000
0001
0100
,
0001
1000
0100
1000
0010
1000
0001
0010
0100
1000
0001
1000
0010
0100
0010
1000
,
0001
1000
0100
0010
0100
0010
0001
1000
0010
0100
0010
1000
0001
0100
0010
0100
,
0001
1000
0001
0010
0001
0100
0010
1000
0100
1000
0010
1000
0001
0100
0001
1000
,
0010
0100
0010
1000
0001
0100
0001
1000
0100
0010
0001
1000
0010
0100
0010
1000
,
0001
0100
0001
1000
0010
1000
0001
0100
0010
1000
0001
0010
0100
0010
0001
0100
,
0010
0100
0001
1000
0001
0100
0010
1000
0001
0010
0100
0010
0001
1000
0100
1000
,
0010
0100
0001
0100
0010
1000
0001
0100
0001
1000
0100
1000
0001
0010
0100
0010
,
0001
0100
0010
0100
0001
1000
0010
1000
0001
0010
0100
0010
0001
1000
0010
1000
,
0100
0010
0001
1000
0010
0100
0010
1000
0001
0010
0100
1000
0001
0010
0001
0100
,
0001
0100
0010
1000
0010
0100
0001
1000
0001
0010
0100
0010
0001
1000
0100
1000
,
0010
1000
0001
0100
0010
1000
0010
1000
0001
0010
0100
1000
0001
0010
0100
0010
,
0001
0100
0010
0100
0001
1000
0001
0100
0010
1000
0100
0010
0001
0100
0010
1000
,
0100
1000
0001
0100
0001
1000
0010
1000
0001
0010
0100
0010
0001
1000
0100
1000
,
0010
0100
0001
0100
0010
1000
0001
0100
0001
1000
0100
0010
0001
1000
0010
0100
,
0001
0010
0001
1000
0010
1000
0001
0100
0010
0100
0010
1000
0001
0010
0100
1000
,
0010
1000
0001
0100
0001
1000
0010
1000
0001
0010
0100
0010
0001
1000
0100
0010
,
0001
0100
0001
1000
0010
1000
0001
0100
0001
1000
0100
1000
0001
0010
0001
0100
,
0010
0100
0001
1000
0010
1000
0001
0100
0001
1000
0100
0010
0100
1000
0001
0010
,
0001
0100
0010
0100
0001
1000
0010
1000
0001
0010
0001
1000
0100
0010
0001
1000
,
0002
0003
0000
0000
0000
0000
0000
0000
,
0000
0000
0000
0000
0000
0000
0000
0000
1000
0001
0010
0000
0100
0000
1000
0010
,
0100
0010
1000
0001
0010
0100
0010
0001
1000
0010
1000
0100
1000
0001
0100
0010
,
1000
0100
0010
0100
1000
0001
0100
0010
1000
0001
0010
0001
0100
0001
1000
0010
,
1000
0100
0010
0100
1000
0001
0100
0010
0100
0001
1000
0010
1000
0100
1000
0001
,
0010
0100
0010
0001
0100
0010
0100
0001
1000
0010
1000
0100
1000
0001
0100
0010
,
1000
0100
0010
0100
1000
0001
0100
0010
1000
0001
0010
0001
0100
0001
1000
0010
,
1000
0100
0010
0100
1000
0001
0100
0010
0100
0001
1000
0100
1000
0010
1000
0001
,
0010
0100
0010
0001
1000
0010
0100
0010
1000
0001
0010
0001
0100
0001
1000
0010
,
1000
0100
0010
0100
1000
0001
0100
0010
0100
0001
1000
0100
1000
0010
1000
0001
,
0100
0001
0010
0100
0010
0001
1000
0010
1000
0001
0010
0001
0100
0001
1000
0010
,
1000
0100
0010
0100
1000
0001
1000
0010
0100
0001
1000
0010
1000
0100
1000
0001
,
0100
0001
0010
0100
0010
0001
1000
0010
1000
0001
0010
0001
0100
0001
1000
0010
,
1000
0100
0010
0100
1000
0001
0100
0010
0100
0001
1000
0010
1000
0100
1000
0001
,
0100
0001
0010
0100
1000
0001
0100
0010
1000
0001
0010
0001
0100
0001
1000
0010
,
1000
0100
0010
0001
1000
0010
0100
0001
1000
0100
1000
0010
1000
0001
0100
0010
,
1000
0100
0010
0100
1000
0001
0100
0010
1000
0001
0010
0001
0100
0001
1000
0010
,
1000
0100
0010
0001
0100
0010
1000
0001
0010
0100
1000
0010
1000
0000
0000
0000
,
0001
0010
0001
0100
0010
1000
0100
0010
0001
1000
0010
0100
0010
1000
0001
0010
,
0100
1000
0001
0100
0010
0100
0001
1000
0100
0010
0100
1000
0010
0100
0001
0100
,
0010
1000
0001
0010
0100
1000
0010
1000
0001
0010
0100
1000
0010
0100
0010
1000
,
0001
1000
0100
0010
0001
0100
0010
1000
0001
0010
0100
1000
0010
1000
0001
0010
,
0100
0010
0001
0100
0010
1000
0001
1000
0100
0010
0001
1000
0010
0100
0010
1000
,
0001
0010
0100
1000
0010
1000
0001
0010
0100
0010
0001
0100
0010
1000
0001
1000
,
0100
0010
0001
0100
0010
0100
0001
0010
0100
1000
0010
1000
0001
0100
0010
0100
,
0001
0010
0100
0010
0001
1000
0010
0100
0001
0010
0001
0100
0001
1000
0010
1000
,
0010
0100
0001
1000
0100
0010
0100
1000
0001
0100
0001
0010
0001
1000
0010
0100
,
0001
0010
0100
0010
0001
1000
0010
0100
0001
1000
0100
1000
0010
1000
0001
0100
,
0001
0010
0100
0010
0001
1000
0010
0100
0010
1000
0001
0100
0001
0010
0001
1000
,
0100
0010
0100
1000
0010
0100
0010
1000
0001
0100
0001
0010
0001
1000
0010
0100
,
0001
0010
0100
0010
0001
1000
0010
0100
0001
1000
0100
1000
0010
1000
0001
0100
,
0001
0010
0100
0010
0001
1000
0010
0100
0010
1000
0001
0010
0001
0100
0001
1000
,
0100
0010
0100
1000
0001
0100
0010
0100
0001
1000
0100
1000
0010
1000
0001
0100
,
0001
0000
0000
0000
0010
0000
0000
0000
0100
0000
0000
0000
1000
0010
0100
0010
,
2000
0000
0000
0000
,
0000
0000
0000
3000
,
0000
0000
0000
0000
,
0000
0000
0000
0000
,
0000
0000
0000
0000
,
0000
000M
0000
0000
;
