#TITLE:Turkish Delight;
#SUBTITLE:(Chronicles Of Narnia Soundtrack);
#ARTIST:David Crowder Band;
#TITLETRANSLIT:;
#SUBTITLETRANSLIT:;
#ARTISTTRANSLIT:;
#CREDIT:;
#BANNER:banner.png;
#BACKGROUND:turkish-bg.jpg;
#LYRICSPATH:;
#CDTITLE:;
#MUSIC:TurkishDelight.mp3;
#OFFSET:0.000;
#SAMPLESTART:54.545;
#SAMPLELENGTH:12.000;
#SELECTABLE:YES;
#BPMS:0.000=110.000;
#STOPS:;
#BGCHANGES:16.000=cm317[1].avi=1.000=0=0=1,
128.000=turkish-bg.jpg=1.000=0=0=1,
99999=-nosongbg-=1.000=0=0=0 // don't automatically add -songbackground-
;
// cache tags:
#FIRSTBEAT:8.000;
#LASTBEAT:128.000;
#SONGFILENAME:Songs/other/Turkish Delight/TurkishDelight.sm;
#HASMUSIC:1;
#HASBANNER:1;
#MUSICLENGTH:73.149;
// end cache tags

//---------------dance-single - ----------------
#NOTES:
     dance-single:
     :
     Easy:
     2:
     0.232,0.284,0.205,0.068,0.000,99.000,15.000,5.000,0.000,0.000:
0000
0000
0000
0000
,
0000
0000
0000
0000
,
1000
0000
0000
0000
,
1000
0000
0000
0000
,
1000
1000
1000
1000
,
0100
1000
0010
1000
,
0100
1000
0010
1000
,
0100
1000
0001
1000
,
1001
0001
0001
0001
,
1000
0100
0010
0001
,
1000
0100
0010
0001
,
1000
0001
1000
1000
,
1001
0000
0000
1000
,
0001
0100
0100
0001
,
1000
0100
0100
1000
,
0001
0100
0100
0001
,
2000
0000
0000
0000
,
3000
0100
0100
0001
,
1000
0010
0100
0001
,
1000
0100
0010
0001
,
2002
0000
3003
0220
,
0000
0000
0000
0330
,
1001
0001
0100
0001
,
1001
0010
0001
0010
,
1001
0100
0001
0100
,
1001
0100
0100
0000
1000
0001
0000
0000
,
1001
0100
0010
0100
,
1001
0010
0001
0010
,
1001
0100
1000
0100
,
1001
0100
0100
0000
0100
1000
0000
0000
,
1001
0000
0000
0000
,
0110
0000
0000
0000
,
1001
0000
0000
0000
;
