#TITLE:G-SYMPHONiCORE;
#SUBTITLE:;
#ARTIST:Jugem-T;
#TITLETRANSLIT:;
#SUBTITLETRANSLIT:;
#ARTISTTRANSLIT:;
#CREDIT:Rynker;
#BANNER:symphoni-bn.png;
#BACKGROUND:symphoni-bg.png;
#LYRICSPATH:;
#CDTITLE:;
#MUSIC:Jugem-T - G-SYMPHONiCORE.ogg;
#OFFSET:0.003;
#SAMPLESTART:134.401;
#SAMPLELENGTH:12.000;
#SELECTABLE:YES;
#BPMS:0.000=212.500;
#STOPS:;
#BGCHANGES:;
// cache tags:
#FIRSTBEAT:32.000;
#LASTBEAT:588.000;
#SONGFILENAME:Songs/SPEEEDCOOOORE 3/G-SYMPHONiCORE - [Rynker]/gsymphonicore.sm;
#HASMUSIC:1;
#HASBANNER:1;
#MUSICLENGTH:169.800;
// end cache tags

//---------------dance-single - Rynker----------------
#NOTES:
     dance-single:
     Rynker:
     Challenge:
     16:
     1.000,1.000,0.177,0.071,1.000,1642.000,30.000,12.000,0.000,0.000:
0000
0000
0000
0000
,
0000
0000
0000
0000
,
0000
0000
0000
0000
,
0000
0000
0000
0000
,
0000
0000
0000
0000
,
0000
0000
0000
0000
,
0000
0000
0000
0000
,
0000
0000
0000
0000
,
0001
0100
0010
1000
,
0100
0010
0001
1000
,
0001
0100
0010
0100
,
0001
1000
0100
0010
,
0001
1000
0001
0100
,
0010
0100
0001
0010
,
0100
1000
0100
0010
,
0001
1000
0001
0100
,
1001
0000
0000
0000
1000
0000
0001
0000
0001
0000
0010
0001
1000
0001
1000
0000
,
0010
0000
0100
0010
0010
1000
0001
1000
,
1001
0000
0000
0000
1000
0000
0010
1000
0010
0000
0100
0000
0001
0100
0001
1000
,
0100
0000
0000
0000
1000
0000
0100
0000
0110
0000
0000
0000
0010
0001
1000
0001
,
1000
0000
0010
0000
0100
0000
0001
0000
0001
0000
1000
0000
0100
1000
0100
1000
,
0001
0000
0000
0000
0010
0000
0001
0000
0001
0000
1000
0000
0010
1000
0010
0100
,
0001
0000
0000
0000
1000
0000
0100
0000
0100
0000
0010
0000
0100
0010
0100
0010
,
0001
0000
0000
0000
1000
0010
0100
0010
1000
0000
0000
0000
0001
0000
1000
0000
,
1001
0000
0000
0000
0001
0000
0010
0000
0010
0000
0100
0000
0010
0001
0010
0001
,
1000
0000
0000
0000
0010
0000
0100
0000
0100
0000
0010
0000
1000
0001
0010
0100
,
0010
0000
0000
0000
0100
0000
1000
0000
1000
0000
0001
0000
0100
0001
1000
0001
,
1000
0000
0000
0000
0010
1000
0010
1000
0001
0000
0000
0000
1000
0000
0100
0000
,
0110
0000
0000
0000
0010
0000
0001
0000
0001
0000
0010
0000
0001
1000
0001
1000
,
0010
0000
0000
0000
0100
0000
0001
0000
0001
0000
1000
0000
0100
0010
0100
1000
,
0001
0000
1000
0010
1010
0000
1000
0001
,
0011
0000
0000
0000
0110
0000
0000
0000
1001
0000
0001
0000
0100
0010
1000
0001
,
0010
0100
1000
0001
0100
0010
0100
0001
,
1000
0100
0010
0001
1000
0001
0100
0010
,
0100
0001
0010
0100
1000
0100
1000
0010
,
0100
0000
0010
0000
0100
0000
0001
0000
1000
0000
0100
0000
0010
0000
0001
0010
,
0100
0010
0001
1000
0010
0100
0001
0100
,
0010
0000
1000
0000
0100
0000
0010
0000
0001
0000
1000
0000
0001
0000
0100
0010
,
1000
0100
0010
0001
1000
0010
0100
0001
,
0010
0100
1000
0000
0001
0010
0100
0000
1000
0000
1000
0000
0000
0000
0001
0000
,
0100
0010
1000
0010
0100
0001
1000
0100
0010
0001
0010
0100
1000
0001
0100
0001
,
1000
0010
0100
0001
1000
0001
0010
0100
1000
0001
0010
0001
1000
0010
1000
0001
,
0100
0010
1000
0001
0010
0100
1000
0001
1000
0001
0100
0010
1000
0001
1000
0010
,
0100
0001
1000
0100
0010
0001
1000
0010
1000
0001
0100
0010
1000
0001
0010
0100
,
1000
0001
1000
0001
1000
0100
0010
0001
1000
0001
0100
0001
1000
0010
0100
0010
,
1000
0001
0100
0010
0100
0001
1000
0100
0010
0001
1000
0100
1000
0001
0010
0001
,
1000
0001
0100
0010
0100
0010
1000
0001
1000
0100
1000
0001
0010
0001
1000
0001
,
0100
0010
1000
0000
0001
0010
0100
0000
4000
0000
0000
3000
0001
0010
0100
1000
,
0100
0010
0001
1000
0100
1000
0001
0100
0010
0100
0010
1000
0001
1000
0100
0010
,
0001
0010
0100
1000
0001
1000
0010
0100
0001
0100
0010
1000
0001
0010
0100
1000
,
0100
0010
0001
1000
0001
1000
0010
0100
0010
1000
0001
1000
0001
1000
0100
0010
,
0001
1000
0100
1000
0001
0010
0001
1000
0010
0100
0001
0000
0000
0000
1000
0000
,
0100
0010
0001
1000
0100
1000
0001
0100
0010
0100
0001
1000
0010
0100
0001
1000
,
0001
1000
0100
0010
0001
1000
0100
0010
0001
1000
0010
0100
0001
0100
0010
1000
,
0001
0010
0001
1000
0100
0010
0100
1000
0001
0100
0010
0100
0001
1000
0100
0010
,
0001
0010
0100
1000
0100
1000
0001
0100
0010
0100
0001
0000
0000
0000
1000
0000
,
0001
0010
0100
1000
0100
0010
0001
1000
0100
1000
0001
0100
0010
0100
0001
1000
,
0001
1000
0100
0010
0001
0010
0100
1000
0001
1000
0010
0100
0001
0100
0001
1000
,
0100
1000
0001
0010
0100
1000
0001
0100
0010
0100
0010
1000
0001
1000
0100
0010
,
0001
1000
0001
1000
0010
0100
0001
1000
0001
0100
0010
0000
0000
0000
1000
0000
,
0100
0010
0001
1000
0001
1000
0010
0100
0001
0100
0010
0100
0001
1000
0100
0010
,
0001
1000
0100
1000
0100
0010
0001
1000
0010
0100
0010
0100
0001
1000
0001
1000
,
0100
1000
0001
0100
0001
0100
0010
1000
0001
0100
0010
1000
0001
1000
0100
0010
,
0001
0010
0100
1000
0001
1000
0010
0100
0001
0100
0010
0000
0000
0000
1000
0000
,
0001
0010
0100
1000
0001
1000
0010
0100
0001
0100
0010
0100
0001
1000
0100
0010
,
0001
1000
0100
1000
0001
0010
0001
1000
0010
0100
0001
0100
0010
1000
0001
0010
,
0100
0010
0001
1000
0100
1000
0001
0100
0010
0100
0010
1000
0001
1000
0100
0010
,
0001
0010
0100
1000
0001
1000
0010
0100
0001
0000
0000
0000
1000
0100
1000
0000
,
0001
0010
0100
1000
0001
1000
0010
0100
0001
0100
0010
0100
0001
1000
0100
0010
,
0001
1000
0100
1000
0001
0010
0001
1000
0010
0100
0001
0100
0010
1000
0001
0010
,
0100
0010
0001
1000
0100
1000
0001
0100
0010
0100
0010
1000
0001
1000
0100
0010
,
0002
0000
0000
0003
2000
0000
0000
3000
0020
0000
0000
0030
0200
0000
0302
0000
,
0000
0000
0000
0000
0000
0000
0000
0000
0000
0003
0000
0000
0000
0000
0000
0000
,
0000
0000
0000
0000
,
0000
0000
0000
0000
,
0000
0000
0000
0000
,
1001
0000
0000
0000
0000
0000
0000
0000
0110
0000
0000
0000
1001
0000
1000
0100
,
1000
0000
0001
0010
0001
0010
0100
1000
0001
1000
0001
1000
0001
1000
0010
0100
,
0001
1000
0001
0100
0010
1000
0010
1000
0001
0100
0001
0100
0001
0100
0010
1000
,
0010
0100
0001
1000
0010
1000
0001
0010
0100
1000
0100
1000
0100
1000
0001
0100
,
0001
1000
0100
0010
0100
1000
0001
0010
0100
1000
0100
1000
0100
0010
0001
0010
,
0100
1000
0001
0010
0100
1000
0100
1000
0001
1000
0001
1000
0001
0010
0100
1000
,
0001
0010
0100
1000
0001
1000
0001
0010
0100
1000
0100
1000
0100
1000
0001
0100
,
0010
1000
0001
0100
0010
1000
0010
1000
0001
0100
0001
0100
0001
1000
0010
0100
,
0001
1000
0001
0010
0100
1000
0001
1000
0001
0000
0000
0000
1001
0000
1000
0100
,
1000
0000
0001
0010
0001
0010
0100
1000
0001
1000
0001
1000
0001
1000
0010
0100
,
0001
1000
0001
0100
0010
1000
0010
1000
0001
0100
0001
0100
0001
0100
0010
1000
,
0010
0100
0001
1000
0010
1000
0001
0010
0100
1000
0100
1000
0100
1000
0001
0100
,
0001
1000
0100
0010
0100
1000
0001
0010
0100
1000
0100
1000
0100
0010
0001
0010
,
0100
1000
0001
0010
0100
1000
0100
1000
0001
1000
0001
1000
0001
0010
0100
1000
,
0001
0010
0100
1000
0001
1000
0001
0010
0100
1000
0100
1000
0100
1000
0001
0100
,
0010
1000
0001
0100
0010
1000
0010
1000
0001
0100
0001
0100
0001
1000
0010
0100
,
0001
1000
0001
0010
0100
1000
0001
1000
0001
0000
0000
0000
1001
0000
1000
0100
,
1000
0000
0001
0010
0001
0010
0100
1000
0001
1000
0001
1000
0001
1000
0010
0100
,
0001
1000
0001
0100
0010
1000
0010
1000
0001
0100
0001
0100
0001
0100
0010
1000
,
0010
0100
0001
1000
0010
1000
0001
0010
0100
1000
0100
1000
0100
1000
0001
0100
,
0001
1000
0100
0010
0100
1000
0001
0010
0100
1000
0100
1000
0100
0010
0001
1000
,
0001
0010
0100
1000
0001
0010
0100
1000
0001
1000
0001
1000
0001
0010
0100
1000
,
0001
0010
0100
1000
0001
1000
0001
0010
0100
1000
0100
1000
0100
1000
0001
0100
,
0010
1000
0001
0100
0010
1000
0010
1000
0001
0100
0001
0100
0001
1000
0010
0100
,
0001
1000
0001
0010
0100
1000
0001
1000
0001
0000
0000
0000
1001
0000
1000
0100
,
1000
0000
0002
0003
,
2000
0000
0000
0000
3000
0000
0000
0000
0002
0000
0000
0000
0203
0000
0000
0300
,
0101
0001
0010
0100
0010
0001
1000
0010
,
1010
1000
0001
0100
0010
0100
0001
1000
,
1100
0100
0010
0001
1000
0010
1000
0001
,
0101
0000
0100
0000
0010
0000
1000
0000
1001
0000
0001
0000
0010
0000
0100
1000
,
0100
1000
0001
1000
0010
0100
0001
1000
,
1010
0000
0010
0000
0100
0000
0001
0000
1000
0000
0100
0000
0010
0000
0001
1000
,
0001
1000
0010
0100
0001
1000
0010
1000
,
0001
0010
0001
0000
1000
0010
1000
0000
0001
0000
0001
0000
0000
0000
1000
0000
,
1100
0100
0010
0001
1000
0010
0100
0001
,
1001
1000
0100
0010
0001
1000
0010
0100
,
0101
0001
1000
0100
0010
0001
0100
0010
,
1010
0000
1000
0000
0100
0000
0010
0000
0011
0000
0001
0000
0100
0010
0100
0001
,
1000
0100
0010
0001
0100
0010
1000
0001
,
0011
0000
0010
0000
0100
0000
1000
0000
0010
0100
0001
0000
1000
0001
1000
0001
,
0010
0100
1000
0001
1000
0010
0100
0001
,
0010
0100
0010
0001
4000
0000
3001
0100
0040
0000
0000
0000
0130
0001
0100
0001
,
1000
0001
0100
0010
0100
0001
1000
0100
0010
0100
1000
0001
0100
0010
0100
0001
,
1000
0100
0010
0001
0010
0100
1000
0001
0100
0010
0100
0001
1000
0010
0100
0001
,
1000
0100
1000
0001
0010
0001
1000
0010
0100
0001
0100
0010
1000
0001
1000
0001
,
0010
0100
0010
0100
1000
0001
0100
0001
1000
0010
0100
0000
0000
0000
0001
0000
,
1000
0001
0010
0001
1000
0100
0010
0001
1000
0001
0100
0010
0100
0001
1000
0001
,
0100
0010
1000
0010
0100
0001
1000
0100
0010
0001
0010
0100
1000
0001
0100
0010
,
0100
0001
1000
0100
1000
0001
0010
0001
1000
0010
0100
0001
0100
0010
1000
0001
,
0010
0100
1000
0010
0100
0001
0010
0100
1000
0001
1000
0000
0000
0000
0001
0000
,
1000
0001
0100
0010
0100
0001
1000
0100
0010
0100
1000
0001
0100
0010
0100
0001
,
1000
0100
0010
0001
0010
0001
1000
0100
0010
0001
0010
0100
1000
0001
0100
0010
,
0100
0001
1000
0100
1000
0001
0010
0001
1000
0010
0100
0001
0100
0010
1000
0001
,
0010
0100
1000
0010
0100
0001
0010
0100
1000
0001
1000
0000
0000
0000
0001
0000
,
1000
0001
0100
0010
0100
0001
1000
0100
0010
0100
1000
0001
0100
0010
0100
0001
,
1000
0100
0010
0001
0010
0100
1000
0001
0100
0010
0100
0001
1000
0010
0100
0001
,
1000
0100
1000
0001
0010
0001
1000
0010
0100
0001
0100
0010
1000
0001
1000
0001
,
0010
0100
0010
0100
1000
0001
0100
0001
1000
0010
0100
0000
0000
0000
0001
0000
,
1000
0001
0010
0001
1000
0100
0010
0001
1000
0001
0100
0010
0100
0001
1000
0001
,
0100
0010
1000
0010
0100
0001
1000
0100
0010
0001
0010
0100
1000
0001
0100
0010
,
0100
0001
1000
0100
1000
0001
0010
0001
1000
0010
0100
0001
0100
0010
1000
0001
,
0010
0100
1000
0010
0100
0001
0010
0100
1000
0001
1000
0000
0000
0000
0001
0000
,
1000
0001
0100
0010
0100
0001
1000
0100
0010
0100
1000
0001
0100
0010
0100
0001
,
1000
0100
0010
0001
0010
0100
1000
0001
0100
0010
0100
0001
1000
0010
0100
0001
,
1000
0100
1000
0001
0010
0001
1000
0010
0100
0001
0100
0010
1000
0001
1000
0001
,
0010
0100
0010
0100
1000
0001
0100
0001
1000
0000
0000
0000
0001
1000
0001
0000
,
1000
0001
0010
0001
1000
0100
0010
0001
1000
0001
0100
0010
0100
0001
1000
0001
,
0100
0010
1000
0010
0100
0001
1000
0100
0010
0001
0010
0100
1000
0001
0100
0010
,
0100
0001
1000
0100
1000
0001
0010
0001
1000
0010
0100
0001
0100
0010
1000
0001
,
0020
0000
0230
0000
2300
0000
3010
0100
,
1001
0000
0000
0000
;
