#TITLE:Enough With Knife;
#SUBTITLE:- The Gatekeeper Chapter -;
#ARTIST:IOSYS;
#TITLETRANSLIT:;
#SUBTITLETRANSLIT:;
#ARTISTTRANSLIT:;
#CREDIT:;
#BANNER:Enough with Knife! - The Gatekeeper Chapter.png;
#BACKGROUND:Enough with Knife! - The Gatekeeper Chapter-bg.png;
#LYRICSPATH:;
#CDTITLE:;
#MUSIC:Enough with Knife! - The Gatekeeper Chapter.ogg;
#OFFSET:-1.760;
#SAMPLESTART:12.560;
#SAMPLELENGTH:11.980;
#SELECTABLE:YES;
#BPMS:0.000=200.000,164.000=100.000,176.000=200.000,304.000=100.000,316.000=200.000;
#STOPS:;
#BGCHANGES:;
// cache tags:
#FIRSTBEAT:4.000;
#LASTBEAT:364.000;
#SONGFILENAME:Songs/Index Tournament 1/Enough with Knife! - The Gatekeeper Chapter/Enough with Knife! - The Gatekeeper Chapter.sm;
#HASMUSIC:1;
#HASBANNER:1;
#MUSICLENGTH:105.000;
// end cache tags

//---------------dance-single - ----------------
#NOTES:
     dance-single:
     :
     Challenge:
     10:
     0.999,1.000,0.619,0.286,0.229,639.000,65.000,30.000,61.000,0.000:

0000
0000
0000
0000
,
1000
0000
0001
0100
0001
0100
0001
0000
0100
0000
0010
1000
0010
1000
0001
0000
,
0001
0100
0001
0100
0001
0100
0001
0100
,
0010
0000
1000
0100
1000
0100
1000
0000
0100
0000
0010
0001
0010
0001
1000
0000
,
1000
0100
1000
0100
1100
0000
1100
0000
,
1001
0000
0001
1000
0001
1000
0001
0000
0100
0000
0010
0100
0010
0100
0010
0000
,
0010
1000
0010
1000
0010
1000
0010
1000
,
0001
0000
1000
0100
1000
0100
1000
0000
0010
0000
0100
0001
0100
0001
0100
0000
,
0100
0001
0001
0001
1001
0000
1001
0000
,
1001
0000
1000
0100
0010
0001
0100
0010
,
0000
1000
1000
0010
0100
0000
0001
0000
,
1000
1000
0100
0010
0001
0100
0010
1000
,
0000
0001
0001
0010
0100
0000
1000
0000
,
1001
0000
0001
0100
0010
1000
0010
0100
,
0000
0001
0002
0000
1003
0100
0010
0001
,
1000
0000
0001
0100
0010
0000
1000
2000
,
0000
0001
0001
0001
3001
0000
1001
0000
,
1001
0001
1000
0100
0010
0001
2000
0000
,
3002
0000
0103
0001
0100
0000
1001
0000
,
0001
0100
0010
0010
1000
0100
0020
0000
,
0032
0000
1003
0100
1000
0000
1001
0000
,
0001
0001
0100
0010
2000
0000
3002
0000
,
2003
0000
3100
0010
0001
0000
1001
0000
,
1000
1000
0100
0010
0001
0002
0000
2003
,
0000
0000
0010
0000
3020
0000
0000
0000
0130
0000
0000
0000
0001
1000
0001
1000
,
0001
0000
1000
0100
0010
0001
1000
1000
,
0000
0001
0001
0100
0010
0000
1000
0000
,
0001
0001
0100
0010
1000
0010
0100
0001
,
0000
1000
1000
0100
0010
0000
0001
0000
,
1001
1000
0100
0010
0002
0000
1000
1003
,
0000
0001
0002
0000
0103
0010
1000
0010
,
0100
0000
0001
0010
0100
0000
1000
2000
,
0000
0001
0001
0001
3001
0000
1001
0000
,
1001
0001
1000
0100
0010
0000
0002
0000
,
0203
0000
0310
1000
0001
0000
1001
0000
,
1000
0100
1000
0000
0001
0100
0001
0000
,
1000
1000
0100
0010
0002
0000
1003
0000
,
1001
0001
0100
0010
1000
0100
0020
0000
,
0031
0001
0100
0010
1000
1000
0001
0000
,
0001
0001
0100
0010
1000
2000
0000
3020
,
0000
0100
0230
0000
0301
0000
0000
0000
,
1000
0000
0100
0000
0010
0000
0001
0100
0010
1000
0010
0000
0200
0000
0000
0000
,
0301
0000
0010
0000
0100
1000
0100
0010
0002
0000
0000
0003
1001
0000
1001
0000
,
1001
0000
0001
0000
0100
0000
0010
1000
0010
0100
0001
0100
0001
0000
1001
0000
,
1001
1000
0100
0010
0001
0100
0010
1000
,
0010
0100
0001
0010
0100
1000
0100
0001
,
0100
1000
0010
0100
0001
0010
1000
0010
,
0001
0100
0010
1000
0010
0010
0100
0000
,
1001
1000
0100
0100
0010
0001
0001
0100
,
0010
0010
1000
0001
1001
0000
1001
0000
,
1001
1000
0001
0001
0100
0010
0010
1000
,
0001
0001
0100
0001
0001
0000
MMMM
0000
,
1001
0000
1100
0000
1000
0100
0000
0010
,
0000
0001
0100
0010
1000
0000
0001
0001
,
1000
0000
0010
0000
0100
0001
0000
0100
,
0000
0010
1000
0000
1001
0000
1001
0000
,
1001
0000
1000
0100
0010
0001
0100
0010
,
0000
1000
0010
0100
0001
0000
1000
0100
,
1000
0000
0001
0000
0100
0010
0000
1000
,
0000
0010
0100
0000
0202
0000
0303
0000
,
1001
0000
1000
0100
1000
0100
1000
0000
0010
0000
0100
0001
0100
0001
1000
0000
,
1000
0001
1000
0001
1000
0001
1000
0001
,
0100
0000
0010
1000
0010
1000
0010
0000
0100
0000
0001
0100
0001
0100
0010
0000
,
0010
1000
0010
1000
0010
0000
1010
0000
,
1001
0000
1000
0001
1000
0001
1000
0000
0010
0000
0100
0010
0100
0010
1000
0000
,
1000
0100
1000
0100
1000
0100
1000
0100
,
1000
0000
0001
0010
0001
0010
0001
0000
0010
0000
0100
1000
0100
1000
0001
0000
,
0001
1000
1000
1000
1000
0000
1001
0001
,
M1M1
0000
M1M1
0000
M1M1
0000
M1M1
0100
,
0010
1000
0010
0100
0000
0001
0010
0100
,
11MM
11MM
11MM
2000
,
3001
0100
0010
1000
0000
0001
0100
0010
,
M11M
0000
M11M
0000
M11M
0020
0000
1030
,
0001
0100
0010
1000
0000
0001
0010
0001
,
1MM1
1MM1
1MM1
1MM1
,
1100
1100
0100
0010
0011
0000
0110
0000
,
1001
0000
0001
0000
0100
0000
0010
1000
0010
0100
0001
0000
2000
0000
0000
0000
,
3001
0000
0100
0000
0010
1000
0100
0010
0002
0000
0000
0003
1001
0000
1001
0000
,
1001
0000
1000
0000
0010
0000
0100
0001
0100
0010
1000
0001
1000
0000
1001
0000
,
10M1
0001
0100
0010
100M
0100
0001
0100
,
100M
0010
0100
0001
0M10
1000
0010
0001
,
M100
0010
1000
0010
M100
0001
0100
0010
,
1M00
0001
1000
0100
100M
0010
1000
0000
,
1M01
0001
01M0
1000
01M0
0001
0M10
1000
,
0M10
0001
M100
0010
100M
0100
M001
0100
,
M010
0001
M100
0010
0M01
0010
1M00
0001
,
10M0
0100
M010
0001
10M0
1000
1M00
0000
,
10M1
0001
0100
0100
0010
1000
1000
0010
,
0100
0100
0001
0010
0010
0000
0110
0000
,
1001
1000
0010
0010
0100
0001
0001
0010
,
0100
0100
1000
1000
0001
0000
MMMM
0000
,
1001
0000
0000
0000
;
